BluRayCD Forum

 找回密码
 立即注册【分享大片】
查看: 691|回复: 5
收起左侧

[动漫动画] 苹果核战记2/苹果核战记剧场版续集 Appleseed Ex Machina 2007 JAPANESE 1080p BluRaycd x264 DTS-FGT 7.96GB

[复制链接]
论坛网友
论坛网友  发表于 2009-6-27 14:48:43 |阅读模式
- r+ e7 b" W+ @$ Y" W4 D5 w

" J" p/ S1 n5 W! f: P4 r! H% g  v◎译  名 苹果核战记2/苹果核战记剧场版续集/ z  G" N) u. a9 q  q; p3 I
◎片  名 エクスマキナ / EX MACHINA / Appleseed Saga: Ex Machina / Appleseed 2 / アップルシード EX MACHINA: Y/ ^' ]" h: ]/ R
◎年  代 2007
+ ^) O0 b3 M+ u  }8 z+ V◎产  地 日本" ^- J& H- ^5 K, m7 R& m
◎类  别 动作/科幻/动画/惊悚6 w; T. C8 ^$ h' w) w6 z- i. g
◎语  言 日语% Y) Z$ u6 ]- T6 b
◎上映日期 2007-10-20(日本)
2 _* M# J' a* j5 V◎IMDb评分  7.1/10 from 9,323 users
' k0 R& c! [" k◎IMDb链接  https://www.imdb.com/title/tt1043842/$ u& f2 E8 E1 ~9 t, }% c
◎豆瓣评分 7.5/10 from 7,883 users
, T5 q0 @, P. Q; R◎豆瓣链接 https://movie.douban.com/subject/2123782/
" w/ E- N# k9 H◎片  长 1 h 44 min
! I& [! m+ P3 n8 U: |◎导  演 荒牧伸志 Shinji Aramaki  f! m" ^* L, Z0 J
◎编  剧 竹内清人  B3 @7 g* `' N4 \/ R+ }1 M3 m
◎主  演 小林爱 Ai Kobayashi
. _0 m) n% K* s, S       山寺宏一 Kôichi Yamadera
1 p6 b' }; `* H  ^+ J       岸祐二 Yûji Kishi
5 z' e# f  ?/ @       泽城美雪 Miyuki Sawashiro
4 l, S: E1 `" N       五十岚丽 Rei Igarashi
/ h* U% v) u2 y( C  U" z# ]; E6 A7 O9 d" K$ J' [% x
◎标  签 动画 | 科幻 | 日本 | 士郎正宗 | 日本动画 | 苹果核战记2 | 动漫 | 荒牧伸志) U/ P& _* b0 Z  m0 B& w4 X
" ]% _7 X+ F" ^
◎简  介  # N1 z% D- v& k, k7 L

* b3 ~4 i6 R: w$ ]0 n  西元2133年,世界陷入荒芜与混乱,愚蠢的人类亲手用核武器摧毁了自己赖以居住的场所。硝烟与战火散尽之后,孕育着希望的新城奥林帕斯建立起来,高科技的产物生化人 隆重登场,充当着服务人类的重任,而ESWAT则担负起保卫世界和平的重任。在一次执行任务中,布里艾诺斯(山寺宏一 配音)为保护女友迪娜·纳兹(小林爱 配音)而身受重伤,之后ESWAT高层利用布里艾诺斯的基因制作了生化人特雷斯,并让他和迪娜组成新的搭档。虽然颇有抵触,但在一段时间的相处后,迪娜内心深处悄悄发生着变化。
1 g) w" o9 Y$ I$ [5 q4 i2 }) Y, o4 g5 h' {( V. x
  与此同时,各地接连发生机器人失控危及人类的情况,而他们使用的武器全部指向了重工业最大生产国波塞冬。奥利帕斯高层研究加强对通信卫星的监控,突然之间,ESWAT内部经过改造的半机械人也失去控制。新的危机呈现,迪娜面临重大的抉择……
7 v4 ^# Y2 M& n4 v6 b6 l* h: _9 }6 `2 _+ O+ H
  With Brialeos convalescing after a mission, Deunan is assigned a new and remarkably familiar partner as a strange wave of terrorist attacks plague Olympus." E! _" B) \* I; T$ U1 }% V% N3 g
Video$ r0 I9 _+ e4 O( {
ID                                       : 14 x# ]. y$ J. D) F2 ?) V: B8 n
Format                                   : AVC
  b) J9 L0 W8 j4 \3 X( O2 S. IFormat/Info                              : Advanced Video Codec% }0 s8 a' c2 A' [+ \- g
Format profile                           : High@L4.1* N5 X8 ]+ K9 J1 y& u5 z
Format settings                          : CABAC / 4 Ref Frames
# b- K. g6 [6 K, t2 G+ f1 r: K0 ]Format settings, CABAC                   : Yes
, J; d  {# h+ b6 l+ w) I6 p, x8 dFormat settings, Reference frames        : 4 frames
  P: w8 b8 _6 I( cCodec ID                                 : V_MPEG4/ISO/AVC
' v  a5 D9 H+ T$ E9 p& kDuration                                 : 1 h 44 min9 K5 G$ \9 G0 h" J8 ^
Bit rate                                 : 7 917 kb/s  g! t. X9 Z: f
Width                                    : 1 920 pixels
$ q- A1 q0 ]/ N# S' [6 u, C7 mHeight                                   : 1 080 pixels
- D# C' C+ Z" O, h- hDisplay aspect ratio                     : 16:9
- L0 W" d$ D5 w- E7 j# X& GFrame rate mode                          : Constant
/ B7 X+ j5 P+ k* @% t  cFrame rate                               : 23.976 (24000/1001/37687) FPS
' X' @4 y8 M1 r$ I+ y- tColor space                              : YUV
+ W/ j. ~7 A9 B0 D; t/ s. kChroma subsampling                       : 4:2:0
: H) [) S" A, b, hBit depth                                : 8 bits
( _  H% d5 L% wScan type                                : Progressive
0 f" U4 r! X, g: P9 f% SBits/(Pixel*Frame)                       : 0.1598 k3 E% F. n: a$ K
Stream size                              : 5.76 GiB (72%)" L; I. d) V5 X  ]6 n
Title                                    : Appleseed.Ex.Machina.2007.JAPANESE.1080p.BluRayCD.x264.DTS-FGT  V* B# K3 j& Q3 W( B& c  O
Writing library                          : x264 core 120 r2164 da19765  R8 A0 x6 W% e7 B/ A6 X
Encoding settings                        : cabac=1 / ref=4 / deblock=1:1:2 / analyse=0x3:0x113 / me=umh / subme=10 / psy=1 / psy_rd=1.00:0.00 / mixed_ref=1 / me_range=16 / chroma_me=1 / trellis=2 / 8x8dct=1 / cqm=0 / deadzone=21,11 / fast_pskip=1 / chroma_qp_offset=-2 / threads=6 / sliced_threads=0 / nr=0 / decimate=0 / interlaced=0 / bluray_compat=0 / constrained_intra=0 / bframes=3 / b_pyramid=2 / b_adapt=1 / b_bias=0 / direct=3 / weightb=1 / open_gop=0 / weightp=2 / keyint=240 / keyint_min=23 / scenecut=40 / intra_refresh=0 / rc_lookahead=40 / rc=crf / mbtree=1 / crf=16.0 / qcomp=0.60 / qpmin=10 / qpmax=51 / qpstep=4 / vbv_maxrate=38000 / vbv_bufsize=30000 / crf_max=0.0 / nal_hrd=none / ip_ratio=1.40 / aq=1:1.00
  f/ e3 x; [! m% zLanguage                                 : Japanese6 L' z9 X, X5 b! [9 ~  c- s' X, |
Default                                  : Yes
* X% b8 k/ @5 H3 g- u( UForced                                   : No
& G4 q6 [) B" f& c) J1 K' [2 b  y7 \( G$ c5 s
Audio #1
1 o$ @" U* T* Z) j/ h1 E6 }ID                                       : 26 z6 _1 b/ O0 J- o7 K* d( t7 C
Format                                   : DTS6 Y4 t4 o+ B8 D* y, J5 T. i6 O8 z
Format/Info                              : Digital Theater Systems& S4 N% ]3 f! O! [6 s. r! F
Codec ID                                 : A_DTS$ D6 R. ^8 i# V5 J9 ^
Duration                                 : 1 h 44 min
& E9 z& J( X1 TBit rate mode                            : Constant; Q( x5 p1 |& e& ~
Bit rate                                 : 1 509 kb/s+ M2 u/ x' `9 t1 H
Channel(s)                               : 6 channels
0 Y: ]$ ^2 G3 C) M5 F4 ^3 y, FChannel layout                           : C L R Ls Rs LFE" F8 t. S' N0 N) O- k
Sampling rate                            : 48.0 kHz: L% P/ X6 M5 U; g
Frame rate                               : 93.750 FPS (512 SPF); C; v# d7 U: ~+ P4 l5 K1 u- ]
Bit depth                                : 16 bits- k9 K, |; T4 S( v5 n2 P' A
Compression mode                         : Lossy
% }* K' x! ]& o/ C; S7 y$ v5 ]Stream size                              : 1.10 GiB (14%)
# v% F, a+ }! E' K& QTitle                                    : Appleseed.Ex.Machina.2007.JAPANESE.1080p.BluRaycd.x264.DTS-FGT
/ t3 u6 J% \) w& u/ FLanguage                                 : Japanese8 r0 ]1 a: }$ o; v) C
Default                                  : Yes
# y) K1 N# M; q, ~( X$ \5 ?Forced                                   : No
2 p1 g, j, a% @; d
( A6 }0 ?4 T1 }3 jAudio #2
% Z2 F* G/ J( ~6 @9 G  a9 DID                                       : 35 {2 D/ u6 W. ~5 G$ j
Format                                   : DTS5 v" _# ]3 v2 D) r' l: r
Format/Info                              : Digital Theater Systems
5 b5 _& O+ M) j9 Z# dCodec ID                                 : A_DTS9 C5 _/ _' d# k& j2 O9 |+ n, M. E
Duration                                 : 1 h 44 min  F" H3 v/ d4 j" R1 C
Bit rate mode                            : Constant
4 C7 a3 i" Q8 z/ |$ v" KBit rate                                 : 1 509 kb/s# g0 [1 J) S) Z2 y* r
Channel(s)                               : 6 channels# S# L6 a0 V7 s1 y' T2 ~  v
Channel layout                           : C L R Ls Rs LFE# a' U9 z4 [* {3 b, W
Sampling rate                            : 48.0 kHz
4 i9 B+ u0 a) N2 [Frame rate                               : 93.750 FPS (512 SPF)
& r$ \/ m) V# _3 Q8 sBit depth                                : 16 bits
1 o4 R! v5 Z- A% ^6 b' pCompression mode                         : Lossy* ?2 D0 U* B) R) G
Stream size                              : 1.10 GiB (14%)
9 n. F7 A4 F0 U; r- @Title                                    : Appleseed.Ex.Machina.2007.JAPANESE.1080p.BluRaycd.x264.DTS-FGT
- P# D' Z* j7 Y0 f  pLanguage                                 : English! y. L, v( g7 Z1 n5 }5 E( c( l
Default                                  : No
4 K9 z2 d9 e$ sForced                                   : No
/ W3 A# ?4 P1 {$ S
/ g9 v/ x! x, I1 B8 A8 k3 ]% B) XText
: Y' {  I' ?& e" U! FID                                       : 40 w2 n- C9 Q0 H
Format                                   : UTF-8- b& t+ z: }& \% |7 X, C% ^! M% S
Codec ID                                 : S_TEXT/UTF8
; a$ N- }' Z+ @, q  qCodec ID/Info                            : UTF-8 Plain Text9 s" p$ |! f5 z$ |6 i2 W, \
Duration                                 : 1 h 43 min  q( t: i$ \6 c" X# z  I
Bit rate                                 : 44 b/s
8 q+ b8 h2 y; g5 JCount of elements                        : 1072! h4 m7 T0 f* G; P0 i  K
Stream size                              : 34.0 KiB (0%)4 b& y7 K5 k5 S: x
Language                                 : English' m' z/ C3 Y1 G8 o5 P3 E
Default                                  : Yes8 L) H" q: D" w; Y1 a
Forced                                   : No0 M8 Q  @, @' l4 J6 a

! G1 t! O4 q; d+ {Menu. R( ~% x4 e. M5 W  V
00:00:00.000                             : en:00:00:00.000
( {7 n& c' F# w3 S: \9 p00:01:51.611                             : en:00:01:51.611
) T  m% S% \2 c9 |/ C00:09:02.876                             : en:00:09:02.876
) w" ^+ v  p$ h$ i00:12:58.736                             : en:00:12:58.736+ i, F& u0 K: `" v2 {8 X6 m2 _+ R5 f
00:16:02.795                             : en:00:16:02.795$ T. E* F- ^3 D: e( b2 }/ N
00:17:37.556                             : en:00:17:37.556( Y0 N& I( W  \- f. `( I# |
00:21:27.620                             : en:00:21:27.620
4 h- z  h+ O; F5 B00:24:37.518                             : en:00:24:37.5183 m+ d: w4 e& K7 e1 @
00:29:59.965                             : en:00:29:59.965
  v: E/ a, B1 C1 c00:31:46.571                             : en:00:31:46.571$ P- }9 d+ J5 M8 S3 D
00:35:31.296                             : en:00:35:31.296
, w; s* S. J: {; m- Z* N6 g/ {00:42:32.884                             : en:00:42:32.8845 N3 H5 U, r3 t5 P* y6 I
00:44:15.319                             : en:00:44:15.319
/ J, _: s2 A" h" j. i00:46:48.305                             : en:00:46:48.305' X- z5 q' m; v  N
00:49:09.822                             : en:00:49:09.822/ K! `5 _3 `( V- E3 d
00:51:00.557                             : en:00:51:00.557- b  d4 u7 V7 l7 j0 d1 |8 _0 P
00:55:06.970                             : en:00:55:06.970
8 T  i; e2 J- X6 a9 n00:56:29.052                             : en:00:56:29.052* M( Z3 z' i' F& k  A
01:00:24.287                             : en:01:00:24.287
  t. m4 c5 z; H# \0 W2 I01:02:52.435                             : en:01:02:52.435- `" I) T9 _. P. f5 E
01:08:07.083                             : en:01:08:07.083' \+ u6 h: v7 S6 g% s
01:16:09.565                             : en:01:16:09.5658 o/ A( i0 k" O1 F, q( j
01:19:24.760                             : en:01:19:24.7601 q9 F1 B2 W  |
01:27:57.814                             : en:01:27:57.8147 v* x3 d; b- b* ^7 H9 ]: I' D
01:35:09.370                             : en:01:35:09.370/ I# @) J3 b$ c2 V
01:38:27.068                             : en:01:38:27.068
4 x6 ]- U6 t9 Y9 E8 ?01:40:07.543                             : en:01:40:07.543
/ T8 S$ |6 _+ i7 R) G! E  q, c
- u( f1 q2 Y0 x1 `; u
7 K- W, k1 E# l/ K* e
游客,查看本帖隐藏内容请回复 | 加入VIP可免积分免回复 了解详情 | 还不是会员:点击获取邀请码 Invitation Code

0

主题

135

回帖

707

积分

Sponsor

金币
14 枚
体力
389 点
myoracle 发表于 2022-11-22 15:39:48 | 显示全部楼层
啥也不说了,楼主就是给力!
2 N9 j0 Q( ?" J3 b; a2 OThe decisive Replies sink is I get the sinking feeling great sense of accomplishment!0 F( |5 \. c8 D# _, J1 P

2

主题

235

回帖

1179

积分

Sponsor

金币
3 枚
体力
722 点
yunzhongge 发表于 2022-11-23 05:11:47 | 显示全部楼层
8 E7 K9 y% }" C5 `) d! p
每天都来蓝光论坛看看
找新电影 .

0

主题

61

回帖

308

积分

Sponsor

金币
38 枚
体力
128 点
jienix 发表于 2022-12-3 16:03:10 | 显示全部楼层
感觉不错,看看

0

主题

338

回帖

1780

积分

知名人士

金币
563 枚
体力
485 点
huayoujing 发表于 2022-12-15 09:57:24 | 显示全部楼层
每天都来蓝光论坛看看3 Y8 m( Y: S, o8 ?

0

主题

240

回帖

1279

积分

Sponsor

金币
28 枚
体力
775 点
QQ
一见哈哈笑 发表于 2022-12-15 10:37:47 | 显示全部楼层
感谢楼主,感谢!

本版积分规则

小黑屋|Archiver|4K蓝光论坛

GMT+8, 2023-2-9 13:12

Copyright © 2001-2021, Gadaddy Cloud.

快速回复 返回顶部 返回列表