BluRayCD Forum

 找回密码
 立即注册【分享大片】
查看: 200|回复: 1
收起左侧

[动漫动画] 生化危机:血仇杀戮 [4K蓝光压制版 自带中字] Resident Evil Vendetta 2017 1080p BluRaycd x264 TrueHD 7.1 Atmos-SWTYBLZ

[复制链接]

8953

主题

9147

帖子

6万

积分

Post Share

金币
113 枚
体力
12493 点

卓越贡献勋章

24小时 发表于 2018-1-21 22:34:48 | 显示全部楼层 |阅读模式
! B$ F* _- _7 w! e& q$ P

% V8 ]5 Y1 z( w. _◎译  名 生化危机:复仇/生化危机:血仇杀戮(港)/恶灵古堡:血仇(台)! Q9 S* X- z- A8 d
◎片  名 バイオハザード:ヴェンデッタ / Resident Evil: Vendetta / Biohazard Vendetta
; v* U4 |% [5 S5 d8 N' N0 i◎年  代 20175 E: P' |- x! M3 T- m1 m
◎产  地 日本
( K' z' t, g% w" b( Q◎类  别 动作/动画/冒险/恐怖; G& B& B: E7 X% v
◎语  言 英语/日语
8 u" H* B! N8 b5 I0 i◎上映日期 2017-05-27(日本), ^5 d' }4 P2 o' i( Q9 t; R
◎IMDb评分  6.3/10 from 6,779 users" U+ A8 J  w$ U' M$ Y( r/ N( V
◎IMDb链接  https://www.imdb.com/title/tt5776208/5 y5 X2 \, F9 m0 m0 O3 i1 T
◎豆瓣评分 6.4/10 from 8,991 users6 \% m# B6 s' a& G7 ^
◎豆瓣链接 https://movie.douban.com/subject/26876342/; o$ \* R1 \$ j- _, F  j
◎片  长 1 h 37 min7 `& S( S: M7 |/ T0 b- q9 {3 X1 g
◎导  演 辻本贵则 Takanori Tsujimoto0 R( N5 X& z* ~# j
◎主  演 艾琳·卡希尔 Erin Cahill4 f8 T( \! n( F+ R! S
      达林·德·保罗 Darin De Paul( H* j0 Q( ^; \- w
      布莱恩·T·德莱尼 Brian T. Delaney6 l0 F& E. X3 j" k% V% v$ M' X
      约翰·德米塔 John DeMita
- r' f' n- F6 Q/ d' X      凯文·多曼 Kevin Dorman( j2 f: Z& F+ b$ `
      杰森·范特 Jason Faunt
' j+ Y  P2 j, G' p: E! T! ]$ s( f      阿里夫·S·金成 Arif S. Kinchen
4 I+ t( k! T% h& d# }& n& o      玛丽·伊丽莎白·麦格林 Mary Elizabeth McGlynn
* w6 W8 \3 ~: g. b- j" j      马修·默瑟 Matthew Mercer. V8 B0 l5 R# e; v/ t$ e
      托尼·奥立佛 Tony Oliver9 P7 o  \3 B( [
      阿尼·潘托哈 Arnie Pantoja
( m8 @5 T- Z5 r+ |- X: e      亚历山大·博林斯基 Alexander Polinsky
  J$ l: E0 Q0 r      凯伦·斯特拉斯曼 Karen Strassman% O! z7 B! I9 t: b: q, h5 y0 ^  o

$ J8 `6 E+ i9 }- l8 N; y& G◎简  介7 A* ^# L6 f  R4 @/ L) R
+ p+ H% y! v8 K( j  L& V
  BSAA的克里斯根据情报,率队突入私卖武器组织的据点——某所洋馆。在探索过程中,克里斯与国际通缉犯格伦·阿利亚斯展开对峙,结果看到难以置信的一幕并被对方逃走。另一方面,现任大学教授的瑞贝卡则在调查研究“死者苏醒并凶暴化”的离奇事件。在调查中,瑞贝卡发现了新型病毒与此事有关,并开发出了解药。但是研究所突然遭到袭击,危难关头在赶来的克里斯的帮助下,瑞贝卡才九死一生。此次袭击过后,克里斯和瑞贝卡找到了里昂,隶属于美国总统直属的DSO组织的他是最了解此次新型病毒事件的人物。格伦·阿里亚斯的真正目的是生化恐怖,再度相会的克里斯与里昂则和瑞贝卡一起,为了阻止对方的阴谋而奔赴纽约……
8 }$ u" n: r: S) V' Z7 c: e$ W) z  s- N0 v, L
  Chris Redfield enlists the help of Leon S. Kennedy and Rebecca Chambers to stop a death merchant with a vengeance from spreading a deadly virus in New York.
5 ?! R% W: X4 P. o$ {& c( O; Q
Video
! e  |) a+ D( _+ [4 p7 v& P& g& f, ?+ U* \ID                                       : 1. T, E2 y- K8 N- E8 \
Format                                   : AVC$ F! f/ D4 P( m6 e
Format/Info                              : Advanced Video Codec
9 x6 _7 @9 K! fFormat profile                           : High@L4.1
% N$ C* D+ z& s* x) }/ H$ K/ hFormat settings                          : CABAC / 4 Ref Frames" m0 k  E+ c$ d6 t% ?, z" Q
Format settings, CABAC                   : Yes
3 b$ p! q7 c7 ?& N& p/ }2 n  k0 T( ]Format settings, ReFrames                : 4 frames
, }/ r2 t) i( Z! n5 ^, K4 ACodec ID                                 : V_MPEG4/ISO/AVC
" u9 _% N" X/ i, QDuration                                 : 1 h 37 min
" p! w. u( J- bBit rate                                 : 9 755 kb/s
3 d8 ]2 {# f5 LWidth                                    : 1 920 pixels
6 v0 S% N, u6 |# B; B6 S& S1 J& SHeight                                   : 1 080 pixels* Z5 ]$ @) p3 m
Display aspect ratio                     : 16:9
2 d+ Z9 W. k/ J% a' iFrame rate mode                          : Constant; x0 T+ n0 P: [, M- `/ a  z$ e3 ~
Frame rate                               : 23.976 FPS
7 h: _+ K" f8 x& {" iColor space                              : YUV
' w) N: w- U2 X6 _+ u) aChroma subsampling                       : 4:2:0
; ~( y8 U) p* D- a0 ~Bit depth                                : 8 bits
# e% L7 `6 \, g: sScan type                                : Progressive' h8 U: ], e; P6 k  [* ]
Bits/(Pixel*Frame)                       : 0.196: ^9 B; \5 I. |* z0 R
Stream size                              : 6.62 GiB (62%)
) m: A* h" \7 c, N1 i  @* wTitle                                    : Resident.Evil.Vendetta.2017.1080p.BluRayCD.x264.TrueHD.7.1.Atmos-SWTYBLZ6 ^" X/ V$ ?8 }& m; T1 _1 s2 D
Writing library                          : x264 core 150 r2833 df79067
" _* Z7 y" Y  z, w7 v( YEncoding settings                        : cabac=1 / ref=4 / deblock=1:0:0 / analyse=0x3:0x133 / me=umh / subme=7 / psy=1 / psy_rd=1.00:0.00 / mixed_ref=1 / me_range=16 / chroma_me=1 / trellis=1 / 8x8dct=1 / cqm=0 / deadzone=21,11 / fast_pskip=0 / chroma_qp_offset=-2 / threads=24 / lookahead_threads=4 / sliced_threads=0 / nr=0 / decimate=1 / interlaced=0 / bluray_compat=0 / constrained_intra=0 / bframes=3 / b_pyramid=2 / b_adapt=1 / b_bias=0 / direct=1 / weightb=1 / open_gop=0 / weightp=2 / keyint=250 / keyint_min=23 / scenecut=40 / intra_refresh=0 / rc_lookahead=40 / rc=2pass / mbtree=1 / bitrate=9755 / ratetol=1.0 / qcomp=0.60 / qpmin=0 / qpmax=69 / qpstep=4 / cplxblur=20.0 / qblur=0.5 / ip_ratio=1.40 / aq=1:1.00
+ x2 k5 a6 \9 |3 F4 WLanguage                                 : English" A9 M8 _4 k! u9 [. F5 B7 |
Default                                  : Yes0 O$ |- q# w$ ~1 k
Forced                                   : No
- s4 \" D' O& J/ z6 c; N. ]" R7 ]
$ |8 [3 Z+ N$ I, R2 O6 [9 r5 ^Audio #1
. [. a5 e9 o3 d* b4 UID                                       : 2
( |% h! W2 ~: S- UFormat                                   : TrueHD
0 J- L" a( O& P2 BFormat profile                           : TrueHD+Atmos / TrueHD1 L6 F$ @% q8 @6 h. z; ]! U
Codec ID                                 : A_TRUEHD, G9 e- j/ m1 c) D7 t- E# s$ [
Duration                                 : 1 h 37 min
. V( _! o4 v9 c  kBit rate mode                            : Variable9 d6 U. G4 T# g6 F( s
Bit rate                                 : 5 020 kb/s
* N- K3 f9 o9 ?, gMaximum bit rate                         : 8 598 kb/s* e0 i5 S2 e2 W" f6 ^7 K" u3 c* E0 i
Channel(s)                               : Object Based / 8 channels3 F6 s: y  b5 k; q
Channel positions                        : Object Based / Front: L C R, Side: L R, Back: L R, LFE8 Q, E3 _" _7 t+ j5 l9 `
Sampling rate                            :  / 48.0 kHz* l0 y+ R7 {# \0 G# ]+ k
Frame rate                               : 1 200.000 FPS (40 SPF)
" C: d5 i+ E. gCompression mode                         : Lossless" H8 q2 t* ]4 v  P; J
Stream size                              : 3.41 GiB (32%)$ K/ \0 a8 d$ F" h: ^' h( ~
Title                                    : Resident.Evil.Vendetta.2017.1080p.BluRaycd.x264.TrueHD.7.1.Atmos-SWTYBLZ
: N4 o8 P: E3 Z& r4 ~1 DLanguage                                 : English
( ?+ M8 e( W  ^4 wDefault                                  : Yes9 h5 C! p$ L: W; ]
Forced                                   : No
# S2 R2 D& w  Q' u7 F# V* n$ K# s3 S
Audio #2
' C: P8 E# g0 n! K4 W. NID                                       : 39 s. E' P2 D5 F$ c% r8 U  Y0 U
Format                                   : AC-3
! d& c! L* o5 [# j+ NFormat/Info                              : Audio Coding 3
- M3 q% B: W# ~+ l- k* g% G# RCodec ID                                 : A_AC31 P5 M5 C. d# j% I2 \, N! |
Duration                                 : 1 h 37 min8 A( ]2 y' n) R9 E( Q* ~$ k* z" e
Bit rate mode                            : Constant  c: |' }3 ^/ ]2 ?$ h
Bit rate                                 : 640 kb/s; I( V8 P+ H6 s& B+ [3 J4 [
Channel(s)                               : 6 channels3 _& l2 z1 |4 ]
Channel positions                        : Front: L C R, Side: L R, LFE
. W5 e( i6 @- q. I' u' p& ?Sampling rate                            : 48.0 kHz1 a; B3 [% h3 h, T( \( l! e% x8 R) H3 T
Frame rate                               : 31.250 FPS (1536 SPF)
+ G. }) O7 ?% z, Q1 K4 z( IBit depth                                : 16 bits
5 H  H# y6 K: d8 `' dCompression mode                         : Lossy
) h+ K/ R4 d1 G- S" D  m+ w( aStream size                              : 445 MiB (4%)# J0 J5 r# O4 o. ]
Title                                    : Resident.Evil.Vendetta.2017.1080p.BluRaycd.x264.TrueHD.7.1.Atmos-SWTYBLZ! {: p7 l5 R$ t  B* z9 \
Language                                 : English
4 _9 R/ Z0 f: B4 t1 _9 nService kind                             : Complete Main* Z7 F- w/ K2 M+ p
Default                                  : No0 ?6 p) W( U  v
Forced                                   : No; [6 c- S+ N6 W4 o* o0 a

  ]4 B" Z1 m1 w3 U( |Text #17 r$ S( U! b$ O
ID                                       : 4+ |, A. @. {, {0 Y. y) I, H
Format                                   : UTF-8
) a8 X$ Q  G- OCodec ID                                 : S_TEXT/UTF8
& f: e* |! ^$ u2 u4 p% x5 tCodec ID/Info                            : UTF-8 Plain Text
# Z" z: z* \1 ^, N3 R1 DDuration                                 : 1 h 30 min
4 V3 e- e4 v; u( T( E8 V4 A, FBit rate                                 : 29 b/s
$ T5 a3 n2 I% L2 \* b. A7 [8 d8 }Count of elements                        : 554
) `' P% {/ |, _6 d$ J8 Q1 vStream size                              : 19.7 KiB (0%); h9 u6 H# K7 \' M* S1 O0 }
Title                                    : English-SRT6 Z+ y0 s, v5 T, l7 f
Language                                 : English1 s$ B$ l: W2 }, L0 f9 f
Default                                  : Yes; w" U5 y) z! @  a. v
Forced                                   : No# j5 {# P5 f  p# `& T" c! H8 \
& _( }0 W, v$ ]" u3 ]
Text #2
* a3 U# T7 s: q; h6 H0 r5 IID                                       : 5
/ N7 s: T3 y  wFormat                                   : PGS
4 b( k9 O0 I" t. ~: @* zMuxing mode                              : zlib2 P% x# R: C$ i7 Z# W
Codec ID                                 : S_HDMV/PGS2 P" F6 I  A' f* v2 V
Codec ID/Info                            : Picture based subtitle format used on BDs/HD-DVDs
3 i- t" {4 Y; b+ cDuration                                 : 1 h 36 min
5 l% s5 g7 E* u  S" k0 z+ K6 CBit rate                                 : 19.0 kb/s# ]0 n; J4 i) ~9 ]
Count of elements                        : 1529/ f/ b- J$ }. a2 \  @) G# d2 `
Stream size                              : 13.1 MiB (0%)8 e" x' T1 W' m% X6 l) }
Title                                    : English-PGS
( w. @6 o: k1 y0 PLanguage                                 : English3 x0 K; r% G- d
Default                                  : No
. c) S9 B0 d  v0 l; `4 iForced                                   : No% y. J" u# j1 t2 i/ F/ D! l  C

. c/ D% }. d, i0 z) x* lText #3  B& `- k4 X. g, q0 A8 i
ID                                       : 6
0 v5 Q; P7 g) k4 X/ S9 l9 PFormat                                   : PGS
& l+ s3 A# H! a# {7 iMuxing mode                              : zlib
+ v% Q  s, P! x0 lCodec ID                                 : S_HDMV/PGS
. {# i$ u& g; |) g. ]. ~Codec ID/Info                            : Picture based subtitle format used on BDs/HD-DVDs
, D! f) s( J" `# sDuration                                 : 1 h 35 min
' B+ _" {+ Z$ QBit rate                                 : 16.3 kb/s' ~7 \% [% r/ `- T2 G! d- O. L
Count of elements                        : 11699 I0 h8 B* E# F& Y/ f9 b6 U
Stream size                              : 11.2 MiB (0%)1 p8 ?) R. s) f# \; g
Title                                    : English-SDH-PGS; h* B; R) @% s$ W* y
Language                                 : English
7 d& R$ \7 O. ODefault                                  : No2 E5 z( v" s/ q8 X1 |$ ?
Forced                                   : No
1 R# y9 }7 h1 J- W) X* x! a/ o. g+ {7 z: p
Text #4: `8 i- G) @: T/ `
ID                                       : 7- w' K. ^: [$ S6 v5 |8 |5 S
Format                                   : PGS
1 B9 t. Y  ?+ d) |6 AMuxing mode                              : zlib
: U4 C8 f4 F& `6 x8 ]8 I( B1 l* H( HCodec ID                                 : S_HDMV/PGS# ]0 D5 u) P* `$ v8 [2 W1 i2 s
Codec ID/Info                            : Picture based subtitle format used on BDs/HD-DVDs
6 @7 r. X) ~7 g: S( U/ ]. ~# Z5 k1 vDuration                                 : 1 h 36 min9 a3 v: K( v( j& a  V
Bit rate                                 : 19.0 kb/s
6 o% @2 C( i7 S5 v+ V5 @+ kCount of elements                        : 1529
  j( `, v) s; `/ O/ v9 cStream size                              : 13.1 MiB (0%); p- l9 ~# P3 {' g# P
Title                                    : English-PGS7 i: s' P7 U; L. e2 m# Q
Language                                 : English
4 v2 T0 c3 w. FDefault                                  : No
* X, N) m$ i# ~7 a* rForced                                   : No9 j+ s8 C% i1 F# z; p0 x( C4 @& l
8 S+ P2 y, l5 {
Text #5
% W2 M) o* t6 a/ m9 m# [& `; BID                                       : 8
" S# ?7 W6 P) c* G0 h! H8 F& DFormat                                   : PGS: |0 m% F& g) Z. A  D
Muxing mode                              : zlib
; C& `, q2 x: h# z! O# g- o2 ]Codec ID                                 : S_HDMV/PGS
2 _1 Y! D3 d# cCodec ID/Info                            : Picture based subtitle format used on BDs/HD-DVDs
" R+ z5 B  O. QDuration                                 : 1 h 35 min
" a0 P2 d0 {8 X$ V* BBit rate                                 : 16.3 kb/s
% z# z# K7 O9 QCount of elements                        : 1175
/ C8 j! @7 P1 N: {' y6 f  ?Stream size                              : 11.2 MiB (0%)- I; @% u$ E4 }& _) n; M. D" I
Title                                    : English-SDH-PGS
( t4 P9 ~: t1 g2 _3 Z7 V7 W3 `Language                                 : English2 Z8 q& ~) @. Y- P% t
Default                                  : No, V* P8 @- o. t6 s0 v3 p
Forced                                   : No
. ^5 ?2 [  c% I- H. q' y
3 n0 f- P3 ]# y, {Text #6
# S: B/ L' G; W6 l* y* M8 VID                                       : 9
+ c+ D- z9 `- I& F' R3 aFormat                                   : PGS
) S  j  ?- w5 }" h$ u, A, xMuxing mode                              : zlib
% j9 _0 A7 u8 K7 [- HCodec ID                                 : S_HDMV/PGS
4 i& F. x. L; q2 c- h8 N4 ]Codec ID/Info                            : Picture based subtitle format used on BDs/HD-DVDs  v) H, H) w( ~9 _8 X2 M0 t
Duration                                 : 1 h 35 min
8 V+ m- B, `( M0 n3 J& vBit rate                                 : 9 434 b/s
0 G7 R  N; L! g' e2 c) M8 UCount of elements                        : 1201
6 Q8 E1 e7 z( |) y& z$ b1 TStream size                              : 6.47 MiB (0%)
, v# R* n5 l* ]* i9 R" \- ITitle                                    : Arabic-PGS$ m: Z, t* k6 j2 |$ H$ B+ B- }
Language                                 : Arabic
  d: f' r$ z1 Q: Y/ LDefault                                  : No
, C" w* o( }" D! WForced                                   : No/ }" M' i* F2 f8 T& J% c* C

1 g7 b4 B; J$ b& U, X: X( \Text #7
( M* Z: B, S! N# @; \ID                                       : 10
5 g& k& J% n" Y9 G0 K& TFormat                                   : PGS/ x& [- q# C  C
Muxing mode                              : zlib
( V" t" ^; w; M: RCodec ID                                 : S_HDMV/PGS
8 a) w6 y) @$ C. _/ p0 A, o) bCodec ID/Info                            : Picture based subtitle format used on BDs/HD-DVDs
' ~& n6 e7 j. u- o; \# UDuration                                 : 1 h 35 min
7 K3 W* q, s8 fBit rate                                 : 15.3 kb/s* H$ r6 f& Y: b0 f+ R' H5 o8 ]2 e& E
Count of elements                        : 1211% d; S# \  w. |
Stream size                              : 10.5 MiB (0%)$ o* w+ {; v2 I- \% b. j
Title                                    : Chinese-PGS
. U0 r, N+ w! B3 J  B% ]Language                                 : Chinese+ E: p: h2 V' v: D, F
Default                                  : No0 f" \& b, }( a" o! S# r. V1 [
Forced                                   : No
) B' Z+ ^! L. S7 \6 G
# Z3 g7 b. q% q6 T9 U/ UText #8
  z/ w3 @) k3 S) jID                                       : 11% F0 ?. Z$ J$ v% G5 n$ [: n7 K
Format                                   : PGS( L, E: C6 U4 Q8 g& O
Muxing mode                              : zlib+ q: ?" `0 B* n; B2 O$ Z
Codec ID                                 : S_HDMV/PGS# s, c/ m) r9 ]" y, G) a
Codec ID/Info                            : Picture based subtitle format used on BDs/HD-DVDs
; S/ |6 }6 x/ B, tDuration                                 : 1 h 35 min& [& I7 M# _- Y5 D, }5 h
Bit rate                                 : 15.5 kb/s
/ ^( Z1 c' L8 T* sCount of elements                        : 1203
" b' N4 A8 d! B( qStream size                              : 10.6 MiB (0%)9 G8 H7 V! J8 U' Q7 J, n; q
Title                                    : Czech-PGS
. ~/ c3 V  O& J, X9 pLanguage                                 : Czech4 F+ e! P) I5 o  ?3 c; Z) |  y
Default                                  : No
( Q) v# i/ Y% i1 m. r  x' `2 vForced                                   : No5 [- g! q( ?2 O
5 f2 ~5 T9 U. a8 G+ v
Text #9$ s- r" C* D4 u7 p( d9 H0 A& ~
ID                                       : 12
" O) ?9 E  d# h" E0 WFormat                                   : PGS
* F* y0 y! i/ B. XMuxing mode                              : zlib
8 S( W- W$ T! ~* }" H7 iCodec ID                                 : S_HDMV/PGS) Q2 |3 q6 e. f( B
Codec ID/Info                            : Picture based subtitle format used on BDs/HD-DVDs
! g, B3 ]: |  I0 G  ^+ r$ ~) VDuration                                 : 1 h 35 min
  T9 X4 f+ N  p+ E# h2 I3 XBit rate                                 : 15.6 kb/s7 o( s* ?. r4 Q: I
Count of elements                        : 11997 m' v" m8 v  o
Stream size                              : 10.7 MiB (0%)( j% g+ O, K$ \( F  P
Title                                    : Danish-PGS) `5 h3 B! b( G. x
Language                                 : Danish# w1 L, R/ V. F& v, ?1 i4 P
Default                                  : No
3 |' c6 E+ l* E4 F* C, CForced                                   : No6 N/ t' R( `: k
; p; [1 G1 o- v# F3 x' Y
Text #10* B$ ?  X4 R5 f7 \9 ~
ID                                       : 13
! `4 x# }: O2 ^) \( v- q6 A- iFormat                                   : PGS
7 _# S; m, M: k3 I1 lMuxing mode                              : zlib
, J# u; k5 N; ~: D! g9 ]- sCodec ID                                 : S_HDMV/PGS
3 @5 W3 v$ w3 q& xCodec ID/Info                            : Picture based subtitle format used on BDs/HD-DVDs
% G. E( {. _2 s# I2 y4 g! ^Duration                                 : 1 h 35 min
+ N8 p/ n4 v$ s" j/ @6 Q- |Bit rate                                 : 15.9 kb/s& g/ @3 e' J, q" s( _6 F( J
Count of elements                        : 11738 i/ s& ?8 k; Y2 Z; w) c% X
Stream size                              : 10.9 MiB (0%)' _, J( P% ~$ h7 Z
Title                                    : Dutch-PGS
. |+ h2 f( ^9 R- e% MLanguage                                 : Dutch
) I  W* E; y' Q; _Default                                  : No! m* @* v3 \4 D  F" O* d7 s5 \3 u
Forced                                   : No% b8 J" k$ k1 y
0 `, O/ f/ P( w5 J5 g: n# J
Text #11- ]3 _! g- q! L) D2 b3 H" [
ID                                       : 14
8 r) Q$ f3 L2 K- I/ E! [Format                                   : PGS
+ e; }3 `* U7 P3 i9 f& J; wMuxing mode                              : zlib
! l% F% E6 S& X9 aCodec ID                                 : S_HDMV/PGS
+ S& s. w, v% C5 v6 ECodec ID/Info                            : Picture based subtitle format used on BDs/HD-DVDs; Z; p2 ~/ M: [, w1 m4 [" I
Duration                                 : 1 h 35 min& t  J7 o; @8 s. d0 @0 z. B) L
Bit rate                                 : 16.5 kb/s
; I! E' G4 l" E2 q' ECount of elements                        : 12070 `- K9 D0 X, K- S) J: ?
Stream size                              : 11.3 MiB (0%)* a# b/ p- a# T9 [
Title                                    : Estonian-PGS2 w9 r+ Y& `& ]' b/ J
Language                                 : Estonian4 U3 `% e" }2 |
Default                                  : No" r# _- G! c  F0 {$ H
Forced                                   : No
2 V' ]! [7 T: T0 d. F. S$ c! X: |2 r& r4 V! Q' q1 v% d
Text #12
& C9 M, U# Z$ t1 DID                                       : 15
. `5 [0 l3 \/ m! C3 ^  |/ T* DFormat                                   : PGS
! U7 {+ o% \* i' O9 c, wMuxing mode                              : zlib+ ]7 c# c3 o( {  m+ I9 v- @. L
Codec ID                                 : S_HDMV/PGS
3 y" Z/ A6 \5 ]+ ZCodec ID/Info                            : Picture based subtitle format used on BDs/HD-DVDs
6 ~% l4 k' F' L  PDuration                                 : 1 h 35 min
' y1 ~! b' S- F- PBit rate                                 : 15.3 kb/s: d: D- I6 F% S5 M# a' V
Count of elements                        : 995
, S! p" \& a6 H0 u' SStream size                              : 10.5 MiB (0%)  _% O4 }" S, |0 A# A" q
Title                                    : Finnish-PGS
+ H- [6 ^$ q7 ^& dLanguage                                 : Finnish
% X8 K* `3 q( n: m6 T! qDefault                                  : No* v2 `1 [1 ?9 y( h' i( I' H! l5 x
Forced                                   : No: T- L- j/ @4 H2 z

* z( g3 ]4 Q0 A; r* qText #13
7 X, c% o3 E) U% xID                                       : 16
! N9 N3 e1 R. C+ [( m6 ^Format                                   : PGS- h0 n# c4 ]9 @+ Q, h- R
Muxing mode                              : zlib
* G! K1 t+ n- e; {+ r: i/ E( xCodec ID                                 : S_HDMV/PGS
' c& C- P1 y. f  L8 }3 ?, B9 {Codec ID/Info                            : Picture based subtitle format used on BDs/HD-DVDs$ j% P/ s( a9 F& c% }8 c) K8 C
Duration                                 : 1 h 35 min
" H- a: R0 ^' A; MBit rate                                 : 14.6 kb/s
( E4 g$ p6 v: W4 ^: OCount of elements                        : 1165- E( k3 Y% V# Z* I  r: O7 z5 F
Stream size                              : 10.0 MiB (0%)
! x0 Y1 g% L$ HTitle                                    : French-PGS
+ b8 z. i! S$ L6 j' e8 wLanguage                                 : French9 ^' y7 T5 c- F5 `# q/ m
Default                                  : No
( P4 t( e" [! E2 lForced                                   : No
" I) T2 z, x  U5 }9 d* Z
/ `3 V9 a( u: s; s, UText #14
0 c# F: v) K3 X( f* j# l: |$ ?ID                                       : 17( y3 ?3 c3 N( F2 Q8 O
Format                                   : PGS* t& Y3 m8 l4 A7 R- I4 F7 s- j
Muxing mode                              : zlib
: ?( ~  P( \* s( D0 {( S8 G; ^Codec ID                                 : S_HDMV/PGS
$ y" i/ _0 q8 {+ G0 ~Codec ID/Info                            : Picture based subtitle format used on BDs/HD-DVDs+ H+ f+ h1 y. F* b$ D$ \
Duration                                 : 1 h 35 min. v0 Y1 P- p1 k4 m  q5 Y
Bit rate                                 : 18.6 kb/s3 |& l# p* T# d; S" d6 i" }
Count of elements                        : 1235' E. M" l1 n/ G6 o) \
Stream size                              : 12.7 MiB (0%). L8 s2 z- k; D0 I3 {
Title                                    : German-PGS
$ C% u5 S2 y1 h% a. `1 tLanguage                                 : German* r: `3 @# t' d# d$ B( f+ A! O
Default                                  : No
$ K; `$ J7 k2 UForced                                   : No( H2 @+ I, w/ @

2 ?6 G" V6 f, L+ bText #154 @/ _( L; Y- J8 _) p
ID                                       : 18
" V5 K" T' D/ q8 |# A5 r9 r4 fFormat                                   : PGS4 \0 q: x) l- m  T0 @: V
Muxing mode                              : zlib' V) o) Q& k  V5 W/ c
Codec ID                                 : S_HDMV/PGS
: b9 [; b; C' G  @& zCodec ID/Info                            : Picture based subtitle format used on BDs/HD-DVDs
+ r" S# M- \+ \- V% mDuration                                 : 1 h 30 min. M7 R7 x0 |) F6 r
Bit rate                                 : 18.2 kb/s
8 I4 e. o) V4 y! ]  q3 KCount of elements                        : 1209- v( u! h' N; B1 t' T$ p6 u
Stream size                              : 11.8 MiB (0%)
" {1 x# R6 M: c+ A5 `' mTitle                                    : Greek-PGS
  ]' C. U/ S$ p8 \2 l0 {Language                                 : Greek* h/ C  {, ]: q) U
Default                                  : No
7 `5 Y) a* b8 FForced                                   : No' N2 I2 r5 e6 z$ L
7 K5 ]* q3 f" x$ K) s% b, ?0 w
Text #16
4 V  R' i0 |8 t* j* t, V9 k$ g/ q2 t' X0 WID                                       : 19
! l  B% t2 O' e( Z6 fFormat                                   : PGS
9 E3 @# v2 B( h0 Q& U  K+ V7 WMuxing mode                              : zlib
# j- c6 J. j- g0 X) PCodec ID                                 : S_HDMV/PGS
' D6 A. [: y6 P, l# ZCodec ID/Info                            : Picture based subtitle format used on BDs/HD-DVDs' J' h6 Z$ a  @: g2 k
Duration                                 : 1 h 35 min& B7 A, ^, _- r( Q1 L9 `
Bit rate                                 : 13.6 kb/s
  V# b. m+ n9 yCount of elements                        : 1197* _8 V+ ]3 M+ V' @2 A
Stream size                              : 9.34 MiB (0%)
: n: D! B) u9 I$ \Title                                    : Hebrew-PGS. r! ^! b. u  K+ ^6 }( O
Language                                 : Hebrew
2 n$ Q- @' |0 q" o( JDefault                                  : No
' ]" o; A6 e: T) J) j6 MForced                                   : No$ o# a. L+ U1 j9 c1 H2 C/ W
8 a& S$ W4 E( q! y
Text #17
  L# L& ~, P; s8 `0 [/ S2 eID                                       : 208 O% g; O. |" s: L$ F# L
Format                                   : PGS
7 B) D$ f3 x  yMuxing mode                              : zlib* ~: Q: s% P) J' c# g' ]5 Q# l
Codec ID                                 : S_HDMV/PGS" \0 ~3 Z) A" D# T5 Q/ R, B
Codec ID/Info                            : Picture based subtitle format used on BDs/HD-DVDs
7 ^6 k! ?5 x, ~* N! g  a; \) u  zDuration                                 : 1 h 35 min
! T$ y3 k- O. h- nBit rate                                 : 17.0 kb/s
$ B! c% w. k) ^% j: _$ y0 M0 e) JCount of elements                        : 12091 ?. u- b, ~2 K4 U  D% E7 w
Stream size                              : 11.6 MiB (0%)
4 K. O8 A/ l( j: L8 j9 Q  }Title                                    : Hungarian-PGS
7 Y) h5 O, D: Z: ~) N$ o4 eLanguage                                 : Hungarian
; M3 ?8 W5 ?( ~/ \. K2 `Default                                  : No3 t9 w6 l+ |; U$ W+ m1 j: ~$ J
Forced                                   : No
, O: E) P, D/ b( Y7 ?8 H) I3 p$ x- V+ e6 x+ e+ n
Text #18
" a7 n4 M4 T# J( ]ID                                       : 21( h. S/ X; o6 G; W
Format                                   : PGS
+ h7 H2 R9 S4 h2 }5 p0 _Muxing mode                              : zlib' F& x" g$ k' v1 v) M
Codec ID                                 : S_HDMV/PGS7 r0 r: Z5 q+ i$ c0 H) s
Codec ID/Info                            : Picture based subtitle format used on BDs/HD-DVDs  e4 e% B2 i# X+ u
Duration                                 : 1 h 35 min
$ Z! Q% G- g7 K8 EBit rate                                 : 17.3 kb/s3 e* m4 r8 R8 r3 X: `9 [
Count of elements                        : 1207
; |( R) p7 V- @! E2 S! _  U6 JStream size                              : 11.8 MiB (0%)
$ E% e. |" F6 n: S6 P* r' z9 D/ ATitle                                    : Icelandic-PGS3 e4 z% W. S1 v( u  z
Language                                 : Icelandic( i) u; e0 U7 J6 W
Default                                  : No0 E2 y' `. r& ^6 k2 C
Forced                                   : No' Q* W9 f' Y  [

# M0 A+ x3 d+ ?Text #19
" ?' p* _( C& LID                                       : 22
7 x' W. |( m3 J* m4 iFormat                                   : PGS
8 O$ B* X1 k; |& k; {: Z4 DMuxing mode                              : zlib6 z. Z" S- P7 F0 X
Codec ID                                 : S_HDMV/PGS
+ X$ t7 h# o! ~* }% }% uCodec ID/Info                            : Picture based subtitle format used on BDs/HD-DVDs
+ m3 F  D1 V, d6 P7 y/ x; e  U( wDuration                                 : 1 h 35 min
7 _0 U- L- _& E/ }% WBit rate                                 : 17.6 kb/s
& X* p9 Y) u" G9 l1 |: p6 }. ]3 ]. ICount of elements                        : 1203$ }7 d& m/ V2 ^2 e2 H0 G
Stream size                              : 12.1 MiB (0%)
4 J- M1 K" a! N. y8 Z1 Z0 lTitle                                    : Italian-PGS
: v1 I% d# c8 h6 uLanguage                                 : Italian$ ~  P8 w6 `' ]& C
Default                                  : No
6 ]0 C1 o4 \8 W, y8 p  t8 pForced                                   : No, ]# N; @7 C  E- [

# K7 A4 c. o6 x, s1 C% AText #20
6 w( T( B3 q+ nID                                       : 23
) G) `+ z% Z3 v" l4 [- A4 b0 jFormat                                   : PGS: f2 W: W8 F& h3 |' N
Muxing mode                              : zlib# K$ n0 x( A. L* ~! G8 ?3 O8 A, V, V
Codec ID                                 : S_HDMV/PGS
/ X1 B8 S9 j# G, r$ A: XCodec ID/Info                            : Picture based subtitle format used on BDs/HD-DVDs4 o  G+ K# T, u9 ]7 ], ]  M* x
Duration                                 : 1 h 35 min
1 A+ z0 j* Q# m, p  _9 MBit rate                                 : 13.0 kb/s
" a" a) i1 k7 H6 I* v$ v$ g, C% uCount of elements                        : 1215/ T' ?3 N& c# O4 x9 I
Stream size                              : 8.89 MiB (0%)  v) P8 W* E  Z; j
Title                                    : Korean-PGS+ [) k6 n! g  v- G1 `6 r& A1 m0 j
Language                                 : Korean0 j8 C2 o" x4 l7 z$ [3 {1 V
Default                                  : No' M7 X; Q# A! m- S7 }
Forced                                   : No* Q/ f0 ~; T/ r
$ [/ A+ f. W( B5 V
Text #21- c" Z% W) }( U( V4 u' ?- t( u
ID                                       : 24
  [$ E% i6 s& e7 @. H* kFormat                                   : PGS
# B% l# \' E6 h; s3 S8 N$ XMuxing mode                              : zlib4 _  F1 W& f" p3 T6 u
Codec ID                                 : S_HDMV/PGS
0 z' v+ d2 I) `$ @Codec ID/Info                            : Picture based subtitle format used on BDs/HD-DVDs
4 E5 O7 T  U9 W, ADuration                                 : 1 h 35 min
6 e% E3 q0 [; Z: {) z/ BBit rate                                 : 15.0 kb/s* t* u1 ~! ]& N
Count of elements                        : 1211
9 Q4 k& G0 m0 D  c0 C4 sStream size                              : 10.3 MiB (0%)
( {  O$ @, J) ?Title                                    : Latvian-PGS* R5 x/ M" w. E+ w4 S
Language                                 : Latvian3 ]* Y6 W* O  s6 ^
Default                                  : No" w7 q7 q1 r5 v) B
Forced                                   : No
( |! e+ z) ~) R' O  c; n; Y4 n, f* _% ~" f: [" p
Text #220 f- y4 }; ?6 c( \* l- l
ID                                       : 253 n1 F8 d+ t& h' \' k1 @5 ^, {
Format                                   : PGS# g6 x! X' u0 A5 L+ k5 p
Muxing mode                              : zlib
* ]' o- s* X5 z0 t! V' d) CCodec ID                                 : S_HDMV/PGS8 F& z& A: f% R9 q# X6 b3 F
Codec ID/Info                            : Picture based subtitle format used on BDs/HD-DVDs
6 S& [& i; t% s8 E+ t9 S) _Duration                                 : 1 h 35 min7 `4 K) r5 F6 d: z* `
Bit rate                                 : 15.0 kb/s
3 w% |5 I: v4 q$ l% c% oCount of elements                        : 1213
6 o7 k+ ~) ?. s2 x8 ?Stream size                              : 10.3 MiB (0%)9 F: l; h6 A: T% R; k
Title                                    : Lithuanian-PGS
# n6 H  ~) Y0 T6 e6 R4 T1 _- XLanguage                                 : Lithuanian
- z' ?6 L7 p7 F' U( |Default                                  : No7 |9 k( d6 C3 w- ?
Forced                                   : No: i2 b$ W2 @4 S& l# e

) u3 o& ^) i9 k( v% TText #23
+ f8 P: T, m5 S. o" YID                                       : 26
: V7 O! _. e1 g' b4 v; OFormat                                   : PGS
( h( X4 W( y4 p) g4 w# }* m! _# CMuxing mode                              : zlib
2 L. Q5 A. X7 I- H& vCodec ID                                 : S_HDMV/PGS  |8 V: J! |& h* h3 n
Codec ID/Info                            : Picture based subtitle format used on BDs/HD-DVDs4 T' w1 X& m6 ^; T0 @# X, S
Duration                                 : 1 h 35 min
- \' z' Z" @, r5 c# o$ I& M5 nBit rate                                 : 15.9 kb/s/ k- e; |) L' _8 X9 }
Count of elements                        : 1201
+ A- G! I- j, G: bStream size                              : 10.9 MiB (0%)
8 f. P: g% x1 \Title                                    : Norwegian-PGS
( E- j) H% i. C; b# k6 oLanguage                                 : Norwegian
3 Q4 E  G$ L: i, ]! XDefault                                  : No
9 h3 Z5 [1 b* q, Z9 lForced                                   : No
4 M! n9 G* D, B/ m1 R/ l
* X# C* ^6 U( F4 `  M6 d3 W6 L. nText #24
& Q3 q. E( L) y: [0 w& V* {ID                                       : 27
0 R7 ]  Q+ @6 B" r& O& OFormat                                   : PGS$ r3 M' B3 W4 J0 f
Muxing mode                              : zlib9 \8 r: H8 I8 ~" c, P7 Q
Codec ID                                 : S_HDMV/PGS
4 t+ f, b7 r6 w4 f* N/ A1 jCodec ID/Info                            : Picture based subtitle format used on BDs/HD-DVDs# Y7 f8 B0 \* z/ }! ]( e/ M" \
Duration                                 : 1 h 35 min
4 B& P1 U, e- W1 V; YBit rate                                 : 15.1 kb/s  u  A/ q; B8 |* @6 c0 ~
Count of elements                        : 1177& R. O; {" L( @  _- p  D
Stream size                              : 10.4 MiB (0%)! t# |: I/ S' |# d4 u
Title                                    : Polish-PGS
* L" A. c* U) `$ c3 l! {9 W( |, J& oLanguage                                 : Polish
7 [+ V6 r. i& H- MDefault                                  : No% w, G# ~1 i: [! l7 F
Forced                                   : No4 V- q* w, G' _

5 f0 {$ O$ D6 z" PText #25
& @7 d- k- ]4 {6 o$ S$ lID                                       : 281 M# B/ J% r6 m0 Q& w6 L* T4 g7 ^
Format                                   : PGS; B& w, \* n, S+ I6 H6 H# K
Muxing mode                              : zlib9 H; Y' C1 p0 y, R5 V# O
Codec ID                                 : S_HDMV/PGS
9 y* M+ J3 S: L4 Y+ `  r( A# b& DCodec ID/Info                            : Picture based subtitle format used on BDs/HD-DVDs
/ s3 O% s) b( P, n& YDuration                                 : 1 h 35 min& h8 L7 \9 Q8 d# V9 ?1 v
Bit rate                                 : 18.0 kb/s
* }: W# i2 u: J, G& e: sCount of elements                        : 1253- m6 Z. v  V& w3 p* l) r' }
Stream size                              : 12.4 MiB (0%)
: E! ~7 ]6 {9 m3 z# R5 L" {Title                                    : Portuguese-PGS
" f4 `% o( T) B% T+ S( V& zLanguage                                 : Portuguese5 Z$ q: @, T* l
Default                                  : No1 Z- F. I! E" ?; H
Forced                                   : No$ H% |( U$ F) H; V- w
) ~4 n4 U6 K$ ]: g- h4 H+ U
Text #263 l( A" `+ Y- U0 a( b& J6 I, T' r
ID                                       : 297 ?% n- h# W$ I
Format                                   : PGS" A+ p6 O3 ~6 `2 c" r) F% L  L
Muxing mode                              : zlib
  K8 f" M4 R0 ^8 dCodec ID                                 : S_HDMV/PGS
1 s) U' N: R$ B% T/ }Codec ID/Info                            : Picture based subtitle format used on BDs/HD-DVDs
- E9 ^9 }$ I8 E3 U* s3 cDuration                                 : 1 h 35 min
$ ^- G; N: J3 i' _9 bBit rate                                 : 17.6 kb/s& q4 g& [/ v7 o7 d& b1 r/ C: t* D! E
Count of elements                        : 1205
- k: n; d" ~% [* p2 {8 fStream size                              : 12.1 MiB (0%)
2 `1 c: ]0 ], e9 G( UTitle                                    : Portuguese-PGS) O: q* E  C' G: @
Language                                 : Portuguese; x, d' I( Y5 B* l4 ~
Default                                  : No0 ?+ h) l: v% l5 s4 r* S  k
Forced                                   : No
1 R" E, Y" Z7 v3 f3 B7 x1 B$ f( v; O+ c# y7 t/ S1 s
Text #27# ]  r( c( T/ B5 b' Q
ID                                       : 30  R; L* f. s! ^  e( O
Format                                   : PGS
2 L, W1 w6 t; }Muxing mode                              : zlib3 }% n$ `( a1 G8 T* D" a
Codec ID                                 : S_HDMV/PGS
8 x- t# Y/ E2 FCodec ID/Info                            : Picture based subtitle format used on BDs/HD-DVDs4 Z9 a. n1 Z- ~* Y
Duration                                 : 1 h 35 min
+ h- `1 q$ B  F3 m0 x( VBit rate                                 : 15.9 kb/s
# ^% J6 }6 c: c' J' T  ]Count of elements                        : 1189
* M5 q$ l1 F( f. v$ s0 s7 O6 JStream size                              : 10.9 MiB (0%)& o8 Q  z6 [& d* e0 j
Title                                    : Romanian-PGS3 ^4 R3 h1 m# P+ q- v
Language                                 : Romanian
" c1 H$ [! h& M; r+ e# l( S# E  b4 m6 LDefault                                  : No
5 u. a* J8 U0 m7 FForced                                   : No% i, n5 {6 J* J+ D& p4 T9 U; K

5 b6 A8 [. Z; D6 T" L5 rText #28- _; i/ a( @7 D$ S8 t& [
ID                                       : 310 S- M* I# @9 C+ y8 ~. R
Format                                   : PGS, X" g; Y. q6 D. U! @7 @
Muxing mode                              : zlib  H9 [8 s2 H0 G4 D7 F4 B
Codec ID                                 : S_HDMV/PGS; E/ S4 a. g6 n  T! y2 U# u- x5 O4 w
Codec ID/Info                            : Picture based subtitle format used on BDs/HD-DVDs
+ Y& T; m, V& L" |# I" }* fDuration                                 : 1 h 35 min* u; J! i# d- R/ _& v& H) T/ s
Bit rate                                 : 17.0 kb/s4 a" C( u6 u1 H0 D: `9 k+ f
Count of elements                        : 12015 H+ I- Q4 d7 D, l% y' A% D8 S
Stream size                              : 11.7 MiB (0%)
6 d, X7 U! w, Q) K( zTitle                                    : Russian-PGS
1 Y. ~1 e' b9 l8 V; }% BLanguage                                 : Russian( b, B! Z  {) q
Default                                  : No. `$ w( |) ~# x: Z, |
Forced                                   : No
1 A: l, L; `3 R1 t: f
, }: b8 W, L+ L3 z+ FText #29
& ]$ b4 \6 u& a1 o  H% N2 ~/ _- NID                                       : 32
  ^9 o; t8 {* L% ]- i% q. jFormat                                   : PGS
! e$ c  i3 [) j# WMuxing mode                              : zlib/ |; u% H" C0 i7 a+ a
Codec ID                                 : S_HDMV/PGS  C4 `% L5 T+ @* R& I. G
Codec ID/Info                            : Picture based subtitle format used on BDs/HD-DVDs
" l$ R& i+ N4 I' J7 r, M8 Z( PDuration                                 : 1 h 35 min
5 S9 Q9 }' T. V2 wBit rate                                 : 17.3 kb/s
) P6 I8 I5 J  A4 P* {Count of elements                        : 1207
0 [. Y; D% W" {2 tStream size                              : 11.8 MiB (0%)9 @. R2 q" ^+ C# i9 }- L6 o
Title                                    : Spanish-PGS
4 b0 Q( Q- q1 s) D4 ELanguage                                 : Spanish& N$ F# y1 W0 X3 G$ z
Default                                  : No5 U3 B# @8 _& C- G" ]& d  n* G
Forced                                   : No
5 w  V3 H+ T6 f3 S4 s
+ e% j5 m/ y- t4 ZText #30
' C3 ^% T& c0 h% N& Z5 wID                                       : 33& I/ {% P1 ^4 g& {
Format                                   : PGS  _/ t/ Y* ]4 D' j) ~3 |
Muxing mode                              : zlib0 u1 \$ L6 `. E
Codec ID                                 : S_HDMV/PGS: m, v4 [5 D& k  [2 H7 Q7 Q
Codec ID/Info                            : Picture based subtitle format used on BDs/HD-DVDs
$ }6 x+ k- S6 @0 O/ s2 u  zDuration                                 : 1 h 35 min' \) \# S# ], o$ _1 a  P0 v: N6 `5 y
Bit rate                                 : 18.0 kb/s4 Y# X) H, C3 h$ S7 K4 p+ Y
Count of elements                        : 1221
9 q% e8 s6 F) M5 \. @Stream size                              : 12.4 MiB (0%)8 b+ a: C& l- n/ Q! P' t
Title                                    : Spanish-PGS7 j8 Y2 i- M& o
Language                                 : Spanish0 L: `  S* j' r9 L( e; T, v) e
Default                                  : No
" y  Q8 r# _9 S4 XForced                                   : No
" n7 O1 o. U8 S+ s2 B6 F! t) p# r& g8 X  j! g( L
Text #31
% ]  K6 z  g5 k% `$ v( ~9 L- s. NID                                       : 34
% h7 O1 O. i1 }3 |, l* iFormat                                   : PGS0 b3 C6 c# r* D% S) P4 C
Muxing mode                              : zlib$ l7 L6 y. m" W8 i
Codec ID                                 : S_HDMV/PGS
& E& i/ |: k( sCodec ID/Info                            : Picture based subtitle format used on BDs/HD-DVDs3 j8 Y/ x$ i; b
Duration                                 : 1 h 35 min
- L. f; Y3 E& ?5 O# TBit rate                                 : 16.6 kb/s
2 Z4 q, w0 T6 u! uCount of elements                        : 1201
) |" U! J/ I8 }5 u- {" \3 NStream size                              : 11.4 MiB (0%)
% e. L) s6 b0 u4 Q  [Title                                    : Swedish-PGS
$ I( A0 C8 p, HLanguage                                 : Swedish
  S: p8 h& }2 Y0 I1 h3 J) GDefault                                  : No
2 C1 {: U$ _, l, G: _) i4 mForced                                   : No
, G" u! m7 A  B3 G" H) V5 }# p* Z) c3 F& j; u5 w% o0 h. J. g
Text #32
2 K* D  V1 N+ V, [; M1 EID                                       : 355 o: v: c3 r- ?
Format                                   : PGS
* Z! y0 ]9 R8 _Muxing mode                              : zlib. V$ x7 R8 w/ S' J5 u4 V
Codec ID                                 : S_HDMV/PGS7 n% u# w/ F3 J* H' T! j! F% u& S
Codec ID/Info                            : Picture based subtitle format used on BDs/HD-DVDs
4 s3 |% J; B0 \6 gDuration                                 : 1 h 35 min
* g3 m/ A% n+ ^4 P( b; p* F) NBit rate                                 : 16.0 kb/s5 n4 L6 Q7 n+ S, K
Count of elements                        : 1211! {+ O# }+ `+ G
Stream size                              : 11.0 MiB (0%)
0 O! J) n0 Z# Z. p0 ^( r/ h+ }$ nTitle                                    : Thai-PGS! ]; t, `3 b; Q; V
Language                                 : Thai
( d4 h! g9 J$ _- E; LDefault                                  : No
! r) `8 x( Z2 ]8 L  L9 jForced                                   : No
/ i. I& y% E! b0 }& `
+ a. I* G$ a9 _$ g0 uText #33( x; x6 P2 L- X5 J
ID                                       : 36
2 R. @# t8 c5 r  k* p. C8 H2 n$ E5 oFormat                                   : PGS
& T/ k! i  R) j) D& ^4 E0 oMuxing mode                              : zlib1 \9 q$ G8 L* r! f' Q
Codec ID                                 : S_HDMV/PGS8 ?# S7 X0 r4 r& ~
Codec ID/Info                            : Picture based subtitle format used on BDs/HD-DVDs
$ S, R$ _6 _( P1 R) `5 LDuration                                 : 1 h 35 min
7 E( Q& l2 ^* c5 FBit rate                                 : 15.8 kb/s
( I4 b0 }8 }0 }  n. P, `Count of elements                        : 1207
" a, ]* q. h+ r0 I& w$ e1 [Stream size                              : 10.9 MiB (0%)
( G1 }$ J, w/ L" l1 A# tTitle                                    : Turkish-PGS/ ]5 \+ G- ]- s0 u
Language                                 : Turkish
: ?) ?+ E6 j( t* J: w4 |3 S/ _8 [Default                                  : No
3 g" p+ B0 m9 u2 @7 nForced                                   : No
* M/ J! v2 u9 h0 s! o* I9 [, o" V; W% u' y8 x7 @
Menu
: |5 y+ g. v. g" k1 X6 \8 s00:00:00.000                             : en:Chapter 1# T4 N' A3 r' w) f+ I6 t5 z
00:01:57.492                             : en:Chapter 2
2 A* a) {) L* M5 u, H6 g- y0 T00:11:47.623                             : en:Chapter 3: \& k" ]1 f; d) j* u2 j1 h6 A
00:17:51.945                             : en:Chapter 4+ T; v) r# w6 v, f1 X' h
00:25:12.260                             : en:Chapter 5
* o) @# T" N& f: e! |00:31:00.567                             : en:Chapter 6
' X/ T. k' x* l% P* C00:36:43.117                             : en:Chapter 7* g4 b5 V+ Z) |
00:42:49.817                             : en:Chapter 8
9 S2 v4 P8 l4 L0 z00:48:20.981                             : en:Chapter 9
3 Q) @$ g( ^/ K! {/ k9 ^! B00:53:50.852                             : en:Chapter 10' p) e* ]" r* |! a4 N
00:58:51.027                             : en:Chapter 11( \" i! V7 V4 G  q
01:06:58.597                             : en:Chapter 12
  k) v; F/ L# C% j01:11:38.836                             : en:Chapter 13/ b: ^6 ]) t3 @" r' L
01:15:13.050                             : en:Chapter 144 t+ d; W& W$ P" t
01:21:41.688                             : en:Chapter 15
" {/ a2 H' \- d01:29:38.748                             : en:Chapter 16

5 B& v4 f# a, }7 _/ Z- ?, g/ y
游客,查看本帖隐藏内容请回复 | 加入VIP可免积分免回复 了解详情 | 还不是会员:点击获取邀请码 Invitation Code

0

主题

131

帖子

679

积分

Sponsor

金币
19 枚
体力
367 点
myoracle 发表于 2022-5-21 11:01:41 | 显示全部楼层
啥也不说了,楼主就是给力!0 m! r; s. ~, w* @  ~& i9 I
Blu-ray movies Community: my favorite!% e: x( S2 |! j2 \: _$ v0 R/ L. `

本版积分规则

小黑屋|Archiver|4K蓝光论坛

GMT+8, 2022-12-4 10:38

Copyright © Tencent Cloud.

快速回复 返回顶部 返回列表