BluRayCD Forum

 找回密码
 立即注册【分享大片】
查看: 189|回复: 1
收起左侧

[动漫动画] 生化危机:血仇杀戮 [4K蓝光压制版 自带中字] Resident Evil Vendetta 2017 1080p BluRaycd x264 TrueHD 7.1 Atmos-SWTYBLZ

[复制链接]

8906

主题

9100

帖子

7万

积分

Forum Moderator

金币
13283 枚
体力
12363 点

卓越贡献勋章

24小时 发表于 2018-1-21 22:34:48 | 显示全部楼层 |阅读模式
$ C( ~1 E9 `. r: y& p* |" J' i

- ]* F; C: U& z% z* r% w◎译  名 生化危机:复仇/生化危机:血仇杀戮(港)/恶灵古堡:血仇(台)1 R" T7 S' ]3 y6 h3 X
◎片  名 バイオハザード:ヴェンデッタ / Resident Evil: Vendetta / Biohazard Vendetta; G  K, e: W* W5 G
◎年  代 20171 j# I: m8 C& H' R% Z' ^* O
◎产  地 日本
& ~+ H% t& {+ n4 v◎类  别 动作/动画/冒险/恐怖
- ~" b8 f7 X% B( A7 d2 h; {◎语  言 英语/日语
1 {. i* a0 s; V◎上映日期 2017-05-27(日本)  L% p" ]; b! ^2 ]; i+ G( I) K
◎IMDb评分  6.3/10 from 6,779 users% \! H1 z- q( c# l
◎IMDb链接  https://www.imdb.com/title/tt5776208/5 j2 G+ D7 f; S+ c
◎豆瓣评分 6.4/10 from 8,991 users
0 O, u$ u* }" {$ a- w1 P◎豆瓣链接 https://movie.douban.com/subject/26876342/# v+ P$ j0 v7 z% x+ I, e: b9 h
◎片  长 1 h 37 min, ~( Q. F% F6 x. ?9 w( F
◎导  演 辻本贵则 Takanori Tsujimoto2 A) y/ T( Q  w9 r$ j
◎主  演 艾琳·卡希尔 Erin Cahill
2 I" X. q# p6 V* Q' F0 T8 P      达林·德·保罗 Darin De Paul# \6 I3 R) Z, o0 |* {. n, U
      布莱恩·T·德莱尼 Brian T. Delaney" n  }1 K7 X( s3 P
      约翰·德米塔 John DeMita
  r2 e5 \$ _3 q3 T( z! @& P  L3 Z      凯文·多曼 Kevin Dorman
6 v% `% ^4 D* p/ Z) E) U      杰森·范特 Jason Faunt
6 E2 i- v9 ~" L' x      阿里夫·S·金成 Arif S. Kinchen, V4 D% Z* d& g' a. s. c3 ]% p
      玛丽·伊丽莎白·麦格林 Mary Elizabeth McGlynn; I0 {5 C; Q: D
      马修·默瑟 Matthew Mercer
5 F* X/ S, P2 J+ p- S      托尼·奥立佛 Tony Oliver. i" ?& z' [9 b. u8 I
      阿尼·潘托哈 Arnie Pantoja" c& ~/ d6 u$ X
      亚历山大·博林斯基 Alexander Polinsky
$ O& o4 W9 i2 {( S      凯伦·斯特拉斯曼 Karen Strassman& Q( A+ T7 \( j. X

" q9 S' P7 w; v/ I% [◎简  介
6 x( w1 g$ [& L  r0 }+ k$ F3 u" N' j5 S* e
  BSAA的克里斯根据情报,率队突入私卖武器组织的据点——某所洋馆。在探索过程中,克里斯与国际通缉犯格伦·阿利亚斯展开对峙,结果看到难以置信的一幕并被对方逃走。另一方面,现任大学教授的瑞贝卡则在调查研究“死者苏醒并凶暴化”的离奇事件。在调查中,瑞贝卡发现了新型病毒与此事有关,并开发出了解药。但是研究所突然遭到袭击,危难关头在赶来的克里斯的帮助下,瑞贝卡才九死一生。此次袭击过后,克里斯和瑞贝卡找到了里昂,隶属于美国总统直属的DSO组织的他是最了解此次新型病毒事件的人物。格伦·阿里亚斯的真正目的是生化恐怖,再度相会的克里斯与里昂则和瑞贝卡一起,为了阻止对方的阴谋而奔赴纽约……
0 @4 h* {, S7 U( q: B  d$ Y, D! `6 I- I4 X9 w# H1 ?$ a) R
  Chris Redfield enlists the help of Leon S. Kennedy and Rebecca Chambers to stop a death merchant with a vengeance from spreading a deadly virus in New York.
7 g& M$ w/ @% q
Video, a. y- e3 K, A- M8 I2 j0 V
ID                                       : 16 {5 K" i3 A; V+ i' s
Format                                   : AVC7 m1 Z! D* L  P
Format/Info                              : Advanced Video Codec3 q* D4 T2 h) I% F  X0 C8 b: N  ]! H
Format profile                           : High@L4.1
. x3 T% ^8 a8 N' {* q, @Format settings                          : CABAC / 4 Ref Frames  y! o+ x- i& k; x
Format settings, CABAC                   : Yes8 `3 q: y9 o/ v% y
Format settings, ReFrames                : 4 frames
, f" s: }4 }- ?# OCodec ID                                 : V_MPEG4/ISO/AVC
0 b  I1 L! O6 J; B$ i1 WDuration                                 : 1 h 37 min
9 Q7 G0 F+ R' s; `8 V9 uBit rate                                 : 9 755 kb/s. F6 C3 }$ ^& B" G
Width                                    : 1 920 pixels" N3 N2 i3 A4 s# I8 `- l
Height                                   : 1 080 pixels' F" a8 P, z1 o# a$ {' @( n
Display aspect ratio                     : 16:9& n0 A  [/ h! {0 M
Frame rate mode                          : Constant
# A) e6 }4 d- G+ h  @Frame rate                               : 23.976 FPS! Q! e1 W5 m# F- G4 Q
Color space                              : YUV: j7 [6 z5 f5 Z' ]
Chroma subsampling                       : 4:2:0
+ G4 v0 G% ]0 M% [: O7 ^9 H; \Bit depth                                : 8 bits5 n  O/ N0 [: [1 H7 W* d  L
Scan type                                : Progressive
& Q1 n0 J+ |! n" d' j( C2 Y! `Bits/(Pixel*Frame)                       : 0.196
, L3 v* Q: H& rStream size                              : 6.62 GiB (62%)
5 l5 H% J6 ^' M0 |1 pTitle                                    : Resident.Evil.Vendetta.2017.1080p.BluRayCD.x264.TrueHD.7.1.Atmos-SWTYBLZ5 r0 ~* p7 C! Q( g" S
Writing library                          : x264 core 150 r2833 df79067
5 h$ t! P. R- W. C  z9 \; y8 QEncoding settings                        : cabac=1 / ref=4 / deblock=1:0:0 / analyse=0x3:0x133 / me=umh / subme=7 / psy=1 / psy_rd=1.00:0.00 / mixed_ref=1 / me_range=16 / chroma_me=1 / trellis=1 / 8x8dct=1 / cqm=0 / deadzone=21,11 / fast_pskip=0 / chroma_qp_offset=-2 / threads=24 / lookahead_threads=4 / sliced_threads=0 / nr=0 / decimate=1 / interlaced=0 / bluray_compat=0 / constrained_intra=0 / bframes=3 / b_pyramid=2 / b_adapt=1 / b_bias=0 / direct=1 / weightb=1 / open_gop=0 / weightp=2 / keyint=250 / keyint_min=23 / scenecut=40 / intra_refresh=0 / rc_lookahead=40 / rc=2pass / mbtree=1 / bitrate=9755 / ratetol=1.0 / qcomp=0.60 / qpmin=0 / qpmax=69 / qpstep=4 / cplxblur=20.0 / qblur=0.5 / ip_ratio=1.40 / aq=1:1.00
7 d+ J/ v: K$ X) ~Language                                 : English* J1 `6 s- m( D# T
Default                                  : Yes
1 L9 ~) q. b4 ^, _5 }Forced                                   : No8 _9 t$ l6 A( Q' f- K

! M: Y. ^* p4 B/ @Audio #1
; d+ u  b+ \+ {: T# W- R* S+ N) yID                                       : 2: g, }9 t0 d/ d) {& C
Format                                   : TrueHD
# j! S, V: L: R1 YFormat profile                           : TrueHD+Atmos / TrueHD
  U4 |0 W' Z% v/ ^Codec ID                                 : A_TRUEHD0 U9 }, S2 Q2 R4 m
Duration                                 : 1 h 37 min0 z# Z) S% u$ j" K0 Q; A; G$ o# v9 o
Bit rate mode                            : Variable. c: a0 k  r( V& X* a4 |: d
Bit rate                                 : 5 020 kb/s9 I0 ~$ C, i# Q5 g  ~+ u
Maximum bit rate                         : 8 598 kb/s* z" ?0 |- B3 X; i9 G
Channel(s)                               : Object Based / 8 channels
3 l' g$ Q  D5 H6 f4 z* x2 BChannel positions                        : Object Based / Front: L C R, Side: L R, Back: L R, LFE
7 t! B: v4 ~3 Y2 Q7 NSampling rate                            :  / 48.0 kHz
( Y/ ^4 t) p7 K' @  r% y$ iFrame rate                               : 1 200.000 FPS (40 SPF)7 X. {; s  \- W  Y5 w+ |) K
Compression mode                         : Lossless, M. c  h9 `' k! T
Stream size                              : 3.41 GiB (32%)* p- F6 |0 P" p" n: }
Title                                    : Resident.Evil.Vendetta.2017.1080p.BluRaycd.x264.TrueHD.7.1.Atmos-SWTYBLZ6 u7 Q* M1 D! u) h( D( ]4 @
Language                                 : English7 L0 L1 `4 p. A2 c
Default                                  : Yes
4 I* v2 c! r  j  r( Z: ^. N; {Forced                                   : No
1 E) p& I( x/ K' j: J$ b
% l) g5 e5 [% {9 v" z; cAudio #23 K8 W+ N4 z" N+ Q: F: {1 v  a8 g
ID                                       : 3+ M" U) M' a/ q! q7 q( m
Format                                   : AC-3
, ^' D2 W- g) l0 i" R/ z) AFormat/Info                              : Audio Coding 33 c3 L& q4 ?7 r+ Z# D* l4 h
Codec ID                                 : A_AC3- H  i  \- y  ?
Duration                                 : 1 h 37 min
9 H$ B# r% P3 tBit rate mode                            : Constant
+ R# H7 i# }, W+ v4 O/ vBit rate                                 : 640 kb/s6 N! S" p7 G- R: M. U! H& }  @
Channel(s)                               : 6 channels0 j+ l5 q  [0 [4 U. e0 M$ u
Channel positions                        : Front: L C R, Side: L R, LFE
4 |9 |" f( m+ u1 B1 DSampling rate                            : 48.0 kHz, h" N) `' G4 N$ k
Frame rate                               : 31.250 FPS (1536 SPF)7 d0 a  V' H4 M5 L3 P; }' }
Bit depth                                : 16 bits7 \5 `/ s) ^9 J- u: N: G- d
Compression mode                         : Lossy1 d5 n, Y. \7 a7 P, S
Stream size                              : 445 MiB (4%)% v/ q  X' O$ p  y
Title                                    : Resident.Evil.Vendetta.2017.1080p.BluRaycd.x264.TrueHD.7.1.Atmos-SWTYBLZ
. U5 u9 k+ t, P) i( s" ZLanguage                                 : English5 @  \. G' Q+ c0 ^. Y8 t4 M' ]
Service kind                             : Complete Main& v4 z! A9 ~% i+ t
Default                                  : No0 O1 g7 G! c. c
Forced                                   : No
; _) y) C  j0 ~# d
6 V& ], x$ b9 ]) n5 t: {+ EText #1' c$ o9 d8 c( c, r9 F- v# U# F
ID                                       : 4$ j- D! M" d' e$ y" P! a
Format                                   : UTF-8% `4 k6 a2 I: ^4 p0 B0 ^4 m* i
Codec ID                                 : S_TEXT/UTF8
/ b2 |7 b4 `" E7 s8 P, L0 nCodec ID/Info                            : UTF-8 Plain Text
& S2 ]+ t, i  {1 d+ L- DDuration                                 : 1 h 30 min/ V$ J! ]2 i" _3 w
Bit rate                                 : 29 b/s+ v/ g  N1 }" V5 e1 z# r
Count of elements                        : 554
6 c% J. n6 H: ?/ f: @Stream size                              : 19.7 KiB (0%)) ?7 i0 A1 I$ z6 _
Title                                    : English-SRT, _6 w- S7 ~, ~) q9 W3 e4 |
Language                                 : English2 t4 T8 l& B7 F2 T, s
Default                                  : Yes, p) c* ~6 ~+ d# O
Forced                                   : No! Q6 m8 e+ t0 N  }; X, O) }
# m9 ]% x0 h" D% z, I
Text #2% S9 T2 |4 X+ Q( G
ID                                       : 5
: c0 A: Y3 x  V; B1 W$ S$ E- v1 S: rFormat                                   : PGS
5 O: x4 ^) ~( G. U3 i+ X4 h  ^Muxing mode                              : zlib3 ?) s' }) p7 Y
Codec ID                                 : S_HDMV/PGS  a& l. c& |3 P3 B3 i
Codec ID/Info                            : Picture based subtitle format used on BDs/HD-DVDs
* ]0 c3 d% c3 W0 @7 m* c$ ?5 VDuration                                 : 1 h 36 min3 f9 G; y; s6 }( H1 O" c1 B
Bit rate                                 : 19.0 kb/s
+ u. S1 r( K6 b) V2 o2 j5 B" gCount of elements                        : 1529, G# f- E; C8 i. W' W% h7 T# a  c
Stream size                              : 13.1 MiB (0%)9 f3 d$ s- r6 w) u
Title                                    : English-PGS
7 u" ^1 W/ E6 e/ c1 QLanguage                                 : English; d) G9 k, ~( o& s7 f6 K" C+ [
Default                                  : No- }# D" Z8 r& f5 v1 o
Forced                                   : No: }# `! }5 ]+ m" W' f% f" n

3 B% J. ^% F0 c0 GText #31 G6 M: t# w5 D4 D
ID                                       : 68 \5 L) G) u) T9 J7 d! B8 b5 i$ a" C
Format                                   : PGS
- u% F) m+ J- L/ _) U) c. Z( hMuxing mode                              : zlib# u2 I% W% C$ ~2 N6 ~5 u$ H
Codec ID                                 : S_HDMV/PGS0 K* ^- Q* y, J2 {& A1 e9 ]
Codec ID/Info                            : Picture based subtitle format used on BDs/HD-DVDs# |7 p. S9 q! I  O$ m
Duration                                 : 1 h 35 min
% \5 j$ @0 T6 H/ W7 u3 EBit rate                                 : 16.3 kb/s
9 i' w# L1 d9 b. g  fCount of elements                        : 1169/ g. e7 e9 h- ]8 b" l; [3 V$ [2 ^8 K
Stream size                              : 11.2 MiB (0%)# N+ T$ {5 `/ S+ M$ _6 ?* M1 @
Title                                    : English-SDH-PGS" ~0 {/ j+ _4 y* C3 |3 X) v; }
Language                                 : English. z) l& W1 \1 A& u( ]
Default                                  : No
+ h0 g3 b  H9 `/ O; P* a3 iForced                                   : No* q# {8 g" @/ S) L9 g

. G' J' C/ ]9 t" e2 y# [' AText #4
: }! a- {4 @7 k- Y! DID                                       : 7/ `$ s4 ~8 w! y$ W
Format                                   : PGS
* ~0 Z5 }' M% B# WMuxing mode                              : zlib! |9 D' z$ v- U3 [# [5 q9 S
Codec ID                                 : S_HDMV/PGS
- W; f" x. Q! F5 \/ J5 LCodec ID/Info                            : Picture based subtitle format used on BDs/HD-DVDs! D* `+ @$ a9 h. w) l  W/ `- f0 R
Duration                                 : 1 h 36 min
, [: m& l6 O  @  O* W( ABit rate                                 : 19.0 kb/s" s+ u0 D3 T5 ^
Count of elements                        : 1529* Y* D/ z$ a* B" k5 M+ e
Stream size                              : 13.1 MiB (0%)
" o2 n9 {( q; l' U, g. |Title                                    : English-PGS' h% G5 Y6 i1 u0 @  {1 N
Language                                 : English
) i+ H; n- F' X! j! x1 a. {8 XDefault                                  : No* p: V6 R8 N) K+ n7 B4 l
Forced                                   : No
! S8 V( f- k0 r# m, b
; ^+ l! O4 R, z; f/ Q3 D5 fText #5% X" u, o8 l7 \$ l: {
ID                                       : 8
" d  O) T3 w& c+ l3 |Format                                   : PGS
9 ^$ M. X2 x5 B# N. X" Y# p* sMuxing mode                              : zlib0 Z  T+ {" y5 \* a
Codec ID                                 : S_HDMV/PGS% K" `7 A0 i" a" v1 h4 U
Codec ID/Info                            : Picture based subtitle format used on BDs/HD-DVDs
$ x5 p9 K/ j6 D% x# v  z/ PDuration                                 : 1 h 35 min5 X) |4 r) }) K8 B$ m2 z
Bit rate                                 : 16.3 kb/s/ V$ L0 P6 q4 }& R. z  p# G
Count of elements                        : 1175
! ]& T+ m4 _6 ]) z; `, cStream size                              : 11.2 MiB (0%)( Z  S0 M% c/ S
Title                                    : English-SDH-PGS: H8 w7 n; T6 V$ ~
Language                                 : English
8 ?' u: D4 v9 Y% p+ oDefault                                  : No; \& m/ ^  N9 U
Forced                                   : No1 V( P) k& f8 r$ M* q5 G

( {+ J5 h- [8 z+ T+ v1 x: u" w' |/ wText #6& w( Z& ]: m9 f# F6 y4 R7 ?# y3 }
ID                                       : 9+ D* n# h& E, G- H
Format                                   : PGS
* l/ D- a0 ~1 t9 D4 n1 R& ~  s5 nMuxing mode                              : zlib% B3 N  }) I, G7 W0 W$ U
Codec ID                                 : S_HDMV/PGS: i$ n; ~  o. y
Codec ID/Info                            : Picture based subtitle format used on BDs/HD-DVDs
/ `4 p: ^4 I6 z+ v2 r4 [Duration                                 : 1 h 35 min. y7 Q, p+ }  f  J- y  f
Bit rate                                 : 9 434 b/s
$ r5 d+ t% Y- b9 o0 k6 kCount of elements                        : 1201
! C" w  [( @/ y, @& J; `" v. BStream size                              : 6.47 MiB (0%)8 v2 i- B! ]; b4 g4 h" m6 y) R
Title                                    : Arabic-PGS
5 i3 M5 P- m5 r4 B1 d! T8 HLanguage                                 : Arabic" V0 M$ g$ H4 f2 S! R
Default                                  : No
- O( w" _' O5 H# G/ vForced                                   : No
( p8 i. X! k9 w! p- ^+ x! b& |7 l2 f; P
Text #72 K# k' b, k; o8 O% X
ID                                       : 100 O7 A8 A* r' L4 g$ a
Format                                   : PGS) x. a. ~8 L2 }3 y4 K
Muxing mode                              : zlib
( Z6 P6 i+ {1 Y  a; O" ]Codec ID                                 : S_HDMV/PGS
2 t; b2 K" m7 R8 |Codec ID/Info                            : Picture based subtitle format used on BDs/HD-DVDs
9 m( m! P" a7 t% |8 y# XDuration                                 : 1 h 35 min) D) k2 j. G6 Q: H( m
Bit rate                                 : 15.3 kb/s
& n, l5 {# T0 j* mCount of elements                        : 1211
$ N( _: t# e, U0 G( i4 J# l) QStream size                              : 10.5 MiB (0%)
7 N; b5 ?% j2 o8 H, NTitle                                    : Chinese-PGS9 \; d' D- K& N' N. p$ _# G: n' v
Language                                 : Chinese0 |* z' A: I1 k
Default                                  : No6 G: z2 D- l9 Z1 \. L8 ^
Forced                                   : No
; K; C9 O/ x5 k  Z; r8 i
6 ]7 Q! d2 V- [8 h9 ~Text #8
  d9 l5 L6 B) w( X5 S& }ID                                       : 11
6 K# ?# }: {, q6 p) c0 sFormat                                   : PGS
' d) A5 Q, N" w' E: qMuxing mode                              : zlib
, r/ `* ?$ D% E4 H& t) d7 wCodec ID                                 : S_HDMV/PGS( e9 O" G! O* a0 `3 D. _2 H
Codec ID/Info                            : Picture based subtitle format used on BDs/HD-DVDs
: L, A; u: E" U" ?Duration                                 : 1 h 35 min8 k! \! k5 u! p" N
Bit rate                                 : 15.5 kb/s, e, K% L2 a6 S% o/ M) l4 Y
Count of elements                        : 1203% x+ W8 E; S3 T  n. ^# o" k
Stream size                              : 10.6 MiB (0%)% \# \" o% Z* |' P; e4 _) ?
Title                                    : Czech-PGS
9 J. e8 k9 X9 K, |+ ^8 n5 J- W6 KLanguage                                 : Czech/ Y4 q* e2 v& b: h
Default                                  : No/ c" t- y4 K+ S% r
Forced                                   : No; m5 X5 y2 D8 @5 l  q% x
2 q9 {7 B. C$ ?5 p/ Y
Text #9
& t  k% Z6 Q6 {ID                                       : 12
% o) ~$ t) n* z* N4 HFormat                                   : PGS% h' k" @, ?2 L
Muxing mode                              : zlib
' W  D& ?, s) o  p5 sCodec ID                                 : S_HDMV/PGS
9 b% x; S* D7 y; _  ZCodec ID/Info                            : Picture based subtitle format used on BDs/HD-DVDs
1 w& _& e# N& I& `Duration                                 : 1 h 35 min
$ j2 }2 m5 v6 WBit rate                                 : 15.6 kb/s
1 O' o, I  W. eCount of elements                        : 1199* p3 R( E3 B& f! ~0 ]. z2 M7 t
Stream size                              : 10.7 MiB (0%); O% Z: H# h! |2 O! n% j+ I" i5 w7 h( o
Title                                    : Danish-PGS6 K& y& Z/ ~9 o" N2 b
Language                                 : Danish
* W0 g( y5 E7 hDefault                                  : No
! F+ G  m; |' [, |+ C2 I- BForced                                   : No1 ?3 u* F$ T3 Q( r  ?

, j6 o% Z+ `! M3 Y+ h- N8 {Text #10# `  ~; L( W( B! l& p
ID                                       : 13
, }* q4 m* T2 {  Y6 aFormat                                   : PGS. p5 r5 m/ O0 R; N% B! {  m
Muxing mode                              : zlib
: i% \0 e' C7 E) cCodec ID                                 : S_HDMV/PGS; m1 ^  A7 i. X9 k
Codec ID/Info                            : Picture based subtitle format used on BDs/HD-DVDs- E* j9 \1 V0 E% P7 u
Duration                                 : 1 h 35 min
5 V+ n$ z/ y1 O4 U$ L. EBit rate                                 : 15.9 kb/s
$ r7 o, h) y! s- T& H/ Y0 ]5 VCount of elements                        : 11736 }- r* x) r: c+ N: n7 ?
Stream size                              : 10.9 MiB (0%)
4 R% x( m  n3 P% jTitle                                    : Dutch-PGS
* M' [: k0 T5 g5 y9 k! QLanguage                                 : Dutch& M& ^6 c' y- N1 P7 \% g, c
Default                                  : No3 \2 {0 S) F2 m
Forced                                   : No% I' m: N8 }9 r5 E- _+ F* n/ G

5 f: n4 j6 ]# H  O4 gText #11
* u. m* n6 t0 x( EID                                       : 14
% ~2 h$ \# n1 @$ iFormat                                   : PGS( X0 d1 ~7 z$ l4 j7 p7 ~+ N
Muxing mode                              : zlib. k% x6 W5 x1 E6 Q8 |  n
Codec ID                                 : S_HDMV/PGS8 L) |$ F' M: ]4 t$ r7 M
Codec ID/Info                            : Picture based subtitle format used on BDs/HD-DVDs/ P- r/ f+ g% ]: p
Duration                                 : 1 h 35 min
- J( }7 L1 ^/ a/ V  OBit rate                                 : 16.5 kb/s
3 J( T$ C6 f) \# _! D# cCount of elements                        : 1207+ e) W" g/ a* l% V! ?' w# b
Stream size                              : 11.3 MiB (0%)1 |8 q! p% H" d/ A
Title                                    : Estonian-PGS0 _9 ~1 |' u  n# O9 K# A4 T6 R
Language                                 : Estonian
' p3 D% z3 K0 O" I! ODefault                                  : No
& @# S- {8 M& n* G' K" ?Forced                                   : No
/ h( f. d( k9 A. A' p9 W9 q: F1 B' S! `  ]( O- Q
Text #122 o9 g. @& ^; p! v, @
ID                                       : 15
& d; Z0 D% V/ B+ z8 ^Format                                   : PGS/ W1 C. r, ~$ a$ l9 P2 k$ ^/ M
Muxing mode                              : zlib/ \6 `6 z& s0 [5 S
Codec ID                                 : S_HDMV/PGS! U! I0 ?. j2 n& B  Z2 o0 B
Codec ID/Info                            : Picture based subtitle format used on BDs/HD-DVDs+ v# q% q# X% `- s
Duration                                 : 1 h 35 min
: C5 z/ Z) p( ~, H6 |  wBit rate                                 : 15.3 kb/s
# c1 H+ W: u! M. t, }: HCount of elements                        : 995
# c! T" \4 o2 }1 p0 p  zStream size                              : 10.5 MiB (0%)5 r- K8 c! l2 q
Title                                    : Finnish-PGS! Q) r! e6 A: c! u( i" H
Language                                 : Finnish0 F1 E# c' Z+ e8 e6 ?
Default                                  : No
0 i( x' D' U  f5 a. `) BForced                                   : No! b: A1 Z& P3 C  \7 d7 I
4 _$ U% `5 q! ]) K$ _; z% l) ^
Text #13. t6 E/ _5 f% V1 P, i% K
ID                                       : 16- ?6 x% }- U8 j
Format                                   : PGS
6 x  @* e/ |) a% \; B4 |2 [# dMuxing mode                              : zlib
. W# u" H8 J  ~# B4 @Codec ID                                 : S_HDMV/PGS
& \1 F" z# k1 j( }) XCodec ID/Info                            : Picture based subtitle format used on BDs/HD-DVDs; [! r7 ]# R; d8 a  ^
Duration                                 : 1 h 35 min
9 Z3 j. U4 t5 K; F) p+ W  CBit rate                                 : 14.6 kb/s
& v2 C- M  i- BCount of elements                        : 1165
% J: @/ `0 N; S3 hStream size                              : 10.0 MiB (0%)
3 S- e+ v+ q3 ~2 y# V4 LTitle                                    : French-PGS$ R6 @9 ^0 D6 r, G0 @1 I+ C3 [
Language                                 : French  _% ?* a* J8 U, C
Default                                  : No/ q$ X# M! `5 j" y! S" Q: W
Forced                                   : No
% d+ |+ ]& g9 T+ p4 [
( _, n3 t" P4 w( ]% BText #14+ [) U& w* A' y9 I, M2 k, v8 l
ID                                       : 17
7 k9 m  L; |5 BFormat                                   : PGS
3 I3 d! n2 q' Q8 D0 \Muxing mode                              : zlib: I) ?& T1 w4 `/ n, ]8 W
Codec ID                                 : S_HDMV/PGS+ c* z- h& Q. ]( [" I% T6 H
Codec ID/Info                            : Picture based subtitle format used on BDs/HD-DVDs
2 P; X7 y5 X) ?: W8 P/ jDuration                                 : 1 h 35 min
# A7 X$ L) z, O5 w0 W3 L7 SBit rate                                 : 18.6 kb/s7 l! `# I; V: D5 g  w7 U. ?# a
Count of elements                        : 12353 X5 A+ z1 K7 j/ d1 Y
Stream size                              : 12.7 MiB (0%)
$ }7 ^+ Q1 t0 b9 \4 j" e- n0 XTitle                                    : German-PGS% {  `# Q2 k; `' F: P& e
Language                                 : German1 \+ R7 W$ o- ?( d0 Y
Default                                  : No6 O' j1 W. ?/ F4 c6 {% m
Forced                                   : No
. [7 ]! M$ D% [9 o+ m* P1 Z: p- c+ h
Text #152 z, v3 M) O  f- K% ~5 R& g
ID                                       : 182 r9 ?6 D0 q& ?2 U2 |
Format                                   : PGS  g0 v4 N+ U! a
Muxing mode                              : zlib1 [! q. x/ m5 t' R" N
Codec ID                                 : S_HDMV/PGS  t. ]/ B% m. X: |1 a. `
Codec ID/Info                            : Picture based subtitle format used on BDs/HD-DVDs
2 y& G) {% m8 fDuration                                 : 1 h 30 min
* c: W8 w" n" K& n- v/ O$ IBit rate                                 : 18.2 kb/s
, D- [$ O$ t( P* a6 B' eCount of elements                        : 1209# F$ T9 L0 D( z- W& A! \6 Q
Stream size                              : 11.8 MiB (0%)
- r9 u, R! [3 S* f" ETitle                                    : Greek-PGS( ~% d  H" b. o, r
Language                                 : Greek
6 C' e+ V0 k9 ^Default                                  : No
8 A) N: a: i0 B9 WForced                                   : No: \2 X5 T7 u# _" @
. X0 {3 W5 j- w! x
Text #164 e! F  r- x) T" l5 E
ID                                       : 197 F- C0 w  N4 c
Format                                   : PGS* `& F" ?8 M8 ?2 ?) A; _# Y1 v; T
Muxing mode                              : zlib
) n8 ^3 e6 s) P2 h; q+ T; PCodec ID                                 : S_HDMV/PGS
# P2 l; n9 N1 K* {' B/ oCodec ID/Info                            : Picture based subtitle format used on BDs/HD-DVDs- p1 x; M" W6 s# K: w
Duration                                 : 1 h 35 min. B6 L+ {1 e+ W$ N+ j9 Q
Bit rate                                 : 13.6 kb/s
$ W/ Q; J6 `3 V" lCount of elements                        : 1197% }7 ]& `4 z, z+ _$ v; c
Stream size                              : 9.34 MiB (0%)
% \8 {/ s# ]3 e  d% E  A$ rTitle                                    : Hebrew-PGS, B& K2 p1 O6 X. q/ E
Language                                 : Hebrew- l1 E( A% A8 _4 L  Y" d
Default                                  : No+ u4 v  n. [+ g6 R  A1 r- g
Forced                                   : No
1 ]5 e  |: b9 ]  W+ X5 [9 {2 s9 U; t4 c% N
Text #17, l& C  g* R+ @
ID                                       : 20: f7 E1 u8 v/ `8 f
Format                                   : PGS
$ ^. Q7 D% O' b, n9 o, `8 M$ pMuxing mode                              : zlib7 e3 z4 {% W% a0 u( n& l/ |
Codec ID                                 : S_HDMV/PGS. O- y* U/ V/ ~3 G( _7 F
Codec ID/Info                            : Picture based subtitle format used on BDs/HD-DVDs: S7 E% J' w2 ?* r1 F
Duration                                 : 1 h 35 min
9 ^# z9 y8 w' c. n. s$ n$ M7 qBit rate                                 : 17.0 kb/s- l% D7 y/ a- O# ]# w1 D' r& D
Count of elements                        : 1209/ i" y. m  q8 m# _
Stream size                              : 11.6 MiB (0%)7 @5 T! G' g5 t& U: `
Title                                    : Hungarian-PGS0 d+ Q+ \1 |! M: [1 c* O1 e
Language                                 : Hungarian% L' ]8 J$ E; O7 u
Default                                  : No
" @7 m2 o3 e( C$ P, ]: @Forced                                   : No( \. C2 x6 I9 T
( N& Y: e# [. J# v- P- f5 z
Text #18
; U: I) P6 Z; g; v% a+ KID                                       : 21. Q1 Q1 ^* o4 L6 f# b
Format                                   : PGS
8 _' G4 I: e) W! T- x5 t) H+ jMuxing mode                              : zlib
6 ^+ b; C' H  ]/ s1 ^& oCodec ID                                 : S_HDMV/PGS5 i- g+ Z# J  @8 ]) S8 `
Codec ID/Info                            : Picture based subtitle format used on BDs/HD-DVDs& m) U6 y( w% u# f
Duration                                 : 1 h 35 min! q) I: d3 o! U& L( \
Bit rate                                 : 17.3 kb/s
# P6 G* X% [6 U) o$ f/ D  xCount of elements                        : 12078 A  p; ?5 ?% `6 D! c
Stream size                              : 11.8 MiB (0%)
. g) w0 A% _, g' h4 q' M1 J: JTitle                                    : Icelandic-PGS
4 H- p$ }& \1 b& ~9 T  zLanguage                                 : Icelandic
) _4 N6 \1 |3 J  qDefault                                  : No6 y3 V, Z5 c( J) ]- B
Forced                                   : No; O7 `) R2 W$ c) [( ?" ?7 H
- f6 m6 n4 {, p) P4 A4 k
Text #19
# R/ v1 u0 S/ q2 Z& S0 i% P% QID                                       : 22
6 C2 U+ x2 T2 N- z! }7 hFormat                                   : PGS/ @0 X: R' k& s2 c$ h
Muxing mode                              : zlib
3 N' l( x$ d; R, |# k1 k0 ICodec ID                                 : S_HDMV/PGS
- g! [- @/ }. hCodec ID/Info                            : Picture based subtitle format used on BDs/HD-DVDs
( L; |8 z7 `2 U; ]# M8 P) mDuration                                 : 1 h 35 min
- j* \! l7 |4 b* iBit rate                                 : 17.6 kb/s
8 p  |0 t7 {- b# hCount of elements                        : 1203$ T4 P8 H! K" A  p) w" I
Stream size                              : 12.1 MiB (0%)
4 Y$ B: s! k1 D# e2 XTitle                                    : Italian-PGS
3 y' \& {2 B( {8 S$ W& H0 rLanguage                                 : Italian
- P9 a  T' `6 UDefault                                  : No$ ]+ y' u  g1 ^' X) O( X! p# h, v1 |
Forced                                   : No, f6 K+ U# I* ]; o
$ |# d  S4 |* ^; m% k
Text #20
. [  O4 ?% d% [6 h' MID                                       : 23
: A0 L" d' B4 H! nFormat                                   : PGS- A5 t) F# w( I! ~) q
Muxing mode                              : zlib
) B3 g* {$ Q+ Q4 E# k8 SCodec ID                                 : S_HDMV/PGS( F9 K2 r: I* X# S
Codec ID/Info                            : Picture based subtitle format used on BDs/HD-DVDs
5 n7 u; h! o% [; }. E, b) l2 D( u- @1 hDuration                                 : 1 h 35 min
0 y1 v5 Z6 J2 Y  l7 hBit rate                                 : 13.0 kb/s
5 g  U. J! }. A% _Count of elements                        : 1215# D6 Z% g, d$ I3 v$ P% u; H# m' c
Stream size                              : 8.89 MiB (0%): }6 p; @5 |& c% g! H4 o# ?) l
Title                                    : Korean-PGS. Q1 c- Y9 a# t. s6 ~) `7 X, W8 K! v
Language                                 : Korean
, E- C0 p0 p) _Default                                  : No
3 e: |7 f2 T: x# V2 P6 _Forced                                   : No. F& x& V$ F2 N& _% U% L9 |9 L

1 s! E  U& C, ]3 q% w3 ]2 e: bText #21' O9 P$ l, L- r# _. E
ID                                       : 24
. L$ U$ j8 S5 `4 b& yFormat                                   : PGS
  K$ u0 f3 Q8 q+ r( NMuxing mode                              : zlib2 K8 ~* t! m+ `, B( K0 R/ s4 r
Codec ID                                 : S_HDMV/PGS
: J' b3 W! Y2 \$ m+ l8 |Codec ID/Info                            : Picture based subtitle format used on BDs/HD-DVDs
7 ]9 g# k! }6 j  wDuration                                 : 1 h 35 min
" E$ m7 m) A8 x2 ~! P. Y- N7 M4 ^/ c" iBit rate                                 : 15.0 kb/s
, a' K8 w3 W) s4 V/ yCount of elements                        : 12119 \. g' G: C, v
Stream size                              : 10.3 MiB (0%)! {- c# z4 `3 j
Title                                    : Latvian-PGS
5 M1 s- S$ P/ P$ e2 E/ {7 MLanguage                                 : Latvian! W% f1 B+ U& p) x
Default                                  : No, J% N3 J2 z! |
Forced                                   : No
2 s' c) @" f' ~- L2 [; o, C8 o/ U5 x# m3 s( @2 m
Text #22
; a  q4 N+ p- `3 Z$ tID                                       : 25( y% X* S* h; R- T$ v
Format                                   : PGS
* L5 ]+ h" C* F9 p! sMuxing mode                              : zlib0 H) D, t, j* n/ W8 q2 b; l2 `; \
Codec ID                                 : S_HDMV/PGS
9 S1 p+ d: \' f4 dCodec ID/Info                            : Picture based subtitle format used on BDs/HD-DVDs( D) D( l; I1 _! [% q9 U9 }
Duration                                 : 1 h 35 min  L# ]5 m. Y" y( ]
Bit rate                                 : 15.0 kb/s
  S0 n- q5 z6 _# r% E: Z% C, e9 SCount of elements                        : 12130 i; @7 x6 I% C, _- U; t' C
Stream size                              : 10.3 MiB (0%)2 g% ?6 G4 e+ b9 K. F
Title                                    : Lithuanian-PGS$ J( M+ {5 ~' g" k" p  q; `
Language                                 : Lithuanian
" I7 R) R- W2 g: Q. a4 A2 C5 c3 r: lDefault                                  : No- e% }! W; u2 [, x$ z* s9 X: ?* k
Forced                                   : No
" N. b' s  K( {' R7 q1 G8 u, u- Q$ n2 W4 @% F& {
Text #23
$ a. M; a$ s. D' n+ |4 CID                                       : 26
2 z) r  R0 p% x$ K3 |, R! y( d0 }% PFormat                                   : PGS
& P  x: m6 o. S' N: rMuxing mode                              : zlib3 g( D. y' H& t0 P9 q
Codec ID                                 : S_HDMV/PGS2 a  p, f+ c: W3 j
Codec ID/Info                            : Picture based subtitle format used on BDs/HD-DVDs
$ M: A) ~, [; i4 _" c8 Q& U/ UDuration                                 : 1 h 35 min5 ?# v" T& @7 `" C; R3 O
Bit rate                                 : 15.9 kb/s6 u- X+ v( G7 ~! D6 W& C3 M% ]/ r
Count of elements                        : 12015 @8 a, K1 [8 D/ r8 y: f
Stream size                              : 10.9 MiB (0%)
! V1 L) F1 a+ K6 I% y8 k9 eTitle                                    : Norwegian-PGS* e* W" ]& }$ N8 k
Language                                 : Norwegian
& L: Q1 Q0 I2 S5 ?" F6 O# rDefault                                  : No
3 k$ J0 W$ E3 nForced                                   : No2 V3 o. z6 @& w" U2 c2 S" L

8 P, j3 _. g! G5 j2 a1 uText #247 z6 Y6 D+ _4 X7 @/ k* S- L
ID                                       : 273 u- _( u# ^0 Y* E+ I5 g5 m! u
Format                                   : PGS: L1 n4 s, c2 N  J! C
Muxing mode                              : zlib
' U1 o5 N1 C2 w/ `$ Z2 UCodec ID                                 : S_HDMV/PGS% B- u. g9 j2 Y6 T6 X
Codec ID/Info                            : Picture based subtitle format used on BDs/HD-DVDs
. I, n) t% I% w1 w- T) o7 T. XDuration                                 : 1 h 35 min
  ~, B: j4 u/ g; J; \- {( S4 o( m/ iBit rate                                 : 15.1 kb/s
, l5 V4 v6 h+ D0 I9 D9 D/ ECount of elements                        : 1177% j- B4 c8 v7 W  v/ S4 h9 Z! ~' Z: ^
Stream size                              : 10.4 MiB (0%)
& N: f- E9 }) z' ~4 e2 c& d. n. PTitle                                    : Polish-PGS4 d7 m$ {) D2 o- `1 f
Language                                 : Polish
9 ^% D" U6 `7 B' @& w5 yDefault                                  : No
% D! @% K9 c; |1 xForced                                   : No1 r* h1 T; r; O- ^

, |* b3 h* Z6 Y* s" l4 vText #25
+ U/ Y# H7 i8 r( {6 a5 R1 b- ?ID                                       : 285 V- U% w' K; x2 n: e, r1 ], \
Format                                   : PGS/ t8 B8 K' {! M5 r
Muxing mode                              : zlib* w3 w: K- u# D
Codec ID                                 : S_HDMV/PGS
- k4 z7 L/ d6 ^) MCodec ID/Info                            : Picture based subtitle format used on BDs/HD-DVDs1 K/ p, ]  d. u2 w2 w% Z. Y7 {. q
Duration                                 : 1 h 35 min
. P& G/ b! ?; T4 E4 U- \Bit rate                                 : 18.0 kb/s
, ^) \9 d. b+ R  Q* Y" |% KCount of elements                        : 1253
  |9 D& |) D& a9 M5 F( L& HStream size                              : 12.4 MiB (0%)
; _6 M( K) m3 q/ A. [Title                                    : Portuguese-PGS- |, l; Q* Y- }& M+ C6 j4 T0 c
Language                                 : Portuguese
% G/ X$ R' K" j2 w5 R6 JDefault                                  : No9 w) M0 k5 Q/ r4 X9 b% }
Forced                                   : No) l1 ?( r& F* H+ d7 N

/ m1 H5 }2 U- L- r  hText #26; m) a9 p, H6 Y( x
ID                                       : 29
0 G5 l0 o" `0 UFormat                                   : PGS7 O+ l' N9 Z' @
Muxing mode                              : zlib. D2 |8 O$ u& M3 m' n0 `
Codec ID                                 : S_HDMV/PGS
) [% X8 f& f# C+ ~  T4 E7 ACodec ID/Info                            : Picture based subtitle format used on BDs/HD-DVDs
) W* y- z/ y" @5 h  }Duration                                 : 1 h 35 min
% s2 p8 c1 N. c, {6 V. xBit rate                                 : 17.6 kb/s$ ]5 ~9 {4 P9 @% _* L" [2 K
Count of elements                        : 12051 ^. D4 x$ r/ }3 Y% W  s- J
Stream size                              : 12.1 MiB (0%)5 ?! A* x! W( A) M. l
Title                                    : Portuguese-PGS
* d: x8 Z, B9 i$ P% y9 N6 qLanguage                                 : Portuguese+ s( _6 r- n: D5 e8 O: t' S  y, Z( {
Default                                  : No! Y% z' Y" s+ A; q2 R5 D7 A
Forced                                   : No
, A$ ]7 l( i7 I4 v7 Y' y
/ k. L7 \+ S' S4 vText #27) U, N5 X& ^6 }$ ]2 N) j
ID                                       : 30
# w: N: _0 g1 Y: c( _Format                                   : PGS6 W* L! {0 |5 E4 B& K
Muxing mode                              : zlib3 z4 @2 F8 o  m7 r8 x# x3 u
Codec ID                                 : S_HDMV/PGS
  h  E% V/ u- F& y! F9 KCodec ID/Info                            : Picture based subtitle format used on BDs/HD-DVDs
7 I& f& Z) C! H5 aDuration                                 : 1 h 35 min& ^  C9 B1 U8 `: E
Bit rate                                 : 15.9 kb/s% o" ^. l- K% E: c4 f9 S
Count of elements                        : 1189
* d7 d% A# h5 ^; C6 `Stream size                              : 10.9 MiB (0%)
) l% l5 s/ g) K# C2 x% H* u- v* ZTitle                                    : Romanian-PGS
' z, ~( H5 C3 Z9 h4 q; M& MLanguage                                 : Romanian
/ l% N- i' M; x7 c- t9 ]Default                                  : No
/ p9 P. _6 w. rForced                                   : No* G% Z: f1 _8 T' Y! X+ B
' m# K/ @5 ?% r1 E. b0 n
Text #280 C) u5 g: D! }) T1 m% M+ W
ID                                       : 318 K2 R6 j- b7 V7 t+ O( S
Format                                   : PGS
0 w+ O' a3 v0 W* h$ v8 @4 KMuxing mode                              : zlib: ~. D! f9 L) C1 z  ^
Codec ID                                 : S_HDMV/PGS/ E# }  k4 ]1 M; \7 H
Codec ID/Info                            : Picture based subtitle format used on BDs/HD-DVDs) R" F; T: M! s7 o+ D
Duration                                 : 1 h 35 min; W! {4 d6 u: E: |" ^
Bit rate                                 : 17.0 kb/s
2 j8 W0 u& J( h5 ~8 o0 ?- C: pCount of elements                        : 1201
8 U) j6 E3 o& EStream size                              : 11.7 MiB (0%)
3 y6 r. }1 m! h1 _; MTitle                                    : Russian-PGS
" c. Z3 ?: b! vLanguage                                 : Russian, d- R% y" S+ R  W$ G0 p9 p7 ?) ~
Default                                  : No$ y5 b! |- f# {& j5 C7 y+ a+ G
Forced                                   : No# Z8 M( P1 p8 w
  C3 m3 o. s; d% v( s; {
Text #29
# N0 s  a9 {  r, T# J3 WID                                       : 32. o/ }+ Y# \9 a1 T- I* }
Format                                   : PGS: L2 E' Q% ~: K* P, i6 i9 e6 W  W
Muxing mode                              : zlib" i8 D3 R& C3 A. _' r& s: _
Codec ID                                 : S_HDMV/PGS
3 u: E0 O" _  `Codec ID/Info                            : Picture based subtitle format used on BDs/HD-DVDs
* y+ s' t3 w" ^, A' j# QDuration                                 : 1 h 35 min4 ^( M/ m8 D* f. _# C1 ?  P; E) `
Bit rate                                 : 17.3 kb/s0 g0 ^5 l- A% m7 I9 o
Count of elements                        : 1207
1 i4 K8 Q. v$ Q" i5 N" W0 e5 LStream size                              : 11.8 MiB (0%)6 ~  R$ n8 e% k* s2 f0 v& q
Title                                    : Spanish-PGS' j/ ~. t8 X4 d/ g. d' R( H
Language                                 : Spanish
0 C( b& e* _) m, x3 [Default                                  : No8 N# e. g. L, ?$ \. N* J
Forced                                   : No
$ c2 H( p2 x6 V* i1 j! f% J3 e7 B! R5 G9 w8 l8 s
Text #30
4 f8 C5 |, o: T8 f6 A/ Q: r- LID                                       : 33" G* Y: o5 F2 R0 N; g
Format                                   : PGS  o: W5 D6 g5 r
Muxing mode                              : zlib+ K2 a: e, ?$ P6 y# y9 g
Codec ID                                 : S_HDMV/PGS& P% s1 D1 x& M4 [  b
Codec ID/Info                            : Picture based subtitle format used on BDs/HD-DVDs9 p4 r2 m5 R* N" C0 _/ S
Duration                                 : 1 h 35 min
+ h5 Z& u# ]# |% G- NBit rate                                 : 18.0 kb/s6 g8 |# r8 X9 _4 |+ T7 x0 S
Count of elements                        : 1221/ ]1 O1 u' v$ C$ m% Q! p% `
Stream size                              : 12.4 MiB (0%)8 l9 B: D# ^) s% q9 b- l
Title                                    : Spanish-PGS
4 I- G+ d6 [4 s# a8 BLanguage                                 : Spanish2 I" ^9 R) P. C# l
Default                                  : No& R2 o* e6 B/ [/ S1 a9 Z
Forced                                   : No
0 X6 K4 p! T9 x* u& j* X: X2 S! R) J
Text #31
0 a7 A2 f* K  eID                                       : 34
& E$ O( {" a6 eFormat                                   : PGS# m3 v* }, A( |3 _6 g1 o: P" C
Muxing mode                              : zlib
. ?2 j/ j/ K7 [- M, Y: QCodec ID                                 : S_HDMV/PGS
4 Q7 [; d) ?- d' q* r1 s. nCodec ID/Info                            : Picture based subtitle format used on BDs/HD-DVDs
# W. s! n& c" ]1 JDuration                                 : 1 h 35 min
! t4 @; P: |& e" H8 CBit rate                                 : 16.6 kb/s- O9 _8 d; A2 |* N4 C
Count of elements                        : 1201
  X# X! j* z# ]9 N9 t5 N' nStream size                              : 11.4 MiB (0%)
- T) K# g4 [6 _8 }Title                                    : Swedish-PGS/ A* M, O" g" ]5 B8 d2 Y; F! @8 Z1 O
Language                                 : Swedish
1 O9 p3 h8 y0 ?2 i* D* ]6 [( ?) `$ qDefault                                  : No
$ Y# O# g5 N3 G; ^. h& G8 [1 v) hForced                                   : No6 }2 w- {( p$ h" v+ B
, I4 ^3 ~7 Z' N; W
Text #32
2 `& \# ?( B: z- F1 ?ID                                       : 35- E& s' B; r$ w0 r
Format                                   : PGS9 U" o* O$ }+ @$ i
Muxing mode                              : zlib/ L" Z/ E8 z# ]$ U6 M
Codec ID                                 : S_HDMV/PGS
7 m  J# `, c& e8 @Codec ID/Info                            : Picture based subtitle format used on BDs/HD-DVDs
& J$ |, H' Y& o) d3 x8 w9 C- iDuration                                 : 1 h 35 min( R/ L5 c2 r& M& Q0 Z/ X. J
Bit rate                                 : 16.0 kb/s7 m- u) y, l# w- V
Count of elements                        : 1211* Y6 v: z: J- a1 P9 Q1 l7 d! ^
Stream size                              : 11.0 MiB (0%)* D2 W: Q4 Q6 E, ^, W  b5 @
Title                                    : Thai-PGS
( c- t) f' o6 k; [9 N2 DLanguage                                 : Thai
% n% p- j5 y, E9 p# t3 e% n0 zDefault                                  : No
5 W+ w1 c5 `3 }) Z& }' tForced                                   : No
0 `7 L* f5 _/ U% {: [
9 c& F" _+ I, T+ ?: ^& nText #33
  h& L* n( {3 A9 qID                                       : 36
2 [3 U. c0 \) e+ V9 m) k* LFormat                                   : PGS4 G1 X: t5 ~$ z3 I( ]; H& Q% Z
Muxing mode                              : zlib
8 C  e( \! C, o; T+ \Codec ID                                 : S_HDMV/PGS
% y" ~/ t8 v2 D% Y% _8 S# ~. FCodec ID/Info                            : Picture based subtitle format used on BDs/HD-DVDs
* Q+ a- M/ U; m$ z- \1 r# pDuration                                 : 1 h 35 min: \0 V/ v- F4 u  i. A0 G3 ?1 o
Bit rate                                 : 15.8 kb/s
& h+ _7 y6 P3 tCount of elements                        : 1207
- S3 x: v' S- M# _Stream size                              : 10.9 MiB (0%)
2 N+ k0 M( N8 Y/ VTitle                                    : Turkish-PGS& S* U: d2 E0 O3 p! S2 ~, ?
Language                                 : Turkish: {1 c! w0 y# i1 @
Default                                  : No
% {+ r7 Y3 S! `$ a  \! I# hForced                                   : No8 {' R4 N8 r1 [/ S
, o. {  |) K4 j# ]
Menu
# z  i. a! i; S. u4 v0 X- w00:00:00.000                             : en:Chapter 1
+ V2 L- k+ q, v& Q  Y; M, o00:01:57.492                             : en:Chapter 28 C' ?2 v' o4 z/ X5 M2 e
00:11:47.623                             : en:Chapter 36 K  ^- _2 @: n8 X. r
00:17:51.945                             : en:Chapter 4
6 L+ i6 P4 K- {. }! }00:25:12.260                             : en:Chapter 5+ J3 v% R; l# E/ K2 L
00:31:00.567                             : en:Chapter 6
. J4 H* t+ U# L; v00:36:43.117                             : en:Chapter 76 w3 v' f' n5 Q3 K1 e$ d
00:42:49.817                             : en:Chapter 8# ^2 @  ^! u5 V1 l. R$ o
00:48:20.981                             : en:Chapter 9
) P' Q# t; j$ y$ P00:53:50.852                             : en:Chapter 103 A' w* g; F$ F
00:58:51.027                             : en:Chapter 11
9 W  a' |1 w: x' V0 L3 x01:06:58.597                             : en:Chapter 12; G1 x) q/ U& ?( h2 H
01:11:38.836                             : en:Chapter 134 V7 E0 _2 m( H: {* p
01:15:13.050                             : en:Chapter 14
  n& n5 _6 Q6 g6 S" J( \01:21:41.688                             : en:Chapter 15+ X! N; P2 `; [( C8 S: A  n
01:29:38.748                             : en:Chapter 16

4 |( H% |" C. u, z  n3 \
游客,查看本帖隐藏内容请回复 | 加入VIP可免积分免回复 了解详情 | 还不是会员:点击获取邀请码 Invitation Code

0

主题

85

帖子

449

积分

Sponsor

金币
49 枚
体力
205 点
myoracle 发表于 2022-5-21 11:01:41 | 显示全部楼层
啥也不说了,楼主就是给力!8 U/ v" V, N+ E" a! h
Blu-ray movies Community: my favorite!
3 n0 ?: |( Z0 \4 G$ W  j

本版积分规则

小黑屋|Archiver|蓝光电影资源网

GMT+8, 2022-8-15 06:29

Copyright © Tencent Cloud.

快速回复 返回顶部 返回列表