BluRayCD Forum

 找回密码
 立即注册【分享大片】
查看: 70|回复: 1
收起左侧

[科幻恐怖] 地狱游乐园/血祭哈啰喂(港)/吓地狱(台) Hell Fest 2018 1080p BluRaycd x264 DTS-X 7.1-FGT 9.58GB

[复制链接]

1万

主题

387

回帖

13万

积分

Post Share

金币
4116 枚
体力
32636 点

卓越贡献勋章VIP蓝光勋章诚信会员勋章

mvods 发表于 2019-1-1 20:19:28 | 显示全部楼层 |阅读模式
) Q' O. m1 y, `+ R( ^0 V
01.jpg ( i# _4 d' e# z- j0 o

5 A9 W% K+ |' m  u◎译  名 地狱游乐园/血祭哈啰喂(港)/吓地狱(台)1 m: \6 g5 A9 L! q' n" h! d) ^
◎片  名 Hell Fest / Hellfest/ a, G) S* E, u$ h. e
◎年  代 2018
. J' _  y% x* z9 s; E7 T) Q" G* Y◎国  家 美国; h) z' T" o# W& _
◎类  别 恐怖
6 a3 p! Y4 ~9 M* \' N7 I◎语  言 英语
0 K4 O4 r' w, e% G8 _◎上映日期 2018-09-28(美国)
" P1 ~8 f8 {) G, c% U) \7 L◎IMDb评分 5.5/10 from 4,402 users3 E+ @8 Q. e5 v- K" I+ K6 S
◎IMDb链接 https://www.imdb.com/title/tt1999890/& t; \) G2 A* d2 q8 l
◎豆瓣评分 5.6/10 from 164 users' a, A4 w; T" C: D! J
◎豆瓣链接 https://movie.douban.com/subject/22266236/
+ f! T( ]" p, \' k# T' V◎片  长 1 h 28 min
+ a) n7 S2 A: i. }1 ~9 Z◎导  演 格雷戈里·普罗金 Gregory Plotkin9 k7 D& A; |* b" t7 A/ Q
◎编  剧 塞斯·M·舍伍德 Seth M. Sherwood! d( J. `* P" x2 P2 _& z, I
       布莱尔·巴特勒 Blair Butler
7 D; T/ u) B  B/ P) |0 `8 m◎主  演 贝克斯·泰勒-克劳斯 Bex Taylor-Klaus4 X, H2 {/ N. B) z$ n5 Z2 k
       雷格·爱德沃兹 Reign Edwards
4 e; _5 x' E/ j+ Y6 e       艾米·福赛思 Amy Forsyth
# y4 B. r5 s: G$ W7 [       托尼·托德 Tony Todd" v# w1 ^/ w* D8 I  w0 G
       考特尼·迪茨 Courtney Dietz1 c- Q& B5 Q2 ~# s# f9 t9 z  a
       迈克尔·图尔克 Michael Tourek
& u* |  X$ y1 a9 a$ v       克里斯蒂安·詹姆斯 Christian James
- o1 x" a7 V  f/ L       马特·默丘里奥 Matt Mercurio
, s9 }/ L1 S: ]7 R9 ^# L& o       埃尔·格雷厄姆 Elle Graham
: L+ P, u. v/ Z6 O( G* E3 J4 X       布鲁克·杰伊·泰勒 Brooke Jaye Taylor8 h1 _6 J( _& i
       本杰明·韦弗 Benjamin Weaver
: U* V6 p, P9 L) l- V+ E; [8 U       肖恩·麦克米伦 Shaun McMillan/ {6 ]% \$ F, M- I6 k% q+ }9 s- W

! M# S3 w% R6 |1 H◎简  介        
) P& l4 ?% s5 s5 q3 }3 h+ j" E
1 N/ L4 K5 z5 F  M: `   “进场欢笑多,出来成地狱”:万圣节时,某恐怖主题游乐园来了一个连环杀手,用各种方式悄悄杀死游客们,三个女孩能否存活? # R2 v) i8 K, W) ~( u" u
Video
6 q6 z( h# i3 U: t- QID : 12 W9 k2 y5 W4 L, k1 O- X
Format : AVC
/ \& `8 q8 ^) ]- R) u) P" PFormat/Info : Advanced Video Codec' ]7 M- Y; s& C( l+ c$ ]
Format profile : High@L4.1
$ I. {% p0 L1 S4 _Format settings : CABAC / 4 Ref Frames
, B) s5 {4 r, d! u( X( j, CFormat settings, CABAC : Yes
5 |! ]9 H% h1 mFormat settings, ReFrames : 4 frames6 U6 s7 ~- Y3 k
Codec ID : V_MPEG4/ISO/AVC; f4 W, u, T- |- F0 d" }
Duration : 1 h 28 min
( b- [# T6 G. w! GBit rate : 9 061 kb/s
" @# f% g8 Z/ \2 f0 H& wWidth : 1 920 pixels: Z8 @: v& ?) I0 l+ v5 S% p* e
Height : 1 040 pixels! |; U; M4 E% L( C2 f) [. f: U
Display aspect ratio : 1.85:1
! ?( R. Y  P( a' T) E) ]5 o( MFrame rate mode : Constant( u6 o( E5 z: \2 E; `. [, V
Frame rate : 23.976 (24000/1001) FPS
( {5 y( M* G7 i0 L/ EColor space : YUV
6 O* r4 B- _3 H2 u( O2 QChroma subsampling : 4:2:0
" S9 p1 ]# D7 jBit depth : 8 bits
8 g, R/ I4 j3 R5 W8 v# Z+ K7 @5 FScan type : Progressive6 M: V2 W; u/ T! V3 ?9 _! E4 g3 x1 i
Bits/(Pixel*Frame) : 0.189" z: Q) k7 f8 l; ~/ q3 M7 {
Stream size : 5.62 GiB (59%)5 I! D7 x0 r! ^
Title : Hell.Fest.2018.1080p.BluRayCD.x264.DTS-X.7.1-FGT6 Q9 ?: c7 ]  [5 W  Y" D1 O
Writing library : x264 core 155 r2901 7d0ff22; ~6 K6 M; C& J* b  `
Encoding settings : cabac=1 / ref=4 / deblock=1:0:0 / analyse=0x3:0x113 / me=umh / subme=8 / psy=1 / psy_rd=1.00:0.00 / mixed_ref=1 / me_range=16 / chroma_me=1 / trellis=1 / 8x8dct=1 / cqm=0 / deadzone=21,11 / fast_pskip=1 / chroma_qp_offset=-2 / threads=24 / lookahead_threads=4 / sliced_threads=0 / nr=0 / decimate=1 / interlaced=0 / bluray_compat=0 / constrained_intra=0 / bframes=3 / b_pyramid=2 / b_adapt=1 / b_bias=0 / direct=3 / weightb=1 / open_gop=0 / weightp=2 / keyint=240 / keyint_min=24 / scenecut=40 / intra_refresh=0 / rc_lookahead=50 / rc=2pass / mbtree=1 / bitrate=9061 / ratetol=1.0 / qcomp=0.60 / qpmin=0 / qpmax=69 / qpstep=4 / cplxblur=20.0 / qblur=0.5 / ip_ratio=1.40 / aq=1:1.00
. N  y. d) U9 [, H# S: sLanguage : English) {# E. j7 N" I- i! h) V0 |
Default : Yes
% \8 B6 _2 Y* w- m5 X# ?9 pForced : No
' P8 d; f' d7 U2 Z( Z9 V; E6 L0 X; W0 O- ?3 z( |( c) Q" I( d8 o
Audio4 V8 P0 ~* u+ R9 @; W
ID : 2
; V+ r) L* M- f1 wFormat : DTS XLL X0 U4 I) N8 m9 u
Format/Info : Digital Theater Systems; c& \0 A  b. z" K
Commercial name : DTS-HD Master Audio
6 x* U5 g3 w( l* X1 a* C- ECodec ID : A_DTS% ~1 K* v- R& i4 K+ R- \/ a
Duration : 1 h 28 min
# X+ k% f  V9 h# I0 D+ FBit rate mode : Variable0 F# X1 J' c: S$ |8 s
Bit rate : 6 330 kb/s
% Y6 J2 b+ o0 Z& kChannel(s) : 8 channels
1 y& G% ]0 Q) o8 pChannel(s)_Original : Object Based
: j7 }. V/ P/ r6 @Channel layout : Object Based  c' J; J5 S$ B) w
Sampling rate : 48.0 kHz( G3 Y( b2 e1 e# y: ?0 Q
Frame rate : 93.750 FPS (512 SPF)
1 h  C1 ]# m# {1 n  E( WBit depth : 24 bits
: d9 t0 c0 q/ H+ lStream size : 3.93 GiB (41%)7 D! A6 y; r4 Y" H5 D4 d5 f
Title : Hell.Fest.2018.1080p.BluRaycd.x264.DTS-X.7.1-FGT
+ X( t! Q3 Y: e1 @/ W5 kLanguage : English
$ k* F0 c$ T6 ~. W9 ^Default : Yes6 _% w& J5 K7 t" q5 X& u
Forced : No
$ [6 \& w. `6 [2 S' {
$ m# J$ P2 }4 G9 A% b( i2 ^Text #1
$ l/ ?( a5 D) u  C3 T4 s6 aID : 3) f/ ~+ h1 e; B/ f+ F2 k  m: \
Format : UTF-8
; ]1 W( A" \8 T* M' s' w) n) ~Codec ID : S_TEXT/UTF8/ X# w; P# Q+ F9 a/ o0 }
Codec ID/Info : UTF-8 Plain Text
( _, f6 Y# l1 y( FDuration : 1 h 23 min
  J% t* U) L# _+ T" d; E" dBit rate : 58 b/s
/ t0 s+ f) ~$ [& LCount of elements : 11551 N. ?. L+ t, b% h$ o- y; _4 z
Stream size : 35.6 KiB (0%)
& w% K: B/ X9 V, DTitle : English-SRT
$ ^7 f( K1 W8 E, c: H5 n5 n; H% lLanguage : English4 \. c$ ?- J0 a
Default : Yes/ R. m/ I, m% a; H
Forced : No
7 [/ \/ C( K- E* `2 _- G* }
' a8 Q" n$ j4 oText #2
% V. K# _  x: L) AID : 4
: b8 Y6 g& F/ \2 U" cFormat : UTF-8
4 v  r6 C* {3 ?9 [( O" ]4 R1 L/ _Codec ID : S_TEXT/UTF8
& q, Z$ }, o8 u* O) OCodec ID/Info : UTF-8 Plain Text
: @- e# R8 s; I7 @  P6 F$ L1 ODuration : 1 h 23 min0 C/ g2 p- b. L8 o8 ]- m
Bit rate : 73 b/s
. c2 k- R$ i% f" ]& jCount of elements : 1467
% q. J' G9 g7 ^Stream size : 44.9 KiB (0%)
8 I* J* b! p# d% x/ B$ pTitle : English-SDH-SRT
8 O. l7 N' y" x% BLanguage : English" n% Y$ g  N& o& ^: |6 k- _0 L3 u
Default : No
: {, Z3 M- q% P$ X7 ZForced : No) q" Y% `, a- ~5 v

5 F( Q, [/ V. f' ~/ K2 I1 XText #3
# E/ d8 Y  ~7 F( t" G2 oID : 5
' j3 ]  x! Y' FFormat : PGS
  t5 r6 S- p" e8 P! V( TMuxing mode : zlib' G8 E( C! h$ R8 Q1 n  t* ^7 w
Codec ID : S_HDMV/PGS' i  C9 e: f! ^4 l
Codec ID/Info : Picture based subtitle format used on BDs/HD-DVDs
  K6 q4 M$ z1 h, Y3 oDuration : 1 h 23 min
: X- r# z. ?: A6 {$ @0 D- E, uBit rate : 40.1 kb/s0 l, \/ k; v' w2 i1 J) G
Count of elements : 2262
1 O& l/ O. R; h% K8 r% k! KStream size : 23.9 MiB (0%)
" O+ N, q0 O$ J8 s9 @Title : English-PGS
- Y; I$ C2 \7 tLanguage : English
3 n; w  j: L# z/ g- JDefault : No
! C* F) _. G2 z$ S+ ^( m% gForced : No
4 S# O+ e1 M' s. O. w* A; x. \& _
Text #4
* Q) N# d1 I, P6 r6 jID : 6
/ p6 G% d7 z4 f0 s7 K  h7 ]' y! BFormat : PGS
: u  d4 `+ y$ q2 s2 A+ u. i/ }4 ^Muxing mode : zlib
+ f9 A0 H2 J7 @6 \& a- Q7 E2 P5 lCodec ID : S_HDMV/PGS  r! v9 c" l- e8 J4 d+ D
Codec ID/Info : Picture based subtitle format used on BDs/HD-DVDs
9 u3 e: `& p% ^$ t# b$ f! r7 m$ cDuration : 1 h 23 min
, X+ J# {, ~/ z( q/ jBit rate : 51.8 kb/s
8 d5 n) Z, |  rCount of elements : 2946. @0 u( k; c2 L$ P# N4 ]
Stream size : 31.0 MiB (0%)
5 K% @' J3 O3 a. d$ ETitle : English-SDH-PGS! i: i; y5 ^1 u, n: `/ y) J3 c
Language : English
' m" \0 A: b8 L. U& W( V" k) MDefault : No3 Z/ _7 }6 ?. k+ ^$ W8 i
Forced : No6 h  F4 j9 Z! I( G

, ^1 Q) @$ Z4 |0 W5 `Text #5& G5 q3 n, d% m* `- \% }4 o
ID : 7& i2 x1 C' d9 F# Y, r# A; c
Format : PGS
6 y" M+ {9 p( `6 w/ e7 zMuxing mode : zlib
, b. K) q- l3 P$ k* U) SCodec ID : S_HDMV/PGS
) W( E  E& N) Q$ x; A7 H4 n1 qCodec ID/Info : Picture based subtitle format used on BDs/HD-DVDs
, x" N& U) ]: ~& o) JDuration : 1 h 23 min' q8 |% U: r, f1 a7 \
Bit rate : 34.6 kb/s
+ p/ Q: i! q, _/ h4 {; LCount of elements : 2282
- u. i! d+ I" d3 J4 cStream size : 20.7 MiB (0%)
" u* }% V9 l' f2 k% d1 KTitle : Spanish-PGS. r, H. m+ v  _8 O
Language : Spanish
9 u( i. S' j7 O( c. K# V3 hDefault : No3 _+ e$ u) j# K" g, G: Z
Forced : No
- V1 _' Q" N) Y4 O6 @$ O+ f  ]1 }- b- M1 ~8 ^- X
Menu& s3 {% I' I- q, E( v+ p+ g, p3 `' a
00:00:00.000 : en:Chapter 015 J8 v" Z5 B" V/ l3 F" ~0 x1 d
00:04:28.977 : en:Chapter 02" M, x; w  Z) H% j' N
00:12:09.979 : en:Chapter 03/ g' C/ s$ |+ W8 |5 {8 c
00:15:44.026 : en:Chapter 04
  }1 H* K8 v- b5 E0 [3 p, [00:22:44.029 : en:Chapter 05
7 Y% J% ]1 B' P# N" N+ C+ A/ @' ^00:28:22.242 : en:Chapter 06
/ U+ l% R* D3 n- w# K( J00:35:17.365 : en:Chapter 07
6 [" z9 u+ a8 m# I00:40:37.226 : en:Chapter 089 b/ {" D0 Y/ x7 n: A" Z
00:43:37.781 : en:Chapter 09
$ x9 G2 `" [" s; I00:49:16.620 : en:Chapter 108 F0 h3 }, v" J& A5 ~
00:53:22.407 : en:Chapter 11
3 K2 q4 s7 n/ D% Z7 Q* P01:00:07.770 : en:Chapter 12  b, y$ V0 W" G' z+ m9 E- V
01:06:43.582 : en:Chapter 13
8 ~! j( T7 {2 j4 J% `5 x01:11:33.455 : en:Chapter 14
8 [+ t: ^; I$ o4 x) [01:16:33.589 : en:Chapter 159 R$ @1 z4 l: ]) Y5 I) W
01:21:53.325 : en:Chapter 16
' X% O% _( n/ D8 q8 l

# ^- d; w* Y/ u6 @2 N
8 |+ b& t' Q' ?
R E P L i C A   P R E S E N T S . . .5 H4 D* n9 e1 @- J# X9 ^+ G

$ h% u. N5 L4 b# p+ f" s* [Hell Fest* n# f" S# p6 B4 }, g1 y) k

4 d& K+ E2 J' @0 O$ X8 AViDEO TYPE..: Bluray     RUNTiME.....: 1:28:48 min
* d$ }3 m' G; [7 F- SRLS DATE....: 12/28/2018
/ C) [; h- _6 D0 O) piMDB RATiNG.: 5.6 (4,085)7 R0 a- P  h1 z+ |% z( [3 O' p
GENRE.......: Horror
0 O: r( l7 f$ a0 \$ \# V# ~8 s3 d: h# }( F6 V4 B0 M3 s: Z
iMDB LiNK...: https://www.imdb.com/title/tt1999890/* K# C/ e- _3 i5 l

& c) d- O# l, ^  K8 y; C! KR i P P E R \' S   N O T E S . . .
' ~% D# k. ?) \
% F" ]  T9 z! S1 ]# `6 NMain Movie .....:
# J& A+ `! K% j; W3 e/ sVideo - 9061 Kbps
$ ]( d/ s/ p% Z- [Audio - 1509 Kbps DTS0 C1 g, V' \% p* ], _0 K
Subs  - Eng, Esp
1 `* L' w6 R* N; l+ p5 N% M, [' B  U) p2 b
Extras .........:
% R, E( B5 I# k" B# E! O7 j# F$ |! V
7 a# z7 B. `* ~# m7 e- P/ A. dRipped .........:
- ^# y' g9 N$ Y; r0 T, d1 W7 y. y8 q* k) L+ u5 O
Additional Notes .........:
5 W" X* X1 ?/ a/ e# R$ [, }# M2 E' @* o2 Z" G
ASCii BY fumita@ARTCORE
Screenshots:
! o/ {8 ]3 Z- @' n% F- ?
0 i0 b# g# J6 Y5 v$ ]
9 H7 ], u; n: i* r) w% Z& x6 P$ h
游客,查看本帖隐藏内容请回复 | 加入VIP可免积分免回复 了解详情 | 还不是会员:点击获取邀请码 Invitation Code

0

主题

235

回帖

1966

积分

Sponsor

金币
1 枚
体力
1462 点
tjzfyybbb 发表于 2023-2-5 23:00:51 | 显示全部楼层
阿斯顿发送到发送到发

本版积分规则

小黑屋|手机版|Archiver|4K蓝光论坛

GMT+8, 2024-4-15 13:08

Copyright © 2001-2021, Gadaddy Cloud.

快速回复 返回顶部 返回列表