BluRayCD Forum

 找回密码
 立即注册【分享大片】
查看: 102|回复: 2
收起左侧

[动漫动画] 爱宠大机密2/Pet Pet当家2(港)/宠物当家2(台)/宠物的秘密生活2 The Secret Life of Pets 2 2019 1080p BluRaycd x264 DTS-FGT 7.80GB & 4.39GB

[复制链接]

1万

主题

386

回帖

10万

积分

Post Share

金币
394 枚
体力
27013 点

卓越贡献勋章VIP蓝光勋章诚信会员勋章

mvods 发表于 2020-3-5 19:27:52 | 显示全部楼层 |阅读模式
02.jpg ! O  S* F) {; J3 m9 J

% l9 s8 Z1 }  F& J5 I8 W+ Z; m◎译  名 爱宠大机密2/Pet Pet当家2(港)/宠物当家2(台)/宠物的秘密生活2
; W- T* o1 N  v4 u/ |◎片  名 The Secret Life of Pets 2
- @: f, |  H0 K* t# z% K◎年  代 2019$ N+ f. }1 O2 i% m8 R/ N9 `2 j
◎产  地 美国( M% ]8 L, S( |7 F; l
◎类  别 喜剧/动画/冒险5 T. l" l( I6 V: i3 I. P1 W& C
◎语  言 英语
$ q0 a7 x/ ]! O◎上映日期 2019-06-07(美国)/2019-07-05(中国大陆)
6 i- F. v( F  [◎IMDb评分 6.5/10 from 38,489 users
: r3 B% {- d/ g# @: i' R/ V/ {◎IMDb链接 https://www.imdb.com/title/tt5113040/; P+ w* `, s% K4 m: x
◎豆瓣评分 7.0/10 from 82,788 users
1 f! P" L( \, l$ \5 R$ t. ~7 f◎豆瓣链接 https://movie.douban.com/subject/26848167/: I, O- k+ K3 Y( ~- f/ O: N
◎片  长 1 h 26 min# ?& {7 Q) k1 e
◎导  演 克里斯·雷纳德 Chris Renaud; y' G- F3 I" y& g9 V# [
◎编  剧 布莱恩·林奇 Brian Lynch
( l+ E; V. x6 K◎主  演 帕顿·奥斯瓦尔特 Patton Oswalt9 f: I+ l, `- I( O# R
       凯文·哈特 Kevin Hart
$ \9 m0 m4 s- q. J9 z       哈里森·福特 Harrison Ford/ e6 `% g: \7 X
       艾瑞克·斯通斯崔特 Eric Stonestreet1 l( z( r; [+ }3 B
       珍妮·斯蕾特 Jenny Slate5 j! }+ [1 B4 l6 K/ E) S
       蒂凡尼·哈迪斯 Tiffany Haddish3 C+ X; _# o* c8 G
       蕾克·贝尔 Lake Bell9 }0 j7 x% L; K- }+ b
       达纳·卡维 Dana Carvey$ z  J( e9 l3 Q
       鲍比·莫尼汉 Bobby Moynihan
. o6 a* [( i" i1 H& u6 a7 E       汉尼拔·布勒斯 Hannibal Buress
4 ~+ A" ?1 S9 j( D5 X       克里斯·雷纳德 Chris Renaud
9 b0 }# Y) `- s4 [- u0 G* ]  r       艾丽·坎伯尔 Ellie Kemper4 j% K$ P9 W7 n5 E# P
       皮特·霍尔姆斯 Pete Holmes3 w* P5 ?% `0 B& @
       尼克·克罗尔 Nick Kroll) t8 \1 @  C' k# N! t* T5 Y
       肖恩·吉布朗尼 Sean Giambrone
9 M. G7 E1 I" J  Y" |       梅雷迪斯·萨拉格尔 Meredith Salenger& }; F" [* z$ h$ j. T& F: G
       迈克尔·贝亚蒂 Michael Beattie
% Z/ [( N( ^2 Z6 r5 i0 [       大卫·阿克德 David Acord( Q0 R' H% z4 |
       斯科特·摩西尔 Scott Mosier
# |0 P+ J2 ?% D0 s  Q       杰米·卡米尔 Jaime Camil( S  |; K% p3 d7 u6 a9 [
       拉瑞恩·纽曼 Laraine Newman
( E4 q: r3 e1 K( w       布莱恩·T·德莱尼 Brian T. Delaney
. z* ~1 l: Q% S- v6 R       杰西卡·迪西可 Jessica Di Cicco$ c/ V9 G, o8 V4 {
       桑德拉·艾切维里亚 Sandra Echeverría) g% l0 [" k0 J# N8 g: c
       加斯·詹宁斯 Garth Jennings
  K% @4 O! i1 x6 L# r! `       塔拉·斯特朗 Tara Strong
& l& d1 F& A2 C+ R( j       弗雷德·塔特西奥 Fred Tatasciore
% p! r/ r( d4 K3 @2 N       约翰·卡西尔 John Kassir" }- a8 c/ h& s! l3 S4 M- G
       斯科特·门维尔 Scott Menville
! ~2 G: I. _6 E; s: ?7 ?       马修·伍德 Matthew Wood! ?. K, L7 S( O5 j9 @- n, v" z

6 t6 }* S2 `0 }: V* |◎标  签 动画 | 宠物 | 喜剧 | 美国 | 搞笑 | 萌 | 2019 | 动物
/ n. X& Q2 v8 g8 j  R
2 Q6 ^# D7 H% ?* F◎简  介  ( b9 b! R1 ~4 n: P/ }
2 E' {' A6 s" l& }5 V
  《爱宠大机密2》将延续2016年夏天轰动一时的《爱宠大机密》的故事,讲述宠物在我们每天离家工作或上学后的生活。照明娱乐创始人兼首席执行官克里斯·梅勒丹德利和他长久以来的合作伙伴珍娜·海莉将共同制作这部续集。《爱宠大机密》是当时开画成绩最好的原创电影,不论是动画片还是其他类型。  d3 a- y. H0 P. y) F& b
9 x: J. v8 X/ j" z* x
  《爱宠大机密2》继续由布莱恩·林奇(《小黄人大眼萌》)编剧,并再一次由克里斯·雷纳德(《神偷奶爸》系列,《老雷斯的故事》)执导。
+ n* _9 H1 d* d# u+ |. J! t6 Z
2 s4 J; X# B2 j4 o, i  Continuing the story of Max and his pet friends, following their secret lives after their owners leave them for work or school each day.
4 R) P2 }# {1 M+ \+ O
Video
* i7 x" Q) X# Y% D6 P( G* l" qID                                       : 1
/ Z/ I# `$ v$ n8 x7 u5 [Format                                   : AVC: p  E' @/ [# Z& Z& }! f
Format/Info                              : Advanced Video Codec% X5 a; S' V4 I7 R
Format profile                           : High@L4.1  K& w, F: ?/ ~) V: P
Format settings                          : CABAC / 4 Ref Frames
# Z* O) c$ {) ?. k; X; G0 bFormat settings, CABAC                   : Yes; V; o$ {& l) x, @, n
Format settings, Reference frames        : 4 frames
& d" n) Y: i3 I: w- `) e0 LCodec ID                                 : V_MPEG4/ISO/AVC
0 t1 {' O! ]* w0 \Duration                                 : 1 h 26 min
* d. A$ [7 T3 a. \Bit rate                                 : 11.5 Mb/s
7 a0 |* ]; n  M* Z/ T' r* BWidth                                    : 1 920 pixels$ |2 @+ W+ g/ L
Height                                   : 1 036 pixels1 i6 {: H+ Y7 d5 P1 m0 O) Z
Display aspect ratio                     : 1.85:16 j# c) u, e- L/ P9 ]+ g7 G
Frame rate mode                          : Constant- C/ M. Z+ u- \
Frame rate                               : 23.976 (24000/1001/37687) FPS
/ F, m: d6 b! ?2 s9 z# o5 UColor space                              : YUV7 x/ H9 D* }8 ], b( m
Chroma subsampling                       : 4:2:0
; d, p& x0 P) \$ B2 ZBit depth                                : 8 bits; @3 B4 I+ j: J* H
Scan type                                : Progressive
. y& P9 a+ ^5 f: ~* i; cBits/(Pixel*Frame)                       : 0.241/ D2 P; ?- W5 G9 Q
Stream size                              : 6.89 GiB (88%)
' l+ V& l1 O8 H  C( j8 pTitle                                    : The.Secret.Life.of.Pets.2.2019.1080p.BluRayCD.x264.DTS-FGT
- p- O. P/ \0 G& ]4 U0 lWriting library                          : x264 core 148 r2795M aaa9aa8
% i* w7 C6 ^; d3 `; Y) |* zEncoding settings                        : cabac=1 / ref=4 / deblock=1:1:1 / analyse=0x3:0x113 / me=umh / subme=8 / psy=1 / psy_rd=0.50:0.00 / mixed_ref=1 / me_range=32 / chroma_me=1 / trellis=2 / 8x8dct=1 / cqm=0 / deadzone=21,11 / fast_pskip=1 / chroma_qp_offset=-2 / threads=32 / lookahead_threads=3 / sliced_threads=0 / nr=0 / decimate=1 / interlaced=0 / bluray_compat=0 / constrained_intra=0 / bframes=3 / b_pyramid=2 / b_adapt=1 / b_bias=0 / direct=3 / weightb=1 / open_gop=0 / weightp=2 / keyint=240 / keyint_min=24 / scenecut=40 / intra_refresh=0 / rc_lookahead=50 / rc=2pass / mbtree=1 / bitrate=11500 / ratetol=1.0 / qcomp=0.60 / qpmin=0 / qpmax=69 / qpstep=4 / cplxblur=20.0 / qblur=0.5 / vbv_maxrate=31250 / vbv_bufsize=31250 / nal_hrd=none / filler=0 / ip_ratio=1.40 / aq=3:0.602 B6 X& J. V' s. O
Language                                 : English: f  T2 {. e! A
Default                                  : Yes7 c) w) ?/ H+ n4 @$ b8 c. B' A$ `
Forced                                   : No
6 `/ p' a8 h5 w) n) g/ O1 x
: G8 ?# S& J* r  E& d6 [; MAudio
1 g( b1 ]3 z% ?' Y5 Q# l5 `' dID                                       : 2
. A; j! W( d) ]& H; PFormat                                   : DTS; F, I' B9 s. m% T1 Q' e0 S
Format/Info                              : Digital Theater Systems# u( E/ H$ \$ f- Z, _2 Y* |
Codec ID                                 : A_DTS
" I: t% o; i, X0 QDuration                                 : 1 h 26 min
6 R8 L1 x8 q: b8 F3 M3 UBit rate mode                            : Constant
! J" s  }  \" JBit rate                                 : 1 509 kb/s
# @2 R! ?, X- ]1 X1 B, KChannel(s)                               : 6 channels
/ S5 J. O) \9 e0 a7 T$ d% oChannel layout                           : C L R Ls Rs LFE: i' n0 R" H' T8 ^( Y, y* i
Sampling rate                            : 48.0 kHz
* f4 [* L3 k( w4 j' w! rFrame rate                               : 93.750 FPS (512 SPF)" e/ [3 L$ S; l5 O+ u5 ]3 d
Bit depth                                : 24 bits
# e7 T9 s& G" J# F- o  WCompression mode                         : Lossy* b/ g, a; a8 p/ n
Stream size                              : 929 MiB (12%)
0 o$ K* X! l: uTitle                                    : The.Secret.Life.of.Pets.2.2019.1080p.BluRaycd.x264.DTS-FGT
/ i, N" m. t' rLanguage                                 : English: A) K) M& I9 G! E8 k1 c. X
Default                                  : Yes2 Y8 c. ?# ?5 i. ?9 {" u) o0 R
Forced                                   : No  E$ W& Y# w* i% ~

5 g' z' r+ P2 E; VText #1
4 i! c: I/ E1 J/ z: {ID                                       : 3
( q4 R0 `) X8 d: YFormat                                   : UTF-8
+ P7 Y' j# q/ D  |& R4 c6 i* r/ jCodec ID                                 : S_TEXT/UTF8
# I6 ^$ _- {% l/ b; vCodec ID/Info                            : UTF-8 Plain Text4 }+ ]0 |, |1 R6 \# o* p
Duration                                 : 1 h 25 min
' N( |' J5 v/ k2 D+ h  U3 z# lBit rate                                 : 47 b/s
  z8 f. E9 @- P4 ]8 g& v- KCount of elements                        : 1229; ]- B9 ^: v) j
Stream size                              : 29.9 KiB (0%)! k- l! m* P4 K1 Y& J2 z6 Y
Language                                 : English8 z, ^! Z9 H; x
Default                                  : Yes+ Q) d. J) u, V- {  \& ?: m% d
Forced                                   : No; u" t! d( Y; `) k- j6 }- f0 ^

8 n# ~: @5 n# h( J; NText #2
- j& v/ T! D1 o. p0 T2 KID                                       : 4
# D. _) ^8 Z  N  v- K* [$ lFormat                                   : UTF-8
, X2 L+ W6 B6 D* l5 \Codec ID                                 : S_TEXT/UTF8
, w- e# ]) h9 iCodec ID/Info                            : UTF-8 Plain Text
5 S+ P: Y  ]! }. WDuration                                 : 1 h 25 min
! j$ f1 u1 b% w& ^8 }Bit rate                                 : 77 b/s9 ?) a9 |; S3 q6 s1 E
Count of elements                        : 1924
  T' \9 E; I$ @Stream size                              : 48.5 KiB (0%)' r: U( j7 y( s7 N
Title                                    : SDH
7 Q: n: I2 q) g( k/ J' K* w. \Language                                 : English6 \! H0 o. R6 T0 t1 T4 }
Default                                  : No& N, a& G7 S: x$ r
Forced                                   : No9 n3 v& A; s1 y; q) i. \- U0 V

2 u* `5 o6 Q- }) E9 BMenu
# J4 j3 j' Z. F00:00:00.000                             : en:Chapter 011 I: J9 L5 B+ y7 _
00:05:34.542                             : en:Chapter 02
6 g; D/ }/ O* G5 G  t7 L; k00:10:07.815                             : en:Chapter 03+ S' D* K/ U, A' L& H% g% n
00:13:26.305                             : en:Chapter 04  V7 A, G1 s$ d$ I2 [/ A
00:16:39.790                             : en:Chapter 050 {3 L; M1 n7 r" `& p# o% Q+ a
00:19:56.945                             : en:Chapter 06
% E% W  Y9 v: X/ x1 h  o" _00:24:10.073                             : en:Chapter 07
% k1 D: l$ T$ ?7 F( n7 e) c, @2 g00:28:15.735                             : en:Chapter 087 S: w& j6 B" Q2 \6 J) W
00:30:54.269                             : en:Chapter 09
9 C& D# X5 _  k: r- L" d00:35:15.113                             : en:Chapter 102 j( U& e" M4 s0 ?$ j9 E
00:39:55.976                             : en:Chapter 11" U0 w, S- C* Z$ z& Z
00:45:47.327                             : en:Chapter 12
0 D$ w: ^3 F1 `* Z, T' J" C00:49:51.822                             : en:Chapter 13+ h" g1 G0 N% d8 H2 j2 b: G+ p/ Z
00:56:54.994                             : en:Chapter 14; K  ?6 Q9 _& g2 ~7 A
00:58:35.220                             : en:Chapter 15
6 l! j, ^  C2 Y01:02:48.931                             : en:Chapter 16
7 T+ W, t6 X' }% z/ r* a01:07:16.615                             : en:Chapter 178 H1 t5 [, M" B& A0 m/ o
01:12:48.822                             : en:Chapter 18& r' g2 Y* b, _
01:15:21.808                             : en:Chapter 19: X% S$ X' w" U8 t
01:18:10.018                             : en:Chapter 20

- g+ G, R) O1 y3 i  v3 M
Video
) J4 n+ K$ ~) g5 i) QID                                       : 1& |5 {& i$ m9 A
Format                                   : AVC
/ z- E$ X! t/ t7 |0 lFormat/Info                              : Advanced Video Codec7 w  u  j- I1 f$ W- z( w+ M' g
Format profile                           : High@L4.16 S" z0 m" \( P; I9 R8 f# B
Format settings                          : CABAC / 4 Ref Frames
( a; M. A% D6 N9 eFormat settings, CABAC                   : Yes
& }5 [4 u' ?+ m0 H% A8 |0 SFormat settings, Reference frames        : 4 frames
+ H( k$ z2 P6 N1 I' qCodec ID                                 : V_MPEG4/ISO/AVC
# [5 C) C  g/ d3 Y* k! w# KDuration                                 : 1 h 26 min: M: Y5 T) T9 |8 a
Bit rate                                 : 6 630 kb/s
( l& m9 _* j. o% G- c3 v9 s3 D5 PWidth                                    : 1 920 pixels) s- h, g. t: ]6 n
Height                                   : 1 040 pixels+ f( u; e" L( Z3 t: I) m1 J4 Y9 k
Display aspect ratio                     : 1.85:1/ L/ n$ M. L3 I0 y" \: c
Frame rate mode                          : Constant; e4 a9 P0 g0 p2 l" X
Frame rate                               : 23.976 (24000/1001/37687) FPS/ R: I; N, S2 T9 k1 r
Color space                              : YUV% u& r# f3 K) y9 A/ j! D* l5 [
Chroma subsampling                       : 4:2:09 c* t- z7 h# B  A  }
Bit depth                                : 8 bits7 C% G0 C' ]1 t. |+ {
Scan type                                : Progressive$ @, R/ p% H$ y+ c( p
Bits/(Pixel*Frame)                       : 0.138& A& f) C" x# [1 \
Stream size                              : 3.98 GiB (91%)  |. @5 g- i, s9 ?: M
Writing library                          : x264 core 158 r2984 3759fcb
4 J! k8 b' G7 BEncoding settings                        : cabac=1 / ref=4 / deblock=1:2:1 / analyse=0x3:0x133 / me=umh / subme=8 / psy=1 / psy_rd=1.00:0.00 / mixed_ref=1 / me_range=16 / chroma_me=1 / trellis=1 / 8x8dct=1 / cqm=0 / deadzone=21,11 / fast_pskip=0 / chroma_qp_offset=-2 / threads=30 / lookahead_threads=5 / sliced_threads=0 / nr=0 / decimate=1 / interlaced=0 / bluray_compat=0 / constrained_intra=0 / bframes=3 / b_pyramid=2 / b_adapt=1 / b_bias=0 / direct=3 / weightb=1 / open_gop=0 / weightp=2 / keyint=250 / keyint_min=23 / scenecut=40 / intra_refresh=0 / rc_lookahead=50 / rc=2pass / mbtree=1 / bitrate=6630 / ratetol=1.0 / qcomp=0.60 / qpmin=0 / qpmax=69 / qpstep=4 / cplxblur=20.0 / qblur=0.5 / vbv_maxrate=62500 / vbv_bufsize=78125 / nal_hrd=none / filler=0 / ip_ratio=1.40 / aq=1:1.006 J' z* K9 j8 M9 P0 q; \" Z6 w
Default                                  : Yes# E# E% v# k( R  ~
Forced                                   : No
6 d' u$ W0 U9 X+ ~Audio
8 M$ ^0 n. e+ I1 O6 l7 EID                                       : 2, Z1 I. L: W9 Y' D
Format                                   : AC-3
( }% b8 Z+ Q7 s1 U- RFormat/Info                              : Audio Coding 3
! a. `+ \& T1 t1 Q, n: z- p6 U7 KCommercial name                          : Dolby Digital
& b. ?, }5 j7 b( {+ ]Codec ID                                 : A_AC3
7 s. w6 c4 y. [5 v- F9 nDuration                                 : 1 h 26 min+ Y. m) f4 t! F: C& N9 x
Bit rate mode                            : Constant9 @, o5 U$ ~7 T: L, @: i0 U
Bit rate                                 : 640 kb/s
' @% j! g( }* ^1 v' h0 D0 R! a& XChannel(s)                               : 6 channels
2 _2 g2 t* f9 lChannel layout                           : L R C LFE Ls Rs
+ V0 m$ b" ^9 L8 @# \Sampling rate                            : 48.0 kHz
3 ?3 D* C9 x/ d9 |Frame rate                               : 31.250 FPS (1536 SPF)5 b$ V' e) C8 F% u; d3 }7 ^( s
Bit depth                                : 16 bits8 M6 p6 v1 Y6 u) C( U6 [  u7 d
Compression mode                         : Lossy
( g" Q# b# I& b, g# `, C# H5 BStream size                              : 394 MiB (9%)+ e8 ~4 t4 x! Q  i4 u4 Q
Language                                 : English, o# X( v6 B$ K: w; t& c: S# x4 f
Service kind                             : Complete Main
" d* j4 _4 ?/ L' G. @' J* b5 GDefault                                  : Yes( P1 W7 h( A4 R, \5 L8 N& r# P- U
Forced                                   : No
6 j& n9 l: _' ?+ n' vMenu
, b) o+ O5 b# K00:00:00.000                             : en:00:00:00.000
& A1 n% D/ e+ `8 m00:05:34.543                             : en:00:05:34.543
& v$ k' a" I  v00:10:07.816                             : en:00:10:07.816
- R8 ?. r  c2 L00:13:26.305                             : en:00:13:26.305/ a+ K8 m- E. K8 J6 N
00:16:39.790                             : en:00:16:39.790
% e9 \, Y* `1 V00:19:56.946                             : en:00:19:56.9465 R/ `% m" ^! n8 W
00:24:10.074                             : en:00:24:10.074# l3 O+ w  O0 e8 x
00:28:15.736                             : en:00:28:15.736
. U( J. ?  j. G. F8 L; U00:30:54.269                             : en:00:30:54.2696 u2 |% ^% [* k0 z+ O
00:35:15.113                             : en:00:35:15.113
- _0 ~' j* s/ z( i2 w/ o2 Y00:39:55.977                             : en:00:39:55.977
4 T: }4 l  Q) c" a; h: Q% r00:45:47.328                             : en:00:45:47.328
* A6 s& E4 ]9 y% D00:49:51.822                             : en:00:49:51.822
% b: r: X7 f2 K, r4 c00:56:54.995                             : en:00:56:54.995
0 g$ y5 y2 x& U6 T# `00:58:35.220                             : en:00:58:35.220
# s/ k$ v2 Q* J* B: S+ ]01:02:48.932                             : en:01:02:48.932
$ n0 s  O) a2 i! \, b6 d01:07:16.616                             : en:01:07:16.616! C! w5 _* v* w; R/ r9 y4 y
01:12:48.823                             : en:01:12:48.823
* d! H& B) ^: z8 b; y( G3 n8 @01:15:21.809                             : en:01:15:21.8098 b1 C3 e6 K9 @( K, q
01:18:10.019                             : en:01:18:10.019
6 j0 K1 u7 R0 w
5 o( `$ t" _9 `! Z1 q* [.RELEASE.iNFO.
' C+ o1 d/ r9 q  D6 d3 J  n; ^8 z
0 e6 h- J0 y: H# Y6 YThe.Secret.Life.of.Pets.2.2019.1080p.BluRaycd.x264-DRONES
$ {( N* d8 e7 j& B  L1 e. u& M' g. }- |5 _0 L
Visual       : 1920x1040 6630Kbps 23.9764 a) T$ q& s& q# D
Acoustic     : English AC-3 640Kbps 5.1ch
3 y) Y/ |  z+ \4 z; d8 Y' S: `Textual      : English / Spanish / French
( C4 g8 d! E$ _- P7 KTarget Size  : 4475 MB
$ P1 i2 q% P# h1 QMission Info : https://www.imdb.com/title/tt5113040& c, P3 j) S# N) [8 _2 s8 K+ z

$ p$ y& J" B; L  H7 ^7 g2 H; u5 M.GROUP.NOTES.
Screenshots:
+ N6 p* m! U" d5 O9 T( H  @; ?. e/ g1 r, b( h! k4 I! |* |$ c
游客,查看本帖隐藏内容请回复 | 加入VIP可免积分免回复 了解详情 | 还不是会员:点击获取邀请码 Invitation Code

0

主题

181

回帖

975

积分

Sponsor

金币
4 枚
体力
611 点
狐狸打扮也是猫 发表于 2022-8-21 10:48:34 | 显示全部楼层
啥也不说了,楼主就是给力!) I6 G1 V0 L' S: L2 z1 @
Thank you for sharing such a good resource polite reply, very sorry for myself!
9 _* I4 @4 y5 U$ r  a; [" T1 q

本版积分规则

小黑屋|Archiver|4K蓝光论坛

GMT+8, 2023-2-9 13:15

Copyright © 2001-2021, Gadaddy Cloud.

快速回复 返回顶部 返回列表