BluRayCD Forum

 找回密码
 立即注册【分享大片】
查看: 120|回复: 2
收起左侧

[科幻恐怖] 小丑回魂2/它:第二章(台) It Chapter Two 2019 720p BluRaycd x264-DRONES 6.56GB

[复制链接]

1万

主题

386

回帖

10万

积分

Post Share

金币
394 枚
体力
27013 点

卓越贡献勋章VIP蓝光勋章诚信会员勋章

mvods 发表于 2020-3-17 20:51:23 | 显示全部楼层 |阅读模式
001.jpg
/ K" b: Y/ Q6 j- a; C: R: X/ W8 v! g
◎译  名 小丑回魂2/它:第二章(台)
: B7 ~! ]; K" y* R◎片  名 It: Chapter Two / It 2 / R; X& m  t6 {+ O& `! E
◎年  代 2019# j0 V! G3 ?9 c6 a, m5 c
◎产  地 加拿大/美国
+ |9 A! C$ l7 Y6 ~* V: R◎类  别 剧情/恐怖
6 J. n. Q9 w8 U' l, x: D- b◎语  言 英语' g- d' D0 h! j% W: u; y
◎上映日期 2019-09-06(美国)
" ?9 x; }  `2 V6 h0 c* r/ [◎IMDb评分 6.6/10 from 162,099 users+ ?4 n2 |( @+ J8 X9 X
◎IMDb链接 https://www.imdb.com/title/tt7349950/
0 o9 N+ G% A+ f4 ]9 A% q" q◎豆瓣评分 6.4/10 from 42,400 users
$ U2 s6 H: b* o4 Z/ y+ H3 Z◎豆瓣链接 https://movie.douban.com/subject/27133569/* q$ A% D1 h# X, c- U
◎片  长 2 h 49 min* P% f0 O9 U  |% j
◎导  演 安德斯·穆斯切蒂 Andrés Muschietti# R2 h- E+ [3 A6 r
◎编  剧 加里·多伯曼 Gary Dauberman: R8 j* l: F9 Z  R# t( B
       斯蒂芬·金 Stephen King
+ V" M: E# J4 ]3 e◎主  演 詹姆斯·麦卡沃伊 James McAvoy9 v, S8 h$ N, v8 l8 {
       杰西卡·查斯坦 Jessica Chastain
# f1 M- z6 T3 L  U# \- ?       比尔·斯卡斯加德 Bill Skarsg?rd
8 x" ?+ s% S( D& c6 M6 g: p       比尔·哈德尔 Bill Hader/ N0 Z4 r; s  {; e% h0 Q  Y5 D
       索菲娅·莉莉丝 Sophia Lillis1 y; u3 K. s5 q8 a# R
       杰克·迪伦·格雷泽 Jack Dylan Grazer$ s$ M& Z0 h5 z5 B1 p; K1 L4 |
       菲恩·伍法德 Finn Wolfhard- m* Q2 n, L: I$ o7 ]: N1 F0 j3 F6 f
       杰登·马泰尔 Jaeden Martell+ B' E* `: }' k0 o+ t1 j
       特洛伊·詹姆斯 Troy James
5 p6 f% m) i1 T- _+ l0 u       哈维尔·博泰特 Javier Botet9 T' J6 P8 j3 E1 S
       杰·瑞恩 Jay Ryan- j6 `9 F2 r+ A- H% ?* S
       斯蒂芬·金 Stephen King! H8 ?! r# _+ ?( z% {
       杰克逊·罗伯特·斯科特 Jackson Robert Scott
( ~8 U: b7 u) O; A- d7 u+ s& v9 a       杰里米·雷·泰勒 Jeremy Ray Taylor/ p% k+ D" K7 w5 ?
       泽维尔·多兰 Xavier Dolan
$ x% I- k, a, e0 P! y( y  L       杰克·威利 Jake Weary
9 M. ~* ]  [9 {1 Y       尼古拉斯·汉密尔顿 Nicholas Hamilton! }, U' e0 n& Q2 a* U. k8 F9 {
       杰丝·威克斯勒 Jess Weixler
( e, L' q# ^% Z# R, }/ w       詹姆斯·兰索恩 James Ransone
/ x# p" {5 {" l' N       瓦耶特·奥莱夫 Wyatt Oleff2 Y% R5 M1 r" @
       欧文·泰格 Owen Teague
  d1 R+ U) k3 M, f# r( w       艾赛亚·穆斯塔法 Isaiah Mustafa3 p$ W" c6 M7 J- J0 l  G
       安迪·比恩 Andy Bean
! K" n1 @, o$ @( _; y* a$ m4 a       蒂奇·格兰特 Teach Grant
; i; b$ Y* ~! \( ~! j, t% j       泰勒·飞瑞 Taylor Frey
7 l% f5 T& x" E$ ^; w       贾森·福克斯 Jason Fuchs! K+ c1 C9 ?& O/ W7 \
       乔森·雅各布 Chosen Jacobs( X2 X; l) e, _! L+ E. b6 G! P2 [
       斯蒂夫·博加尔特 Stephen Bogaert/ r5 u3 G5 z. ^, v
       洛根·汤普森 Logan Thompson" n  N- k  c& C7 t3 w+ r3 I- N0 I
       杰克·辛 Jake Sim& J* l- _+ w4 f# Q  D# k& t4 W
       维尔·贝布林克 Will Beinbrink
% b! a6 q- |1 O5 G9 Y$ e5 J       安东尼·尤埃西 Anthony Ulc
* b/ {  K& \$ `* B" r% A2 |2 O% a8 h8 Y$ R9 f
◎标  签 恐怖 | 惊悚 | 美国 | 2019 | 小说改编 | 超自然 | 经典 | 小丑2 e- n; O7 w1 i" d. s. z

! S! [4 B! Z  W3 n& O& d/ ?9 o/ i◎简  介  8 ?) y- t# ]3 ]" z: H
1 L0 t) R3 N7 p3 s9 D  h
  1989年与小丑(比尔·斯卡斯加德 Bill Skarsgård 饰)的大战过后,窝囊废联盟的好友们各自长大,他们曾经相约当黑暗再次到来时,将再次集结德里镇,与小丑做最后的决断。可是当小丑再度出现的消息到来之时,窝囊废联盟的好友们却迎来了前所未有的内心冲击。有的人选择终结生命,而比利(詹姆斯·麦卡沃伊 James McAvoy 饰)、瑞奇(比尔·哈德尔 Bill Hader 饰)、贝弗莉(杰西卡·查斯坦 Jessica Chastain 饰)、本(杰·瑞恩 Jay Ryan 饰)等人却在留守的麦克(艾赛亚·穆斯塔法 Isaiah Mustafa 饰)的召唤下重返噩梦故乡。愈加狡猾的小丑肆意攻击着每个人心灵最脆弱的部分,噩梦似乎没有终结……  @: f5 e( b" }# _

; R1 P3 i! }& b( U& }0 q# Y* I  本片根据斯蒂芬·金的同名原著改编。0 @/ L; k) {" _  n8 d1 R
Video0 p4 K5 S8 M2 c  v* n( o
ID                                       : 1
) l  ~# f5 r- ~3 i8 ?- L# dFormat                                   : AVC( @0 G' Z" |! i$ @
Format/Info                              : Advanced Video Codec  m% f, x& m0 j) M1 [
Format profile                           : High@L4.1
5 X9 S% W* }# j: ~$ f. J$ L5 mFormat settings                          : CABAC / 5 Ref Frames
! J( t8 G1 \* q9 dFormat settings, CABAC                   : Yes
' G! _, S+ `: m  W! IFormat settings, Reference frames        : 5 frames, z6 O9 [" w2 c5 \% t+ Y
Codec ID                                 : V_MPEG4/ISO/AVC
, P5 I2 ?/ v0 |5 T# j8 fDuration                                 : 2 h 49 min
# ~3 |, `8 B7 P* n5 v3 QBit rate                                 : 4 899 kb/s& M. ]0 G" Y7 R1 H/ e' O' z
Width                                    : 1 280 pixels
, t! o2 @! p: {: m( T$ @; S2 vHeight                                   : 536 pixels. A& b* q( i5 l: k8 P
Display aspect ratio                     : 2.40:18 o" h3 a5 K! j8 {: ^  T+ _
Frame rate mode                          : Constant
- Y6 l, a$ i/ s5 yFrame rate                               : 23.976 (24000/1001/37687) FPS- D* Z$ @. c7 J0 _9 v
Color space                              : YUV+ ]( O; X8 \+ \7 n+ q7 {# e9 j
Chroma subsampling                       : 4:2:0
4 q7 Q2 K3 K! R2 }6 ]1 gBit depth                                : 8 bits
* i6 Z, ]% f& w7 v7 d9 T- v7 cScan type                                : Progressive: P4 r/ ]6 o/ E& L
Bits/(Pixel*Frame)                       : 0.2989 [& B; j. s, z' f. T
Stream size                              : 5.80 GiB (88%)
# V1 w8 j! i% I* K$ ~Writing library                          : x264 core 158 r2988 7817004
, [1 @# f' C4 o9 O: uEncoding settings                        : cabac=1 / ref=5 / deblock=1:-3:-3 / analyse=0x3:0x113 / me=umh / subme=8 / psy=1 / psy_rd=1.00:0.00 / mixed_ref=1 / me_range=16 / chroma_me=1 / trellis=1 / 8x8dct=1 / cqm=0 / deadzone=21,11 / fast_pskip=1 / chroma_qp_offset=-2 / threads=17 / lookahead_threads=2 / sliced_threads=0 / nr=0 / decimate=1 / interlaced=0 / bluray_compat=0 / constrained_intra=0 / bframes=3 / b_pyramid=2 / b_adapt=1 / b_bias=0 / direct=3 / weightb=1 / open_gop=0 / weightp=2 / keyint=250 / keyint_min=23 / scenecut=40 / intra_refresh=0 / rc_lookahead=50 / rc=2pass / mbtree=1 / bitrate=4899 / ratetol=1.0 / qcomp=0.60 / qpmin=0 / qpmax=69 / qpstep=4 / cplxblur=20.0 / qblur=0.5 / ip_ratio=1.40 / aq=1:1.00
  ]' z) X9 t2 w0 rLanguage                                 : English
7 ?2 Y( l  ?+ O* f9 sDefault                                  : Yes
- ]+ B8 \9 B9 r" b/ tForced                                   : No+ c. M* T" U6 b) p+ j
Audio
3 o6 e  n) V  }! [9 jID                                       : 2
4 T- U5 u) O1 X0 h& uFormat                                   : AC-3
# r8 d9 n. Y9 j# b  _6 H3 b7 vFormat/Info                              : Audio Coding 3
! V2 U8 v% ~% t% iCommercial name                          : Dolby Digital7 X7 `$ |4 N9 m
Codec ID                                 : A_AC3
: |2 d7 q" m0 K, O/ Y9 HDuration                                 : 2 h 49 min+ @; |3 V' l  \% n  [" y* Y5 e% T
Bit rate mode                            : Constant2 ^: y# z8 A: M
Bit rate                                 : 640 kb/s
) N" v' X9 Q% ]5 fChannel(s)                               : 6 channels
! K  V7 L1 W% O1 [  c5 YChannel layout                           : L R C LFE Ls Rs0 s' K6 _5 B1 L  \
Sampling rate                            : 48.0 kHz9 t6 E6 Y3 ]' y! J6 j' G
Frame rate                               : 31.250 FPS (1536 SPF)
( c( ]# U+ S* }; u. ~Bit depth                                : 16 bits  ^9 V3 Q9 V$ K% F3 J
Compression mode                         : Lossy) z8 e, F7 c* S* J: n
Stream size                              : 776 MiB (12%)6 H# t; v2 R0 a) v
Language                                 : English
0 w/ m* B. N0 f& u4 N% @$ r+ NService kind                             : Complete Main1 s2 q' Y) f! E+ T- c$ e1 q
Default                                  : Yes
: r) e0 F* Q' Y$ M) IForced                                   : No
4 ]* m+ L& x# c' Y; N
游客,查看本帖隐藏内容请回复 | 加入VIP可免积分免回复 了解详情 | 还不是会员:点击获取邀请码 Invitation Code

1

主题

623

回帖

2517

积分

Sponsor

金币
27 枚
体力
1260 点
firendzhon 发表于 2020-4-10 17:19:49 | 显示全部楼层
小丑回魂2/它:第二章(台)  谢谢分享
2020第一天 ...

0

主题

118

回帖

1501

积分

Sponsor

金币
477 枚
体力
738 点
marttn 发表于 2022-11-14 19:55:05 | 显示全部楼层
谢谢分享!蛮吓人的
8 e! `: w7 D1 F& b3 f& w/ t

本版积分规则

小黑屋|Archiver|4K蓝光论坛

GMT+8, 2023-2-9 15:01

Copyright © 2001-2021, Gadaddy Cloud.

快速回复 返回顶部 返回列表