BluRayCD Forum

 找回密码
 立即注册【分享大片】

QQ登录

只需一步,快速开始

查看: 9|回复: 0
收起左侧

[蓝光原盘] 地狱男爵/烈焰奇侠/天魔特攻 [REMUX无损重制版] Hellboy 2004 REMASTERED 1080p BluRaycd REMUX AVC DTS-HD MA 5.1-FGT 25.72GB

[复制链接]
  • TA的每日心情
    擦汗
    5 天前
  • 签到天数: 348 天

    [LV.8]蓝盘专家

    3945

    主题

    4071

    帖子

    5万

    积分

    Post Share

    金币
    6689 枚
    体力
    15287 点

    卓越贡献勋章

    A demon, raised from infancy after being conjured by and rescued from the Nazis, grows up to become a defender against the forces of darkness.
    3 Q  Q+ _8 |) Q% u( O
    % d1 Q8 V+ h* [  d8 }3 Z+ O7 P4 J! M 01.jpg 6 v" ]* ?$ e2 {, L$ W6 U
    6 o% t) j$ c4 M
    ◎译  名 地狱男爵/烈焰奇侠/天魔特攻/地狱男孩/地狱怪客/地狱小子/ ^) ^1 \8 f1 k' i" i# Y
    ◎片  名 Hellboy
    " j% F* I. M' g6 z/ F# X, o◎年  代 20047 U/ \* [$ x) V! k4 {& y1 h
    ◎产  地 美国: P9 h" a3 B- M; r) R/ M  W9 R
    ◎类  别 动作/奇幻/冒险
    * \- S: |7 N; S4 W! n, _◎语  言 英语/俄语
    ' B5 y2 i1 W1 F- n! W◎上映日期 2004-04-02(美国)
    8 ]+ V7 O1 E' }" _, W3 `- ~2 T" |◎IMDb评分 6.8/10 from 298,662 users
    ; \% D3 ^+ ^: [! `, q◎IMDb链接 https://www.imdb.com/title/tt0167190/
    0 ?4 U7 a, p) h8 |" H; `◎豆瓣评分 7.0/10 from 59,316 users0 A8 P& [# K! U0 p
    ◎豆瓣链接 https://movie.douban.com/subject/1308851/
    : U6 F5 |! v( i2 Z! h3 x1 L◎文件格式 x264 + DTS" v0 D  j. z% G6 S# g# b7 b
    ◎视频尺寸 1920 x 1080
    1 b! J& l, d9 u5 D5 p. F# w  [2 w◎文件大小 1DVD 25.72 GiB1 d8 \4 p2 G; J& x6 n% Q
    ◎片  长 2 h 1 min! Z2 `7 q4 M5 {. |: W" w$ E
    ◎导  演 吉尔莫·德尔·托罗 Guillermo del Toro, O" Z1 k  x6 L* P
    ◎编  剧 吉尔莫·德尔·托罗 Guillermo del Toro& u7 ^0 ?( N8 Y$ ^$ [: q' b
           彼得·布里格斯 Peter Briggs
    , Z; d- l7 n7 ^8 @! ~# t       迈克·米格诺拉 Mike Mignola
    5 J* [  Y' D4 A* c  n" p% S, P◎主  演 朗·普尔曼 Ron Perlman
    , \; x& N; B& G8 U: F% Q3 r2 D6 l  A       约翰·赫特 John Hurt0 D3 s6 W, ]9 e% i2 T% [
           塞尔玛·布莱尔 Selma Blair" N  r8 V+ }9 \- M1 I& O- v- k
           鲁珀特·伊文斯 Rupert Evans
    $ r- W0 r! j; |6 j       卡瑞尔·罗登 Karel Roden5 U+ o, @* b) G# A4 z- _
           杰弗里·塔伯 Jeffrey Tambor
    : C7 Q4 I# {- A! q0 D       道格·琼斯 Doug Jones
    4 a3 O: P0 Z7 R* O2 H0 C       拉迪斯拉夫·伯兰 Ladislav Beran
    " L' w/ T. z, N" j9 C$ j       比迪·霍德森 Biddy Hodson
    & {* h' E; ]3 w       克里·约翰逊 Corey Johnson
    2 Z" T- C. p4 `       凯文·特诺 Kevin Trainor" t- \9 i! @2 z: [$ Z
           布莱恩·卡斯佩 Brian Caspe! F/ Y7 D6 X- z2 u: A. e
           詹姆斯·巴伯森  James Babson* p  a2 Z" r  Q) f9 t' x
           安格斯·麦金尼斯 Angus MacInnes( G2 ?$ x- l* l+ V
           吉姆·霍威克 Jim Howick% h. G2 H3 E& n- D; {
           罗里·科普斯 Rory Copus: Y4 o/ o, Z! z& k! G! w4 D) A
    0 I' j2 K$ J- l( U( g. B* b4 ]! @
    ◎标  签 科幻 | 美国 | 魔幻 | 漫画改编 | 动作 | 美国电影 | 奇幻 | 2004" C9 |- d4 }5 P1 w

    " W1 \5 H/ G* d◎简  介  " m* m- [" D  O' l2 C2 [2 e0 @

    ! O) c4 Z/ |0 I7 L2 O! ]   二战末期,溃败的德军为了扭转局势,竟然找来了一个邪恶的巫师,企图利用他召唤出地狱男爵,打败盟军。幸亏盟军的突击队在他们进行仪式时及时赶到,顺利挫败了他们的阴谋,但这时候地狱男爵——1个婴儿已经被召唤出来了,盟军见此只好收养了他。教授布鲁姆(约翰·赫特 John Hurt 饰)是地狱男爵(朗·普尔曼 Ron Perlman 饰)的养父,他用自己的善良循循教导着男爵,男爵则利用自己刀枪不入的身体和通天本领为美国政府完成了多项特种任务。然而,阴暗邪恶的本性还是一直潜藏在男爵的心底,最终人类的善良能否战胜来自地狱的邪恶?
    , n$ |' h# c( Q% ?8 g- }; w: t; c3 V7 T2 q& J0 f: p  [9 \$ g. O6 m
      Born in the flames of hell and brought to Earth as an infant to perpetrate evil, Hellboy was rescued from sinister forces by the benevolent Dr. Broom, who raised him to be a hero. In Dr. Broom's secret Bureau of Paranormal Research and Defense, Hellboy creates an unlikely family consisting of the telepathic "Mer-Man" Abe Sapien and Liz Sherman, the woman he loves who can control fire. Hidden from the very society that they protect, they stand as the key line of defense against an evil madman who seeks to reclaim Hellboy to the dark side and use his powers to destroy mankind.
    : X5 J! C& Y8 X+ U( V+ a/ {. y+ A4 ~: ?% G( c0 W" V8 N
    Video7 i2 G0 j$ v8 v; J3 [, S7 r
    ID                                       : 1$ o! g! O, ]! N: A5 I% q% e6 Z
    Format                                   : AVC
    7 I$ b! Q8 s- u3 ]% |* jFormat/Info                              : Advanced Video Codec
      l% q: m9 H! }" ^/ [( |. @( j+ AFormat profile                           : [email protected]
    ! L$ A8 l: E% l" W, \3 ?Format settings                          : CABAC / 2 Ref Frames2 O5 N. Z; f- _. u9 C
    Format settings, CABAC                   : Yes/ h, q( \7 d6 {$ h
    Format settings, Reference frames        : 2 frames2 M4 N4 z( M" q8 L, g- f, f
    Codec ID                                 : V_MPEG4/ISO/AVC( s) V: i1 m7 q
    Duration                                 : 2 h 1 min+ L3 ~1 d- |- S7 j8 Z5 x
    Bit rate mode                            : Variable
    : |8 Z( g8 F7 |( {1 i+ M4 uBit rate                                 : 25.9 Mb/s1 g: K* `2 o8 R- F- j, C* _
    Width                                    : 1 920 pixels- {* M1 s+ V9 A8 |( w" g
    Height                                   : 1 080 pixels* g. X) t/ ^( M1 u" |/ P
    Display aspect ratio                     : 16:9
    4 o) \8 I2 [6 a) Z$ [/ _0 p6 ^Frame rate mode                          : Constant5 z# \9 [$ D" E7 s( g  x
    Frame rate                               : 23.976 (24000/1001/37687) FPS
    . t# `  o* H6 LColor space                              : YUV7 u8 }4 y( ^0 L3 J; i! X( X* l
    Chroma subsampling                       : 4:2:08 @2 A! Z8 a0 V; x6 @$ Z
    Bit depth                                : 8 bits) o/ w7 j) q2 y  z
    Scan type                                : Progressive! Q8 W  q0 j  i, c( m
    Bits/(Pixel*Frame)                       : 0.521
    9 w. L1 Q0 Z, H9 q# V, aStream size                              : 22.0 GiB (86%)
    1 s- z' Z% z8 ~# ^( C9 r, MTitle                                    : Hellboy.2004.REMASTERED.1080p.BluRayCD.REMUX.AVC.DTS-HD.MA.5.1-FGT
    ! m$ ^, v9 g5 W; [Language                                 : English
    , a" Z8 r  v# T: i: O$ H9 A9 kDefault                                  : No) N# \1 k( a1 F' a( n
    Forced                                   : No9 E  y3 K/ D: l! d

    9 U2 x3 L- d3 y3 S$ LAudio #1- {: Z; Z% r/ Q+ {% p
    ID                                       : 2
    ( y- o8 m( E8 |% F7 z. x4 vFormat                                   : DTS XLL! ~2 W/ e& Y' D
    Format/Info                              : Digital Theater Systems6 i5 O# ^2 H) q' E; Z+ e# h
    Commercial name                          : DTS-HD Master Audio% B$ W/ A& j; J* v, G! s- z
    Codec ID                                 : A_DTS4 m: J" {$ [  V6 U  s4 b
    Duration                                 : 2 h 1 min7 _6 L$ o. f( [
    Bit rate mode                            : Variable
    9 U0 i4 H2 G! e3 F/ f2 TBit rate                                 : 2 340 kb/s7 N. ?  f# e( t* e2 d
    Channel(s)                               : 6 channels
    & o: H+ h- G, l, k! oChannel layout                           : C L R Ls Rs LFE+ `% M4 f: ^1 `& t
    Sampling rate                            : 48.0 kHz/ s# s0 `" n/ Z/ ?
    Frame rate                               : 93.750 FPS (512 SPF)
    6 e/ O/ ~: N0 Q6 U: {4 G& HBit depth                                : 16 bits; X' w% N! ?6 a7 r. F$ W( N9 ~
    Compression mode                         : Lossless
    $ r$ h& K) T8 O- z7 L7 B8 bStream size                              : 1.99 GiB (8%)
    3 F( x2 t$ F2 L7 R# }+ L! {8 RTitle                                    : Hellboy.2004.REMASTERED.1080p.BluRaycd.REMUX.AVC.DTS-HD.MA.5.1-FGT
    " K6 ]' E& t/ N8 A8 y- s, jLanguage                                 : English
    & w; Y, e: c) Y: XDefault                                  : Yes
      w3 h: [" M/ U. {Forced                                   : No
    . Q! J( P( i5 `+ m/ t; }( A- T+ X8 Q: i# D$ F
    Audio #2' F' O9 ?8 ]; W& L) V
    ID                                       : 30 i( K- S4 _6 X7 m
    Format                                   : AC-3* q% V1 V% i8 {4 z7 u$ n2 q
    Format/Info                              : Audio Coding 33 D+ J6 W0 }5 L0 p7 ^
    Commercial name                          : Dolby Digital
    $ t6 n+ h+ j1 J) e( H/ lCodec ID                                 : A_AC38 D2 I7 o1 V: C( F* M; I+ y. c; X
    Duration                                 : 2 h 1 min* y2 Q9 W4 Y1 O$ Y2 q" @/ ?2 Q
    Bit rate mode                            : Constant
    6 S9 [3 G7 q, U" {& ?4 V/ t% zBit rate                                 : 640 kb/s" q+ z0 \! m2 K( ^' [4 ?* h) `9 k
    Channel(s)                               : 6 channels  T7 @! F( k/ e! J
    Channel layout                           : L R C LFE Ls Rs3 O2 a( {' e* O! [' G0 C
    Sampling rate                            : 48.0 kHz
    ) m; y+ j& I0 ?# s; {7 e5 GFrame rate                               : 31.250 FPS (1536 SPF)
    " m& X+ [0 h* |0 l* zBit depth                                : 16 bits8 s$ u  m; Z4 P
    Compression mode                         : Lossy
    # w* K4 y! L) N6 S" r# K' o- jStream size                              : 558 MiB (2%)
    $ C, i. R$ C2 K0 \( e) RTitle                                    : Hellboy.2004.REMASTERED.1080p.BluRaycd.REMUX.AVC.DTS-HD.MA.5.1-FGT6 x% W) m$ Q) z; s
    Language                                 : French  J2 [" ]3 t' b' o( G' f/ y0 S
    Service kind                             : Complete Main
    # a" H5 r2 c* e. T" G# rDefault                                  : No
    , z; q/ E% @. m- u+ R. U* ]) hForced                                   : No) f( J  L% Y1 z8 J  J" b' ^% ~

    8 X/ a$ P" g$ d0 X( Z  S* [* QAudio #3
    % R& ?; B3 C, a  \ID                                       : 4
    % t$ E: e2 y/ `2 F/ vFormat                                   : AC-3( }( o9 s4 I3 W' B# u3 C+ ~
    Format/Info                              : Audio Coding 3
    + }# [$ c! [! \: PCommercial name                          : Dolby Digital5 I% \# p" C% D/ V. v
    Codec ID                                 : A_AC35 b' P' y: C' a! q: }
    Duration                                 : 2 h 1 min
    8 h" d. ]* s8 e0 _/ I7 jBit rate mode                            : Constant9 @$ m6 v1 r  E1 u7 t9 `
    Bit rate                                 : 640 kb/s9 c) `$ v& B. s% D2 Z( A; a0 H  E
    Channel(s)                               : 6 channels/ r3 R; m6 I4 j
    Channel layout                           : L R C LFE Ls Rs$ z1 z7 X7 i# {0 N8 F
    Sampling rate                            : 48.0 kHz
    & O7 ~3 `0 @4 p) o; I" n7 ?Frame rate                               : 31.250 FPS (1536 SPF)/ H! ?8 N; I4 a
    Bit depth                                : 16 bits/ I( k2 Q3 j) Z1 u( M1 S0 V
    Compression mode                         : Lossy
    . G. P8 h; i- w$ V. n' M7 NStream size                              : 558 MiB (2%)8 T, r  e5 s2 b/ T  W
    Title                                    : Hellboy.2004.REMASTERED.1080p.BluRaycd.REMUX.AVC.DTS-HD.MA.5.1-FGT8 h. t8 Q4 a: K+ o. T8 p
    Language                                 : Portuguese& D6 y2 @- F7 }3 i( A4 |9 y
    Service kind                             : Complete Main
    & b4 o3 K1 X9 x; F* z9 ^  IDefault                                  : No5 `  t) X  a# q0 n. P
    Forced                                   : No
    ' w- i2 S3 ^7 M3 }  p! Q+ P2 R* V+ H$ A+ P3 X
    Audio #4  F, ^- c' u1 r* n$ K/ {& `. ~
    ID                                       : 5
    : `; w! c) ~5 T6 E4 MFormat                                   : AC-32 z0 r( R, _  R' g$ {3 i$ w
    Format/Info                              : Audio Coding 3. A9 b2 Y. U+ C3 Q) {, U
    Commercial name                          : Dolby Digital; l2 M4 \. `5 n/ `' k
    Codec ID                                 : A_AC3
    + D, F" a/ M! I" a- B" _0 CDuration                                 : 2 h 1 min
    $ h- d, V4 Y; uBit rate mode                            : Constant8 P3 n0 o) z$ M( |
    Bit rate                                 : 640 kb/s
    9 j6 A9 O+ ?. j0 b( |Channel(s)                               : 6 channels
    3 Z: _9 [1 L1 o3 B; h& ?Channel layout                           : L R C LFE Ls Rs
    9 D4 Y: ]) j# ?. h' ISampling rate                            : 48.0 kHz) I  w1 y) }  z6 j; @
    Frame rate                               : 31.250 FPS (1536 SPF)
    7 [( q( z# \8 d" x. z% V# }Bit depth                                : 16 bits0 a/ u5 O) g% L  @
    Compression mode                         : Lossy6 F, _9 |" l! F& s: b$ H3 |
    Stream size                              : 558 MiB (2%): E* L: n0 s( J6 l
    Title                                    : Hellboy.2004.REMASTERED.1080p.BluRaycd.REMUX.AVC.DTS-HD.MA.5.1-FGT% E2 i" U) h% k$ {6 P/ z
    Language                                 : Spanish
    6 Z; C9 z; ]2 JService kind                             : Complete Main+ E& |' s; p5 F7 _
    Default                                  : No
    $ R; W, [+ M+ H4 `, BForced                                   : No/ L7 R) j  K: b

    4 Y' a2 c' G3 p4 X  y  [8 BText #1
    0 g2 `) f/ t, H# p; jID                                       : 6
    * k. M# L6 E  \' XFormat                                   : UTF-8
      F6 K: I( o" p0 {Codec ID                                 : S_TEXT/UTF8
    - `6 E! e1 t- m( fCodec ID/Info                            : UTF-8 Plain Text4 K. A" t. Y" Z1 r
    Duration                                 : 3 min 41 s1 W$ S! }. f& C7 B' G4 C
    Bit rate                                 : 3 b/s
    . U& A! I0 o* f6 L6 sCount of elements                        : 4
    5 z. ]- ~- }2 D' b/ F: Y& nStream size                              : 95.0 Bytes (0%)2 E  H4 n( }* ]  D( _$ K
    Title                                    : English-FORCED-SRT& x: n0 x- y0 N5 s9 M6 W4 \
    Language                                 : English! K: m  ], x$ t& g* v
    Default                                  : Yes
    & `* b7 c/ D  s  ]+ bForced                                   : No8 R8 h- U5 ]/ X" Z5 P5 Y
    ) C& r4 V; R8 i6 q. r! m
    Text #2) v/ T1 O2 Y1 ~
    ID                                       : 7
    / n: X2 C- u) ]$ O8 B  |9 VFormat                                   : UTF-8
      @+ D6 \4 {: q3 R( ECodec ID                                 : S_TEXT/UTF8
    * U+ C; _9 ?" p5 VCodec ID/Info                            : UTF-8 Plain Text: w( g2 x6 l& l& t
    Duration                                 : 1 h 54 min9 L" \" H6 R$ V9 _) O
    Bit rate                                 : 34 b/s; H# Z* x. v& W0 k6 z+ F
    Count of elements                        : 1086
    , f4 ?# m' o% N8 B. mStream size                              : 29.2 KiB (0%)
    6 w: M% ?) R3 Q# KTitle                                    : English-SRT  z/ Z$ i/ T# B* o+ t6 K
    Language                                 : English4 d( |7 u  s4 u4 j
    Default                                  : No
      e) Y+ Q, ]) q7 aForced                                   : No
    2 g: K4 y% Z* E; L6 d, ], ~
    3 e' O2 \9 ~, oText #39 ?8 k! w/ B+ j+ l8 m7 V
    ID                                       : 8
    - o% J3 a! c' s( ~# _2 ]7 OFormat                                   : PGS
    1 o) H: T' @$ F+ \7 y* N' [  M+ a1 xMuxing mode                              : zlib/ k) E" U* `1 @" v6 O' M9 d4 _
    Codec ID                                 : S_HDMV/PGS0 k" ^4 B/ |& d* N
    Codec ID/Info                            : Picture based subtitle format used on BDs/HD-DVDs
    ' N2 j& ]  @/ u7 WDuration                                 : 1 h 54 min
    4 D* w0 k; v- ~6 w5 TBit rate                                 : 25.4 kb/s# o  j7 Z# u6 c/ @
    Count of elements                        : 27232 n. X8 v% z  I! G$ o
    Stream size                              : 20.9 MiB (0%)  H, J7 F2 g( J8 e8 y- w2 [
    Title                                    : English-SDH-PGS
    ' l* e( E3 y) i" PLanguage                                 : English- b3 C& ]4 ^" u2 q; Q
    Default                                  : No
    - L8 x' a1 p7 u4 v) b6 E( P5 FForced                                   : No
    8 M. b/ S# Q+ i& M, g9 s2 x1 F; @8 ?" z, J0 M$ A7 G8 m
    Text #46 a  ~5 t6 ]! G
    ID                                       : 9. c$ H; S6 a6 {2 S' j# k
    Format                                   : PGS
    . i3 W: Y( m* C! \  [3 ]- [' v! m: OMuxing mode                              : zlib% N2 Z! b5 u2 x$ H5 j4 d" V
    Codec ID                                 : S_HDMV/PGS
    0 K4 N. M% ?" p7 V  ~# a+ ~Codec ID/Info                            : Picture based subtitle format used on BDs/HD-DVDs$ |9 e- ~* c) K5 I- Y( s8 V
    Duration                                 : 1 h 54 min
    6 c4 K) o- y. m1 Q/ M5 mBit rate                                 : 20.7 kb/s- Q2 u% p- V1 x4 x  G, z
    Count of elements                        : 2183
    $ q6 d- y9 P7 M# M& I4 r) U3 oStream size                              : 17.0 MiB (0%)
    4 o, P8 b7 }1 m4 N2 i- G; STitle                                    : English-PGS4 u' ~1 _- l  F' x( ~9 I
    Language                                 : English
    2 e  r. \; @2 ]. f+ D7 r: sDefault                                  : No
    ! ?( v# {9 x8 ?8 j) m+ N6 j3 E  dForced                                   : No
    6 ^- |% f: w# @: U& }8 b; U% G; T
    ; E0 K: g3 |3 }8 F6 r6 |Text #5/ b8 C8 Y3 U: c& d4 A
    ID                                       : 100 N1 j3 z6 O4 G0 D
    Format                                   : PGS, ^8 \" c0 ^) N' Q! W
    Muxing mode                              : zlib, e( E( U: J+ O! m% L
    Codec ID                                 : S_HDMV/PGS6 m8 L: i! P5 t8 D5 c6 ]4 @1 x
    Codec ID/Info                            : Picture based subtitle format used on BDs/HD-DVDs
    . Z- z: v6 T0 {. ~2 }Duration                                 : 3 min 41 s. Y; |! M/ D8 ~
    Bit rate                                 : 2 122 b/s
    , ]" h) g6 _. n" l, r; eCount of elements                        : 8
    0 r, a6 P) A! c2 s+ p% `Stream size                              : 57.5 KiB (0%)4 W9 @4 M/ h4 j% g; r2 i
    Title                                    : English-FORCED-PGS
    + m" ^$ N: a+ x+ }! LLanguage                                 : English
    : M7 L# P' g* {, e& Q- aDefault                                  : No
    0 z/ S8 Q0 b6 ]. `; h6 LForced                                   : No
    ! g# A" Q7 S3 C1 [5 y; {1 u/ J/ @
    6 Z- c& B6 z" `; i) M3 pText #6
    ) q+ o9 T& `# Y6 dID                                       : 119 Z& o) S' u/ K) A2 {' z) m
    Format                                   : PGS
    ! ^: D5 ]$ N, x# \  [Muxing mode                              : zlib3 G7 G5 _: U! W& Q
    Codec ID                                 : S_HDMV/PGS, |6 ^  `* w$ G( p, u' J
    Codec ID/Info                            : Picture based subtitle format used on BDs/HD-DVDs6 m# ?' u* o; I) p
    Duration                                 : 2 h 1 min; R; g  H6 _7 R  r& F8 Y, n5 x
    Bit rate                                 : 17.0 kb/s
    * o0 b5 `/ }, ~1 p0 g8 BCount of elements                        : 1959) x' d7 t9 G0 V3 G
    Stream size                              : 14.7 MiB (0%)2 H! J6 r# S/ Z" d  D' x+ ]& W
    Title                                    : French-PGS
    # ~3 @3 p! }5 E; |& X4 OLanguage                                 : French( [" B8 ^2 M" [3 h# s. C
    Default                                  : No' ^+ v1 G& ?9 k) [1 W& F6 h: H
    Forced                                   : No
    % ^8 R" w" p- m% ~' l1 @1 Y0 e7 u: ?9 W
    Text #7
    ; s2 q' N1 T: @( y+ F' t  u% E+ TID                                       : 12: L' S+ x1 R2 R$ c4 p2 X  s4 ~) \
    Format                                   : PGS
    0 q( x8 m' |: K8 b, {$ G2 B6 iMuxing mode                              : zlib7 r$ u- k, j% H- e, c
    Codec ID                                 : S_HDMV/PGS1 j+ T8 ~5 k. N  |8 e  d8 w
    Codec ID/Info                            : Picture based subtitle format used on BDs/HD-DVDs" ?6 O: e: e( g
    Duration                                 : 1 h 55 min" j! W" R9 p$ F9 ~  n
    Bit rate                                 : 19.7 kb/s9 \, l2 R! |* k& W
    Count of elements                        : 2191
    ! A) [8 |9 K' n2 L( O  s5 r6 `& y* FStream size                              : 16.2 MiB (0%)3 h" c" w8 Q2 v! l
    Title                                    : Portuguese-PGS# L1 J* z% x7 @' W1 j
    Language                                 : Portuguese7 \0 h. s4 c0 c) M
    Default                                  : No6 U1 z5 t3 i' I9 m# O
    Forced                                   : No1 b; E3 Y! O. ?: y2 b2 F" f
    ' B8 S& R2 H/ Y0 T
    Text #8$ J& E: x& A$ j  n* U* C, C
    ID                                       : 13) a# t; t) P5 q5 z2 U7 J  S! ]
    Format                                   : PGS: l# R: Q. J7 S1 Q3 g. n
    Muxing mode                              : zlib
    * m1 }1 M9 x( f: M9 q: |1 `! @Codec ID                                 : S_HDMV/PGS7 \% k7 u, E1 g# R" ]$ A
    Codec ID/Info                            : Picture based subtitle format used on BDs/HD-DVDs
    ; `8 [$ q+ [# ~4 `/ N* k% QDuration                                 : 1 h 30 min# ~  n' Z1 w" [: E1 l3 G% q, O- X4 K
    Bit rate                                 : 949 b/s5 J4 u& P# _% b+ r* Z( _
    Count of elements                        : 64( l2 ?$ h! D0 Y1 K* e0 u' R
    Stream size                              : 626 KiB (0%)
    - P9 Y0 z; p1 V7 ?7 h% M5 QTitle                                    : Portuguese-FORCED-PGS! {2 R( T4 |1 o8 H
    Language                                 : Portuguese
    / h2 b7 O2 Y5 v- B( MDefault                                  : No! d6 b7 S( n4 e0 {; Y
    Forced                                   : No1 x* P& h( g( l/ H
    1 w/ }+ g$ h) H# Q& \
    Text #9
    . S0 u, Z* c' E6 x4 ]: x0 h. W& oID                                       : 14
    % e& b% |7 _$ D, ?/ h$ u7 C: zFormat                                   : PGS, n/ t5 e  e, l/ L% d
    Muxing mode                              : zlib
    3 i$ J' A% H4 A+ tCodec ID                                 : S_HDMV/PGS
    , }+ x1 W/ s1 b$ o: ~6 RCodec ID/Info                            : Picture based subtitle format used on BDs/HD-DVDs
    3 b' O% z/ g' `: ]Duration                                 : 1 h 55 min- `$ q$ j8 [5 A; t& ^. s
    Bit rate                                 : 21.3 kb/s7 ]$ _; s2 e9 \) p& |, x8 g& |8 K
    Count of elements                        : 22396 q3 L" O4 o* r
    Stream size                              : 17.5 MiB (0%)" G9 y+ R6 A+ i6 a/ s) _" i; f
    Title                                    : Spanish-PGS: k- e3 D& Q: ]. l& t& J' e) n  I
    Language                                 : Spanish7 j4 q/ Q, y( U# L7 n: R
    Default                                  : No& v  z: ^- l, \8 e& s$ v  b2 [
    Forced                                   : No
    9 ^% s9 u, ^& n7 d+ _2 q9 F
    " y2 v2 u9 \+ Y! M! z& ~) w, eText #10
    # P& w# Q) O. Q* [% Q- KID                                       : 15
    2 M) W$ ?' E. Z0 i6 E4 }/ z! I& jFormat                                   : PGS
    6 m  U. s/ Y% D; c' \) j9 @  UMuxing mode                              : zlib* F9 F& j# h4 y- F# [
    Codec ID                                 : S_HDMV/PGS
    $ V: u0 `& T- J  sCodec ID/Info                            : Picture based subtitle format used on BDs/HD-DVDs
    # ~4 x3 p4 o9 v& j3 T+ lDuration                                 : 1 h 30 min
    & a0 r, ^& `7 A' ?Bit rate                                 : 958 b/s$ A  w+ O) b1 u( M# [4 I. ~# {: f! y
    Count of elements                        : 64
    . H) Q& ?; e& R4 r% Z/ dStream size                              : 632 KiB (0%)
    ' `' c) U, s  b6 J2 |$ z0 CTitle                                    : Spanish-FORCED-PGS
    8 ~& d% Q, a5 I: R* {, M8 dLanguage                                 : Spanish
    - l* q1 i) `( G9 iDefault                                  : No
    3 D% [! {7 s  h% X# x( O, xForced                                   : No
    6 f" ?4 h& n7 X0 Y1 j4 S6 T6 o8 m1 L" u7 y. H9 R
    Text #11
    & I' Y/ M& G& E* K" q* n- ?2 IID                                       : 16) X! v/ A% f% N' Z  Z# H
    Format                                   : PGS
    # e! x/ F* `' Q! AMuxing mode                              : zlib" V8 P( d$ J( u- u7 i/ i! W" K
    Codec ID                                 : S_HDMV/PGS, }% p$ h) C! \. _
    Codec ID/Info                            : Picture based subtitle format used on BDs/HD-DVDs  j0 A! x8 G/ j' d
    Duration                                 : 2 h 1 min
    ( [6 V. ~% {! ^3 UBit rate                                 : 555 b/s1 C9 Y4 y% b: v; _# C
    Count of elements                        : 52! E3 M# _& n* o" a5 ^& v5 x. T; x) \
    Stream size                              : 493 KiB (0%)7 j7 N/ k" Q% z  s5 v: ]
    Title                                    : French-FORCED-PGS
    3 @$ Q- u  x% }! {! s3 |8 LLanguage                                 : French
    ; _6 h; e) n3 _Default                                  : No3 b/ q. M8 X6 W: D3 G
    Forced                                   : No2 \2 G8 [) J$ v* o

    - k3 K* N' P) \8 uText #12
    0 E. z5 h' @7 b0 Q$ S% i% uID                                       : 17: N! @8 H" d0 a5 Y% F+ d: w5 Y
    Format                                   : PGS
    . R+ l" Z4 A; r8 i1 qMuxing mode                              : zlib( k, l& f! g2 [! ]
    Codec ID                                 : S_HDMV/PGS
    : @: K( T8 m1 f; QCodec ID/Info                            : Picture based subtitle format used on BDs/HD-DVDs! K5 i) g$ q7 j! C
    Duration                                 : 2 h 1 min
      \/ Q2 l/ x: h( iBit rate                                 : 555 b/s
    $ J' K' a/ @; X, S* sCount of elements                        : 52
    : V9 }7 J; A( aStream size                              : 493 KiB (0%)
    / x! M+ l4 d6 i6 Y) R* gTitle                                    : French-FORCED-PGS) z4 o- Q% ?3 a4 M/ c0 I
    Language                                 : French
    0 A  s6 b( h5 J- b# `7 x. W, _% I# aDefault                                  : No
    0 F7 R0 A- n2 NForced                                   : No3 K- X- w$ s9 E

    - Y' Q$ b6 X( ^5 IMenu
    / X3 b4 Q5 y" U00:00:00.000                             : en:Chapter 017 ^' Y# |  F" t: h8 n) a0 A0 h! A$ g4 G
    00:06:42.568                             : en:Chapter 02+ z/ `0 U; Y4 W3 z
    00:14:38.669                             : en:Chapter 03
    - c; T" p" n( L1 d% P( T/ j2 B( B00:22:50.035                             : en:Chapter 04
    8 N& B* _. ]4 v0 v9 G+ ^7 O00:31:06.906                             : en:Chapter 05
    7 v4 Q; m( M: C4 ^0 h1 i00:40:08.948                             : en:Chapter 06
    ( y  x# W/ P2 Y3 S7 O00:47:42.067                             : en:Chapter 07) o" R& ^3 s& a" d# x( F
    00:53:32.792                             : en:Chapter 08. y& R% ?3 U! ?9 H/ b
    01:00:00.847                             : en:Chapter 09
    ; m# J, w8 M3 [01:03:57.583                             : en:Chapter 10
    ; q0 B& k5 X5 s01:10:57.336                             : en:Chapter 116 _2 x) C9 q) V2 N+ M" W! p1 t. d7 x
    01:18:40.716                             : en:Chapter 12/ {! v* z# U; C) R2 t
    01:27:56.771                             : en:Chapter 138 W% _. x5 ^& Y( g
    01:34:50.142                             : en:Chapter 147 z1 l* {- A) E; Y
    01:39:44.478                             : en:Chapter 15; X5 \7 Q0 I. G! f# }$ H
    01:48:09.357                             : en:Chapter 16

    / j/ n' ^1 R! f0 R
    游客,查看本帖隐藏内容请回复 | 加入VIP贵宾组可免积分免回复下载 立即了解 | 还不是会员:点击获取邀请码 Invitation Code

    相关帖子

    本版积分规则

    小黑屋|Archiver|蓝光电影资源网

    GMT+8, 2020-3-28 16:15

    快速回复 返回顶部 返回列表