BluRayCD Forum

 找回密码
 立即注册【分享大片】

QQ登录

只需一步,快速开始

查看: 9|回复: 1
收起左侧

[剧情悬疑] 回归之路/归来之路/归途/托兰斯教练 The Way Back 2020 1080p WEB-DL DD5.1 H264-FGT 3.75GB

[复制链接]
  • TA的每日心情
    奋斗
    2020-3-6 18:59
  • 签到天数: 5 天

    [LV.2]路过蓝盘

    30

    主题

    560

    帖子

    2077

    积分

    Sponsor

    金币
    150 枚
    体力
    746 点
    lanpanshuma 发表于 前天 03:43 | 显示全部楼层 |阅读模式

    / Q2 D' n/ q; d: N7 t. M, \
    $ x4 A5 F- `7 x, Z- A* \◎译  名 回归之路/归来之路/归途/托兰斯教练
    . `& L5 _5 o' y◎片  名 The Way Back / The Has-Been / Torrance + V. p( I5 p. ~: r' g
    ◎年  代 2020! {7 h  b3 ^* j" }
    ◎产  地 美国
    5 k3 v, V3 b5 Z4 `; }0 E5 X- u◎类  别 剧情/运动
    ; L0 ^" w/ s4 q◎语  言 英语" W9 g& {% J0 |; O9 Q  _, M" K
    ◎上映日期 2020-03-06(美国)
    * l4 q+ |; V; D; v7 L4 J! C, j8 i◎IMDb评分 7.1/10 from 2861 users) @) F  Y2 ^5 ^( p1 `
    ◎IMDb链接 https://www.imdb.com/title/tt8544498
    " F: m! c4 ?/ V3 H◎豆瓣评分 6.8/10 from 94 users
    - H3 K6 s; F8 ^2 j! ~0 a◎豆瓣链接 https://movie.douban.com/subject/30345227/, a: d9 a& O( z6 A( U
    ◎片  长 108分钟3 E7 v8 a" R3 N# i
    ◎导  演 加文·欧康诺 Gavin O'Connor
    7 O" `) }/ g. t◎编  剧 布拉德·英格尔斯比 Brad Ingelsby / 加文·欧康诺 Gavin O'Connor* I, n6 G$ P: j* G: x9 m4 O" d" Z
    ◎主  演 本·阿弗莱克 Ben Affleck
    9 j4 `/ w/ N% i      詹妮娜·加万卡 Janina Gavankar- \; f4 n; A8 Z
          麦可拉·沃金丝 Michaela Watkins
    1 D1 W4 e1 O* E# D& b      瑞秋·卡帕尼 Rachael Carpani
      P8 `% B8 Y) G- a/ Z% ~! |6 A      艾尔·马德里加尔 Al Madrigal
    5 y" f* H: y. z8 M/ ?& f+ }+ l) ?      海耶斯·麦克阿瑟 Hayes MacArthur
    3 O( O! K% Y) X4 K  U. q      阿夫拉姆·D·于斯特 Da'Vinchi
    + ^% a5 z6 A( y      泰勒·奥马利 Tyler O'Malley+ F- n6 Q$ ~) k8 \' S
          马修·格拉夫 Matthew Glave  b/ q; d$ T; n. f+ t9 S* t" h' `& b
          托德·斯塔什维克 Todd Stashwick
    3 c( F1 i1 ~& V      玛琳娜·福特 Marlene Forte
    ! i4 L' T  b' h* Q" w: w$ r      英卡·基特 Inka Kyt?# u: L3 G* C( ~4 A. i
          格林·特鲁曼 Glynn Turman4 S1 N2 p, Z6 f5 t- J2 a% u5 e
          梅尔文·格雷格 Melvin Gregg
    6 L. M+ \' b5 j' s      TK·卡特 T.K. Carter/ ~1 c7 p! Q+ u: B) L# l
          卢卡斯·盖奇 Lukas Gage9 |% w+ Z; _/ Z# {4 E
          杰雷米·拉特福德 Jeremy Ratchford
    & J" X2 T4 H" m      小索尔·韦雷斯 Sal Velez Jr.
    3 w' k* ?( j+ }4 `+ M0 U      克里斯·布鲁诺 Chris Bruno0 L& S& y5 g( Q9 h) U
          克里斯汀·霍恩 Christine Horn5 j4 j7 ]- e3 z. O" ]/ J) d
          布兰登·威尔逊 Brandon Wilson
    ! j" Z; H% F. G4 E      艾德琳·冈野 Edelyn Okano* ?* E- x, c' u4 O  N# J: e
          尼科·戴维 Nico David
    : U$ t+ F! O9 g* a8 |6 V4 @      汤姆·阿齐迪肯 Tom Archdeacon/ A; e+ g. N3 m
          杰·阿布多 Jay Abdo
    ! l; V+ {$ B( i: u7 B/ _& {9 T) J      查德·芒廷 Chad Mountain
    & o4 c5 [8 _9 V0 c/ Q: `6 b! L      谢伊·朗德特里 Shay Roundtree! r/ T2 t& m- T- u7 Y! ]
          曼尼·斯特里茨 Manny Streetz# x$ |- i/ t" J
          桑蒂尔·亚历克西斯·瓦奎兹 Shantiel Alexis Vazquez
    7 ?+ P6 p. {+ h, H9 `( c( b9 t      小阿曼多·杜邦 Armando DuBon Jr.
    8 k. d: G$ W' j) K* e- O' b      丹·格伦伯格 Dan Gruenberg' D5 r1 N% q! K3 i! U4 H
          布莱恩·纳什 Bryan Nash. H4 G% h# c  _& Q, S) [% d

    7 e  C: L$ i. y5 ]- q# r◎简  介
    - f; n5 @2 g6 v- i9 ?
    ) u; Z8 P0 e* N3 Z' i  一个曾经的篮球明星在与酒瘾作斗争时失去了妻子与家庭,为了能够找回自我选择回到母校为一支高中篮球队做教练,同时也要继续防止自己再次被酒瘾控制。6 S7 m% V1 C+ d% C* k2 u
    Video- \/ a$ {: N( y% l: n/ C
    ID : 19 E, x1 {4 B. p' I1 Z9 `
    Format : AVC5 u+ S1 n' r/ Q+ Y% h2 ?: _
    Format/Info : Advanced Video Codec
    , Q( M" [  [* N6 I( J  tFormat profile : [email protected]
    0 @, l; f% Y) A% GFormat settings : CABAC / 5 Ref Frames
    . T, r: w. H. j  `Format settings, CABAC : Yes, @- I7 B4 X2 B7 A- V, m
    Format settings, Reference frames : 5 frames
    ( R$ `  f; c7 CCodec ID : V_MPEG4/ISO/AVC
    3 k) X. n0 c( h! |+ FDuration : 1 h 48 min
    : N& p% t  u9 r. e8 B3 V. eBit rate : 4 570 kb/s" j5 J% \$ O) v: A# ?2 p) b& S
    Width : 1 916 pixels
    ' [% h- L5 S8 r) dHeight : 800 pixels
    9 N  t0 @1 X3 j% }4 R. L( HDisplay aspect ratio : 2.40:1
    " s( Z: o+ m; Y: E3 Q0 c) cFrame rate mode : Constant7 Q. ]( A- S% a
    Frame rate : 23.976 FPS
    2 J- g* q' F. lColor space : YUV% E" w2 `# e$ N: x
    Chroma subsampling : 4:2:0
    ; A) e& Z) f6 _! s4 h6 l: n) ~2 X' H) xBit depth : 8 bits
    $ E  P8 V7 D- r( ^' F% u( y& z, fScan type : Progressive, ]  x( Y  S2 m, W9 \3 J3 ~
    Bits/(Pixel*Frame) : 0.124
    " b+ I, H* t& WStream size : 3.46 GiB (92%)
    $ r% p3 y" S5 I. y5 eTitle : The.Way.Back.2020.1080p.WEB-DL.DD5.1.H264-FGT% U3 |. j/ g: k0 ]
    Language : English+ z, }9 i7 H: Y9 ?
    Default : Yes
    8 {$ P2 `! i; a5 KForced : No! C3 P+ }% F( B! _% E- s& E. b
    Color range : Limited
    & N9 w0 \1 `: p. C6 o+ EColor primaries : BT.7091 @' ?$ ~# Y# C! t9 g
    Transfer characteristics : BT.7098 Y9 j0 G" u  C
    Matrix coefficients : BT.709
    ! A: Q# f  R5 w( \% _$ V- m" B3 Y$ `3 ~0 Q
    Audio
    / a$ h0 q( X8 R4 k# Y' ~4 u; UID : 2
    8 l: o) N( i4 `1 d: I& ?Format : AC-3: A( ^9 a0 C5 l" s5 Q" q) ^
    Format/Info : Audio Coding 3
    * V8 Z5 T4 R+ ?- x: ?3 d& xCommercial name : Dolby Digital
    % P4 H1 r3 G$ p4 d; Q5 gCodec ID : A_AC3
    * N0 U3 ]$ J/ s# J. DDuration : 1 h 48 min
    6 x5 X9 ]# s; JBit rate mode : Constant1 c' n1 v% K* _) ]# [' ^9 }
    Bit rate : 384 kb/s8 Z0 L( b8 H% D
    Channel(s) : 6 channels
    8 G& }! P+ N  u8 Z% I4 J; \Channel layout : L R C LFE Ls Rs+ H, D) \; j5 a5 z0 H, S  F$ S0 K
    Sampling rate : 48.0 kHz
    ! x' P& r9 A2 s' K  c; K4 qFrame rate : 31.250 FPS (1536 SPF)
    * A6 C3 g5 G' ?- e2 PBit depth : 16 bits
      h# q% e) \1 _Compression mode : Lossy
    % ~: \: Y& x$ s" ?Stream size : 298 MiB (8%)5 t! T' h# }& R& }9 v4 [4 F
    Title : The.Way.Back.2020.1080p.WEB-DL.DD5.1.H264-FGT9 ~; n  }; A0 u9 B9 C9 @) i1 q
    Language : English
    * g& B3 V  A& `: v2 Z- cService kind : Complete Main, `. L6 p' n# d: @8 m
    Default : Yes
    1 v3 R4 F3 H8 `6 e" s1 H* g5 ?Forced : No7 h1 w$ l+ ]5 M0 @& c' \
    $ k& z) n9 W6 ~, t
    Menu
    & o  j2 `3 O8 M9 j3 H9 ?00:00:00.000 : en:1
    $ N  h& [" D3 ^; U$ j$ L/ E00:09:38.703 : en:2+ E$ H7 ^$ N2 t% X4 f  y- l
    00:15:52.117 : en:3
    3 M1 o* L# T! C7 u( e00:24:43.148 : en:4! Z' E9 ^3 V9 U4 B( K3 U! l1 S  }, }
    00:31:33.433 : en:54 ~- h& M& F( h
    00:37:53.229 : en:6
    $ k* {- C6 p$ t, ~8 j, p00:44:59.404 : en:7' ]3 Y8 O# q0 O- Z4 K# j/ b" N
    00:54:13.750 : en:8+ N2 z1 @! Y7 W
    01:04:13.182 : en:9
    ( k& G9 J) {, p) I3 @; X01:09:04.473 : en:10: n! h$ }3 e- X0 m* h. K" _
    01:17:55.795 : en:11
    $ `0 X3 a8 x. c4 E5 c2 g& J01:27:55.519 : en:12
    8 ^# r; W9 J/ b5 H5 c, A& w! k01:33:15.838 : en:13; m9 P7 |- e" k" E0 o0 g
    01:42:37.733 : en:14

    $ O1 a) V/ c$ ?' l2 N2 I8 d7 o& {& |* P
    ! m* z( C. ~9 s5 W
    游客,查看本帖隐藏内容请回复 | 加入VIP贵宾组可免积分免回复下载 立即了解 | 还不是会员:点击获取邀请码 Invitation Code
    该会员没有 ...
  • TA的每日心情
    开心
    2020-3-14 12:42
  • 签到天数: 19 天

    [LV.4]打酱油的

    2

    主题

    243

    帖子

    1010

    积分

    Sponsor

    金币
    253 枚
    体力
    307 点
    tto138 发表于 前天 20:46 | 显示全部楼层
    啥也不说了,楼主就是给力!
    4 u  \0 {$ n% _2 F7 T, n( M# e0 s要想蓝光电影论坛发展好,资源多,就靠你我他!To the development of Blu-ray movies forum, resources and more depend on you and me!
      \$ u& m! L1 |- K

    本版积分规则

    小黑屋|Archiver|蓝光电影资源网

    GMT+8, 2020-3-28 16:19

    快速回复 返回顶部 返回列表