BluRayCD Forum

 找回密码
 立即注册【分享大片】

QQ登录

只需一步,快速开始

查看: 10|回复: 0
收起左侧

[科幻恐怖] 喋血战士/血卫(台) Bloodshot 2020 1080p WEB-DL DD5.1 H264-FGT 3.77GB

[复制链接]
  • TA的每日心情
    奋斗
    2020-3-6 18:59
  • 签到天数: 5 天

    [LV.2]路过蓝盘

    30

    主题

    560

    帖子

    2077

    积分

    Sponsor

    金币
    150 枚
    体力
    746 点
    lanpanshuma 发表于 前天 03:53 | 显示全部楼层 |阅读模式

    2 [- S4 s* ]1 h, {8 _
    . [  A/ h; P5 t: k5 h2 [◎译  名 喋血战士/血卫(台)) m! T2 I8 m; U3 `( s4 E
    ◎片  名 Bloodshot$ Z3 B$ p5 W' r  t: k5 \; ?0 R2 Z. K
    ◎年  代 2020
    * w$ P/ [9 C: l% g◎产  地 中国大陆 / 美国
    & a8 _% {* M% U! X+ K; v◎类  别 动作 / 科幻
    2 U3 b: B6 @* ~1 h8 P5 |◎语  言 英语
    1 _6 x+ J5 n% {' G+ E% s◎上映日期 2020(中国大陆) / 2020-03-13(美国)
    4 c9 A6 c# [: z5 t◎IMDb评分 5.7/10 from 4778 users
    & [% Q2 B: U  F# D9 c# A, }0 [◎IMDb链接 https://www.imdb.com/title/tt1634106& z1 t, Z6 X0 v9 o/ `
    ◎豆瓣评分 0/10 from 0 users
    % Q8 j, k7 ~+ g* J; N. ~◎豆瓣链接 https://movie.douban.com/subject/4830483/
    8 X& H8 n+ r5 `* t6 m◎片  长 109分钟
    1 W2 I6 f- u, S5 s◎导  演 戴夫·威尔逊 Dave Wilson7 Y9 q, ^) G5 B1 K( r
    ◎编  剧 杰夫·瓦德洛 Jeff Wadlow / 埃里克·海瑟尔 Eric Heisserer / 凯文·范霍克 Kevin VanHook3 u6 z) u9 i, o) q; I9 d5 H! V
    ◎主  演 范·迪塞尔 Vin Diesel
    ' k' K4 j# f6 T* r  Y  X- Y      艾莎·冈萨雷斯 Eiza González' J1 R' r; z6 S" ^$ V
          萨姆·修汉 Sam Heughan
    ; C2 k6 g- |- b! K# I      托比·凯贝尔 Toby Kebbell* @9 b! C/ \$ Z. w9 Y4 {
          妲露拉·莱莉 Talulah Riley1 d7 @8 M" M" E  M$ F/ A' ^% ?
          拉蒙尼·莫里斯 Lamorne Morris( c, h4 ?" O. X, E9 Y% k) k
          盖·皮尔斯 Guy Pearce$ p3 s6 E8 e& i9 [( d
          悉达尔斯·达南杰 Siddharth Dhananjay8 |, Y% G# p, I) N; Z
          泰勒·迈尔 Tyrel Meyer# k6 L% I1 b2 X3 D, s9 X: T
          亚历克斯·安洛斯 Alex Anlos0 W3 g  c  Z* g
          克莱德·伯宁 Clyde Berning
    ; ]0 v7 S' U( g# B4 S$ s! K: H      杰里米·博阿多 Jeremy Boado/ a( N. h3 P5 d; x: m
          塔梅尔·伯贾克 Tamer Burjaq
    1 Q- I5 b( h+ F" P$ J/ B      亚历克斯·埃尔南德斯 Alex Hernandez
      o" k5 Y) O1 t      约翰内斯·豪克尔·约翰内森 Jóhannes Haukur Jóhannesson2 Z7 n. D# h7 B) A! ?, u. r
          帕特里克·克尔顿 Patrick Kerton% m9 M" O6 s# t' H
    / t" r: n4 W" F& C
    ◎简  介# r7 ~) J. _. ~6 ]9 N8 {7 V
    8 T7 Y/ |+ K; d
      电影根据勇士漫画改编,讲述由范·迪塞尔扮演的士兵雷·加里森在战斗中意外阵亡,被RST公司利用尖端纳米技术起死回生,变身即时自愈、媲美超级电脑的超级英雄——喋血战士。苏醒的他执着于脑海中残存的记忆碎片,踏上为爱妻的复仇之路,却发现自己竟无法分清真实与虚幻...
    8 z$ _8 L$ J  u' s: H% V+ x
    Video+ t3 b0 F! b3 W, a- m9 h. i& [" A
    ID : 1; N( P# F& p8 R; w
    Format : AVC
    7 C0 |' h; a2 i" DFormat/Info : Advanced Video Codec
    & f. Q: A! |$ |, w- z8 X8 y' T* k3 SFormat profile : [email protected]- C" g3 k- u. w- {! n4 B; I/ X
    Format settings : CABAC / 5 Ref Frames
    ; F7 d/ f+ P9 I) k7 {6 a% J3 G+ r: ?Format settings, CABAC : Yes
    2 G' |0 S9 h2 I2 n1 @: x2 }Format settings, Reference frames : 5 frames
    ) o2 A5 f2 E1 z$ Q" q9 r/ T# Z' u9 ZCodec ID : V_MPEG4/ISO/AVC
    + I! H' o3 o8 l! r/ x" jDuration : 1 h 49 min8 `( v9 G* G" M2 o# N2 Z& B+ i' w
    Bit rate : 4 538 kb/s
    $ d- F& \. K! t* r6 S1 v2 HWidth : 1 920 pixels$ ^" E0 `) P" L# G
    Height : 798 pixels* E3 u0 |0 D% Y7 T4 m
    Display aspect ratio : 2.40:1  F, O# r+ u* V* v+ V
    Frame rate mode : Constant
    , }, K; f5 S0 i+ I0 _Frame rate : 23.976 FPS: C- C/ W8 l7 ^  T$ r/ W
    Color space : YUV  d; T4 n  P9 u. k1 t) E  z1 L
    Chroma subsampling : 4:2:0
    ! H7 s. D5 x* m+ Q' NBit depth : 8 bits' [4 ^2 d: Q1 |
    Scan type : Progressive
    ! F+ H" M+ g1 q8 hBits/(Pixel*Frame) : 0.124
      B# s4 v( a. m" |4 TStream size : 3.47 GiB (92%)9 N; W' H3 j; u2 S, C% l
    Title : Bloodshot.2020.1080p.WEB-DL.DD5.1.H264-FGT
    ' C1 J" ^% U' kLanguage : English
    7 I2 Y  e3 @- w4 Y- r$ w" UDefault : Yes( j! ~; `# g( f  @2 q
    Forced : No- B2 S2 ]2 ?: k% Y* s; `: k2 R
    Color range : Limited: G0 M) h$ k1 d+ ^
    Color primaries : BT.709$ n0 D) X3 Q; p: ?$ e
    Transfer characteristics : BT.709. T- g* Z. a8 z7 C: k7 d+ [+ v+ n
    Matrix coefficients : BT.709# @3 ?% h+ U4 Q

      q8 z$ d% z7 L! {  F' NAudio/ {9 q2 e6 m* N8 ~% S; J5 d. j5 ?
    ID : 2
    2 h% c- s$ k7 P" N( Y' lFormat : AC-36 D6 W1 L' D& u- `. C
    Format/Info : Audio Coding 3# }  q$ g" V/ ?9 v) `' w+ j5 a: K
    Commercial name : Dolby Digital
    6 E7 m2 Z; D( j' }0 J! H2 m  U+ gCodec ID : A_AC3" y& |5 R" t8 |4 R: `/ V
    Duration : 1 h 49 min
    7 i9 J5 g( ~* t6 a" QBit rate mode : Constant
    . V  f5 c3 o. D; aBit rate : 384 kb/s
    ) P( V8 g# E+ d2 _$ g# q$ l% `Channel(s) : 6 channels1 j+ H, M4 R: t; @: m- [3 G
    Channel layout : L R C LFE Ls Rs8 j. d- r' D$ P, x" q: N# Q7 G
    Sampling rate : 48.0 kHz+ b8 E- D# ?3 h
    Frame rate : 31.250 FPS (1536 SPF)
    ) l* r. o7 K+ l/ M( Q8 gBit depth : 16 bits) T" {  X- V; V
    Compression mode : Lossy
    . x9 y" `( ^6 w, g% o8 e. M/ O" FStream size : 300 MiB (8%)
      f( o* y# s8 _9 c+ w6 VTitle : Bloodshot.2020.1080p.WEB-DL.DD5.1.H264-FGT
    2 r! A( Z/ D- V+ }# o, Q- H+ yLanguage : English
    ) m: Y: P8 N2 X+ K" pService kind : Complete Main
    * Z' B: T9 q% D$ h7 sDefault : Yes- i9 d$ q6 s2 i! l1 {/ q6 `
    Forced : No, f7 i8 ^4 @5 B7 E- l
    - R: E6 {2 b% g4 I
    Menu7 B9 m, J& ]# v- ], P8 L
    00:00:00.000 : en:1
    ( m; h; \( Z. c0 g00:06:57.792 : en:2
    % Y/ A) s4 v& F00:13:03.073 : en:3
    ) O5 ?6 ?, H# n5 S- v2 I! j8 o00:20:37.860 : en:4
    # t( q; @  l  T2 P2 }! Z9 W00:26:31.380 : en:5* u1 _8 V! z, b5 d7 F5 Y
    00:33:13.782 : en:6' J0 t5 O1 a9 D3 v
    00:40:09.071 : en:7
    6 V( T! I- o, I" ?# e00:46:40.378 : en:8, O9 k& S( e: ^+ v) I' A
    00:54:16.249 : en:94 E' F2 l1 L# A/ O, j( d9 T
    01:01:43.946 : en:10
    . K! {7 t( O( G6 S1 D4 S01:08:09.413 : en:112 h+ o4 Y1 p9 D7 R$ N
    01:13:28.105 : en:12
    ! ^8 Y# M0 a- v- {5 A7 ?: X01:22:14.130 : en:13
    + g) U4 D4 A/ X, v0 `$ P; k  Z7 n01:28:15.282 : en:14
    ; Z& u: ?' w$ R5 u2 H01:36:41.578 : en:15' W$ ]2 m% g/ v- L" b
    01:42:29.675 : en:16

    5 a, k7 P( x5 b
    游客,查看本帖隐藏内容请回复 | 加入VIP贵宾组可免积分免回复下载 立即了解 | 还不是会员:点击获取邀请码 Invitation Code
    该会员没有 ...

    本版积分规则

    小黑屋|Archiver|蓝光电影资源网

    GMT+8, 2020-3-28 15:49

    快速回复 返回顶部 返回列表