BluRayCD Forum

 找回密码
 立即注册【分享大片】

QQ登录

只需一步,快速开始

查看: 11|回复: 1
收起左侧

[动漫动画] 1/2的魔法/魔法环游记/勇往直前/觅法奇程/½的魔法 Onward 2020 1080p WEB-DL DD5.1 H264-FGT 3.52GB

[复制链接]
  • TA的每日心情
    奋斗
    2020-3-6 18:59
  • 签到天数: 5 天

    [LV.2]路过蓝盘

    30

    主题

    560

    帖子

    2077

    积分

    Sponsor

    金币
    150 枚
    体力
    746 点
    lanpanshuma 发表于 前天 04:00 | 显示全部楼层 |阅读模式

    - l0 w+ l) F: M* O9 M9 [: Y" P" {% `. `7 ?+ q3 ^8 c4 b
    ◎译  名 1/2的魔法/魔法环游记/勇往直前/觅法奇程/½的魔法/向前
    7 n% W5 r& g* S2 \! I  Z◎片  名 Onward
    ; u8 ~' V$ s3 M4 }8 z◎年  代 2020
    ) A. n% a7 V. l, R2 c◎产  地 美国
    2 |5 U" b/ N: U! h0 l7 I1 E◎类  别 喜剧 / 动画 / 奇幻 / 冒险
    " W2 n' J( J) v) ]6 B9 e, }◎语  言 英语
    1 ^# ]) T+ S( i4 f( y◎上映日期 2020-02-21(柏林电影节) / 2020-03-06(美国)1 ^5 f9 X& b8 F( ^2 q( ]( F
    ◎IMDb评分 7.7/10 from 11553 users) }! N; [8 g& d# f" K
    ◎IMDb链接 https://www.imdb.com/title/tt7146812
    - Y; t8 e; n, W' C5 M  N◎豆瓣评分 8.2/10 from 754 users
    ( @  p4 x  b- d4 D◎豆瓣链接 https://movie.douban.com/subject/30401849/
    2 P0 _) C: g) f2 S( q◎片  长 102分钟# }; a* R1 o$ M* U
    ◎导  演 丹·斯坎隆 Dan Scanlon
    / ~4 {  w# H- N9 a: O% \$ D◎编  剧 丹·斯坎隆 Dan Scanlon / 基思·布宁 Keith Bunin# M" V+ b, B1 N" f3 D: R
    ◎主  演 汤姆·赫兰德 Tom Holland
    ! N3 ?% {, {& t/ `( \      克里斯·帕拉特 Chris Pratt3 n3 d7 L, z+ W3 q; B
          茱莉亚·路易斯-德瑞弗斯 Julia Louis-Dreyfus  i" W" B/ g1 P! U: F6 j
          奥克塔维亚·斯宾瑟 Octavia Spencer
    & K- d2 A+ g8 V: k+ |* J. \+ y; S      梅尔·罗德里格斯 Mel Rodriguez5 K. D( ^* y2 C1 f, H
          凯尔·柏海莫 Kyle Bornheimer
    : g4 Q  u' `7 f2 |/ T; J, j1 R, L7 z' X      丽娜·维特 Lena Waithe) _- r, `6 z- Z
          黄阿丽 Ali Wong
    " r6 _7 M/ F  q      格蕾·德丽斯勒 Grey DeLisle& E" s/ }) i3 n$ ?& R* _; m
          崔茜·尤玛 Tracey Ullman5 {' Q6 b% |: N7 p* r0 n8 p) t
          维尔摩·瓦尔德拉玛 Wilmer Valderrama
    0 W% a6 o5 y' Z- {6 B7 `& B      乔治·普萨拉 George Psarras% B1 }9 U4 A- H( G0 _: n
          约翰·拉岑贝格 John Ratzenberger
    ! r3 Q) X0 S1 S' _& a% |, g% ?" U8 z
    8 K& c/ b% G2 ~$ E  {+ o◎简  介
    % Q: [% t1 F& Q: u1 n, h. r3 t/ H$ l: a  ?# |
      影片设定在一个由精灵、巨魔和灵魂等组成的郊外幻想世界,在那里独角兽在垃圾桶中穿行,像是有着糖果条纹的负鼠。影片提供了一个前提,即魔法是真实的,但它早已被现代技术所遗忘和取代。一对十几岁的兄弟,在他们尚不更事时父亲便已离世,他们决定进入这个幻想世界,与父亲共度最后一个神奇的日子。霍兰德配音弟弟伊安、帕拉特配音聒噪的哥哥、德瑞弗斯配音兄弟二人的母亲、斯宾瑟则会利用其声线的优势。, q) x& J+ B9 H% o
    Video  w# _6 C2 t) ^& K# N: l
    ID : 1: A; E0 N, ?9 U$ v% D4 z
    Format : AVC
    & o$ j$ K6 v. ?, N& ?6 U8 I! ?Format/Info : Advanced Video Codec! [3 R$ i: O7 Q$ p0 L) w
    Format profile : [email protected]
    1 J" u2 K# }' q) a  |- KFormat settings : CABAC / 5 Ref Frames
    ) T6 }) Z. K; r. J5 sFormat settings, CABAC : Yes$ m4 Q* b2 N9 [; J) P+ V
    Format settings, Reference frames : 5 frames- ~4 _" v9 h  e/ I0 Z
    Codec ID : V_MPEG4/ISO/AVC
    . e2 E) w, y1 ?) u; UDuration : 1 h 42 min
    0 E" O, m+ A& E& Q% S! gBit rate : 4 540 kb/s
    ( D1 c7 _4 |3 _! l9 dWidth : 1 920 pixels
    3 ~! g5 {( y$ ?4 }* hHeight : 804 pixels$ N9 M2 a, h8 N4 }
    Display aspect ratio : 2.40:1. h, I, a% q! Z5 s* h" j
    Frame rate mode : Constant) ]" {. @% L/ K# \2 }
    Frame rate : 23.976 (24000/1001/189150) FPS- N& [$ t  `8 a
    Color space : YUV8 z: d* W  C  l: J" e2 y' k$ Q
    Chroma subsampling : 4:2:0
    5 v- L: w) t! u) n( m5 hBit depth : 8 bits+ B5 i) q" T$ g. t3 p
    Scan type : Progressive
    " C2 e2 E7 [2 TBits/(Pixel*Frame) : 0.1233 }3 D$ F, o6 {" e2 W
    Stream size : 3.25 GiB (92%)% ]6 ^" G8 r. ~8 i  ]
    Title : Onward.2020.1080p.WEB-DL.DD5.1.H264-FGT
    ! C& s7 K/ @# b- q9 {5 qLanguage : English
    1 C7 u+ l' o! k8 k! U# i- pDefault : Yes
    ' }- ~5 f2 b4 a/ dForced : No- t1 Q$ ]5 }2 ?2 z* @
    Color range : Limited
    1 r+ Q+ Q5 `$ s# oColor primaries : BT.709; O- K9 I8 ^. o: Q2 S/ r
    Transfer characteristics : BT.709
    + F) c6 T" Y0 J- GMatrix coefficients : BT.709( T( m5 v6 e: |2 I* J3 J6 c

    + v% i2 E5 W( k/ UAudio% @7 M/ \% H& v. z. N
    ID : 2
    $ q9 t# d# j- L7 p4 hFormat : AC-3. q, A( V5 k- k; }
    Format/Info : Audio Coding 3
    $ `& V& b0 d0 h* c& s7 uCommercial name : Dolby Digital
    . K/ w3 B% s2 Q& Z, LCodec ID : A_AC33 O6 {4 a- R) b& z
    Duration : 1 h 42 min
    2 f3 p/ i; v0 v4 H, uBit rate mode : Constant9 u8 M- e4 C0 q% Z+ t& V
    Bit rate : 384 kb/s* s2 r4 D2 o! N! j$ T0 r) W: l
    Channel(s) : 6 channels
    # j1 ?2 {7 L( I* rChannel layout : L R C LFE Ls Rs
    1 D" A2 p& |2 o* v7 N$ A5 W  r" fSampling rate : 48.0 kHz. d6 E7 z, [, v! L' X
    Frame rate : 31.250 FPS (1536 SPF)
    9 a( u$ {7 N" j0 \/ M+ f0 h- WBit depth : 16 bits5 D; R/ n, _. U. S- y- U2 x  X
    Compression mode : Lossy
    3 b. `! [. t5 i1 zStream size : 281 MiB (8%)# ^8 b% n5 w7 |. k( t/ V
    Title : Onward.2020.1080p.WEB-DL.DD5.1.H264-FGT6 S# k# L7 d0 q( ^; s+ X3 m: \
    Language : English
    , K4 _  D# W+ P6 `Service kind : Complete Main* f* H! y7 k8 Q  ~" \. I/ ^
    Default : Yes
    9 X: k* d! r3 n" `* |$ LForced : No
    ' I0 `6 U+ |  n9 U- u
    / ^* s" }5 Q5 X, }Text8 T, N$ E# h* w* k4 B: J' y
    ID : 30 C# J* N7 `- Z2 w! N1 z
    Format : UTF-8' I4 l; S/ |5 {. O
    Codec ID : S_TEXT/UTF8# L% N1 s; d9 U6 _2 o
    Codec ID/Info : UTF-8 Plain Text
    ' E5 M8 U/ @" O# G/ N' f) JDuration : 1 h 35 min6 T5 x% g0 O& F9 ?( @& n
    Bit rate : 68 b/s' x0 U7 P3 q6 T, D+ P" ~
    Count of elements : 16318 M" j4 u  @9 p
    Stream size : 47.8 KiB (0%)
    / a' D0 i7 R3 qLanguage : English
    5 m/ I5 C( V2 }: QDefault : Yes; }4 M2 U: o4 x5 J2 r0 a+ M, n( s
    Forced : No
    9 J: w, w8 Z2 z: Z8 _5 I. q0 n9 W$ G$ I  c4 _% E+ u! g" C
    Menu
    $ @# h$ R- Y- t  J8 P! L* \00:00:00.000 : en:Prologue9 l$ A7 {* t, W: g
    00:02:29.357 : en:Choatic House* J" y* |  C# `2 U  X% W' N6 v+ z/ o6 v
    00:07:05.716 : en:Dad\'s Legacy
    & b; r6 T3 ~  y0 o6 J00:08:13.658 : en:School Fail; F$ f* l: P: g4 ]9 q5 F
    00:12:44.345 : en:Tape Recorder6 [2 l( r' C: u) C
    00:14:53.056 : en:The Gift# f" |+ S; \9 @$ \# S3 Y4 J
    00:19:20.364 : en:Conjuring Dad5 g9 m& E" X8 p+ s! f: @" l8 |
    00:23:45.379 : en:Off We Go
    ( r5 y: }6 o' y4 U00:25:34.071 : en:Mom Finds Note
    7 z" d- T3 Z. {8 [# v00:26:10.439 : en:Loosen Up
    ( h, H. C" W5 v1 h1 T* q00:27:24.763 : en:Manticore\'s Tavern  Y5 T) l* U3 J' K: D
    00:30:01.461 : en:Fallen Idol
    $ p+ W5 ^# J+ f6 i00:32:48.461 : en:The Plan$ P' T# Y7 ?7 O/ e- \. V5 F  v
    00:34:42.950 : en:Mom and Manticore1 q9 O0 d, K- c: C
    00:36:40.107 : en:Bigger Man
    : `3 U2 O6 q) G5 Z% L6 m6 X00:40:41.306 : en:Gas Station2 g2 c: ?5 u, q) Q: \: Z" ?- _0 b
    00:42:48.057 : en:The Curse% k/ r' m. l' h+ M4 J
    00:44:01.462 : en:Sprite Insult, M; M+ j/ n$ Z) ~, S. F6 `+ F0 W
    00:45:40.434 : en:Driving Test6 c* `7 U$ Y! [
    00:47:48.477 : en:Honesty
    . ^1 d1 A& o+ F" c, h( o$ }00:52:00.687 : en:Dance Fight- f; g1 y# Q, f3 Y% ?$ @! P
    00:55:11.460 : en:Pawn Shop
      r4 i8 \, T7 j( C3 e4 f; U00:57:24.342 : en:Trust Bridge
    8 o0 o; a5 h/ F8 V7 D5 L1 n( x01:02:22.639 : en:Change of Plans
    8 a' j3 s) w- d5 V01:04:02.280 : en:Sacrifice
    0 o- n1 F% Z# n% Q$ ~01:07:12.386 : en:Following Ravens
    ; D! r2 r9 A6 t0 q0 J9 a5 m01:08:48.356 : en:Underground
    # {3 u" W- {; B+ `01:10:05.474 : en:To The Skies; J' F' |8 T0 r( j
    01:11:11.580 : en:Reward0 ~/ |( ~+ x2 |! M7 c/ a
    01:13:12.367 : en:Working Together" }  @/ h. ?- ^
    01:15:58.031 : en:Lowest Low
    ) t$ J, `# B* S1 f' s9 ]( M0 s. B01:17:36.336 : en:Father Figure
    - X3 R0 d8 M. N( V9 C) r01:20:25.629 : en:Dragon High
    & h5 H7 x: x* t' C( f. A5 `' t01:25:00.569 : en:Master Wizard
    3 T9 J! f- o/ L01:26:58.895 : en:Meeting Dad
    " c" w3 r5 l/ \3 u01:30:10.085 : en:Epilogue
      ]% F* B+ w* C3 j1 M  s01:32:49.452 : en:Credits
    * s; k9 K: i: s2 j% H

    $ X0 P' T' s& r0 n; M5 d# H; t* w5 J
    游客,查看本帖隐藏内容请回复 | 加入VIP贵宾组可免积分免回复下载 立即了解 | 还不是会员:点击获取邀请码 Invitation Code
    该会员没有 ...
  • TA的每日心情
    开心
    2020-3-14 12:42
  • 签到天数: 19 天

    [LV.4]打酱油的

    2

    主题

    243

    帖子

    1010

    积分

    Sponsor

    金币
    253 枚
    体力
    307 点
    tto138 发表于 前天 20:42 | 显示全部楼层
    啥也不说了,楼主就是给力!
    6 [# v) l* |  t) C( |7 Z) F1 TBlu-ray movies Community: my favorite!
    " B( Z* B+ z2 p2 |: B& q9 L

    本版积分规则

    小黑屋|Archiver|蓝光电影资源网

    GMT+8, 2020-3-28 17:35

    快速回复 返回顶部 返回列表