BluRayCD Forum

 找回密码
 立即注册【分享大片】

QQ登录

只需一步,快速开始

查看: 70|回复: 2
收起左侧

[4K极清电影] 欲望号快车/超速性追缉 [4K REMUX无损版] Crash 1996 UNRATED 2160p BluRaycd REMUX HEVC DTS-HD MA 5.1-FGT 53.94GB

[复制链接]

4310

主题

4468

帖子

5万

积分

Post Share

金币
7979 枚
体力
16161 点

卓越贡献勋章

黄金嫖客 发表于 2020-6-8 18:41:55 | 显示全部楼层 |阅读模式
After getting into a serious car accident, a TV director discovers an underground sub-culture of scarred, omnisexual car-crash victims who use car accidents and the raw sexual energy they produce to try to rejuvenate his sex life with his wife.+ y+ G0 n$ r; ?

  e6 c( |; C9 b. ?
1 M* G6 {  s7 c; T3 g
% z( E3 t: D; H4 \* A4 m3 [% s◎译  名 欲望号快车/撞车/超速性追缉(台)8 ^# y* I# s1 o* b" y, P
◎片  名 Crash! q0 @. p/ r! T# @3 r
◎年  代 1996
; [5 \' U  m2 x, x' j7 t" E◎产  地 加拿大/英国
, T- a+ l" h# R4 ^◎类  别 剧情/情色
8 l& g( ?: }$ a! M, B  |◎语  言 英语/瑞典语* \8 V' G9 R& h/ V$ ~6 C4 t8 d
◎上映日期 1996-05-17(戛纳电影节)/1996-10-04(加拿大)
5 j6 C  k0 K( m6 B( @◎IMDb评分  6.4/10 from 50,002 users9 d  ^8 |8 v) ?# c7 O! b. o1 P! Y! _
◎IMDb链接  https://www.imdb.com/title/tt0115964/5 J( a- `! O7 j
◎豆瓣评分 6.9/10 from 8,359 users
6 a6 U0 J2 ]* w◎豆瓣链接 https://movie.douban.com/subject/1292682/
- N9 ^3 `1 Q/ @0 U  d6 C◎文件格式 x265 + DTS
/ I8 @( b5 a6 w6 b; |( l◎视频尺寸 3840 x 2160/ p* s* A% X7 M; S! B
◎文件大小 1DVD 53.94 GiB7 P" S) ~! H1 d
◎片  长 1 h 39 min
1 W" J. B( _' s6 i" D5 O◎导  演 大卫·柯南伯格 David Cronenberg! n. u% u' f) `6 R+ }$ h" i3 W% r
◎编  剧 J·G·巴拉德 J.G. Ballard( s5 N  [' U( r! I0 f) b
      大卫·柯南伯格 David Cronenberg
! T1 `3 R2 M9 c/ s! `◎主  演 詹姆斯·斯派德 James Spader
/ |2 R& g3 `9 J# b/ ^       霍利·亨特 Holly Hunter; N4 a- d: M* x: o3 @/ o5 {* o
       伊莱亚斯·科泰斯 Elias Koteas
9 ?2 h7 r' X) N' M% d" k       黛博拉·卡拉·安格 Deborah Kara Unger( z4 [4 S% m6 H0 k9 d8 ^# L
       罗姗娜·阿奎特 Rosanna Arquette# q+ a0 {, E/ J0 X. g# a
       彼得·麦克内尔 Peter MacNeill
1 e" J+ w# _4 ~# L       Yolande Julian  \! C6 G; U; a" P& h
       Cheryl Swarts9 e* W3 k- r) S4 M
       朱达·卡茨 Judah Katz  a( m% K0 V" h) }; |9 N" R
       妮基·瓜达尼 Nicky Guadagni& [# y. p: \* h0 L5 f
       Ronn Sarosiak8 o2 v- u( V  E
       博伊德·班克斯 Boyd Banks
% `  G, I# H0 q: K5 `       Markus Parilo
& C4 n% k( p. i) q       Alice Poon$ E5 F3 N! Q& L
       John Stoneham Jr.5 B4 J7 M& H' n+ R* `- d0 f- B
       大卫·柯南伯格 David Cronenberg7 \) T9 }9 T+ Z6 ?
       乔丹 Jordan+ b- j9 Y! a( G

7 |8 v& ~( B$ O; H" Z◎标  签 情色 | 加拿大 | 1996 | 剧情 | 英国 | 美国 | 惊悚 | 人性
  I8 j, Y6 _4 b5 b
+ h; f- @# R+ u! B* Y5 [5 O◎简  介9 \( ^5 x; m) z8 c1 Z
+ X" O, U! N* d* n: H" x* r
  电影制片人詹姆斯(James Spader 饰)沉迷于性事,在女友凯瑟琳之外尚有不少情人。一次开车回家的路上他与另一辆车相撞,詹姆斯腿部重伤,对面车中的夫妻两人则丈夫死亡妻子海伦(Holly Hunter 饰)负伤,詹姆斯在报废车场偶遇海伦,两人由此结识,不久海伦带他参观了由医生沃甘主持的撞车活动,这些爱好者热衷用真实的撞车还原某些事故,詹姆斯进入了一个匪夷所思的圈子。沃甘身份神秘,宣扬撞车是释放自我的有效途径,为此不惜以身犯险。随着詹姆斯与沃甘的交往不断加深,两人终于在车上发生了关系,而随后沃甘驾车撞击詹姆斯与凯瑟琳却致使自己死亡。詹姆斯大难不死后又驾驶者一辆废旧汽车撞向了凯瑟琳……
3 U* `& R& g# _: [  K$ [
& V* z: M3 C' t9 d* C+ t# s/ a) Q0 v  本片获1996年加拿大吉尼奖导演奖等多项褒奖。
5 U, x* w8 X, {( N, v; t. v9 @7 H1 N4 i& E( n* I
  Unsatisfied by his marriage, James Ballard joins Dr. Helen Remington and begins to explore the eroticism of the car and the sexual violence of auto accidents. His quest eventually leads him to Vaughan, a renegade scientist overcome by the erotic power of the crash.  A) b) E& s3 e) g* ?) D5 A! k

: D" ~1 D2 N8 S; ~# ?◎获奖情况2 r6 A0 \: f0 e( E% P) B7 ?$ t$ M
$ G$ Q) N8 I5 X. g$ y
  第49届戛纳电影节(1996)
# n* |: H/ r: W5 l  主竞赛单元 金棕榈奖(提名) 大卫·柯南伯格
8 s% V* I* O7 w( {8 U5 v  主竞赛单元 评审团特别奖 大卫·柯南伯格
3 s- \" D2 v( j% H$ i% c% `; ~" o2 n% W
Video
% m8 c8 i. W: g. b6 ?ID                                       : 1+ L2 \3 _! z1 O: o
ID in the original source medium         : 4113 (0x1011)
2 u/ P. o. A. n& `  N2 D* WFormat                                   : HEVC
" |* ]+ T& e, O. {9 ~9 q9 b0 jFormat/Info                              : High Efficiency Video Coding
5 l$ w( e2 J& |. x( ^Format profile                           : Main 10@L5.1@High
* q% K8 u& \# D# \1 xHDR format                               : SMPTE ST 2086, HDR10 compatible
, l  h+ y+ r# v; jCodec ID                                 : V_MPEGH/ISO/HEVC
" }6 M/ [, ~4 L# ZDuration                                 : 1 h 39 min7 M* r( l: @* E. T  A
Bit rate                                 : 69.5 Mb/s
8 A( P% n0 U* j. R0 N$ HWidth                                    : 3 840 pixels
5 J* E' k9 z+ WHeight                                   : 2 160 pixels
8 Q- e8 A5 i1 ?+ [Display aspect ratio                     : 16:9& f& u  s+ N. ]/ U1 [' p. |. l
Frame rate mode                          : Constant
# y% X5 i: K, H. HFrame rate                               : 23.976 (24000/1001/37687) FPS
8 s- \' P% ^5 q3 i$ ZColor space                              : YUV; l( y. U9 F) d% R% h
Chroma subsampling                       : 4:2:0 (Type 2)
; c2 s- s# q/ j+ S( }) @; q& d0 m  wBit depth                                : 10 bits; ^2 v* ^2 d8 F  o4 C0 v
Bits/(Pixel*Frame)                       : 0.350+ {% B3 Q! e  {" |4 o/ t
Stream size                              : 48.5 GiB (90%)2 }4 F$ s; X. ?- a7 L$ ]
Title                                    : Crash.1996.UNRATED.2160p.BluRayCD.REMUX.HEVC.DTS-HD.MA.5.1-FGT
5 k% m1 L) E7 y; {6 FLanguage                                 : English4 e" S9 X. I/ _2 b& [
Default                                  : No
9 M: J- }/ [9 p0 rForced                                   : No, I; [/ A5 n$ p! S/ n  X
Color range                              : Limited
$ \) X0 ]# L' ^8 f% m* J0 I! ]5 AColor primaries                          : BT.2020# h& q+ r/ v2 M0 _3 N) t
Transfer characteristics                 : PQ
2 u2 n* \) x  ?- q9 C# xMatrix coefficients                      : BT.2020 non-constant! N* u% n& }% N" h
Mastering display color primaries        : Display P3# f1 @7 K2 X1 _, ~  T
Mastering display luminance              : min: 0.0001 cd/m2, max: 1000 cd/m2
( i8 _6 I% o( x& q/ N& GMaximum Content Light Level              : 1000 cd/m2  `9 I# b; t% e9 s" s9 S
Maximum Frame-Average Light Level        : 400 cd/m2
* J6 J: v- L8 zOriginal source medium                   : Blu-ray
- z' {; @" W& f$ H! H9 X2 ~! Z- N8 H. u
Audio #1
: u& c, J3 n9 g& U- UID                                       : 2" I9 Z1 n3 ]2 ?$ O
ID in the original source medium         : 4354 (0x1102)
- G! E! g" C% a9 ?+ N& MFormat                                   : DTS XLL+ ~1 v( p" n2 l* R
Format/Info                              : Digital Theater Systems
' j5 N" m) {7 g( ~" V* kCommercial name                          : DTS-HD Master Audio
! j5 V6 e! q0 g1 f  ~Codec ID                                 : A_DTS
; D4 ~" x4 i2 b+ XDuration                                 : 1 h 39 min: r* e- Q  I: _( l8 @
Bit rate mode                            : Variable; v0 W' F7 \% U! e
Bit rate                                 : 2 090 kb/s3 g+ y7 V9 l0 h
Channel(s)                               : 6 channels
  o) \5 K4 B; ~( `! w) `' FChannel layout                           : C L R Ls Rs LFE
/ I4 x* X5 n7 ]* bSampling rate                            : 48.0 kHz6 L2 F6 q( z6 d! b, V
Frame rate                               : 93.750 FPS (512 SPF)2 m8 ?+ [- l0 @3 K  n
Bit depth                                : 16 bits& a* g3 P, Y$ h7 c# k" O+ q" B+ n
Compression mode                         : Lossless; H% l. L0 T, W, r/ T
Stream size                              : 1.46 GiB (3%)
, N1 X4 K3 |% V! I# ~( |2 ?Title                                    : Crash.1996.UNRATED.2160p.BluRaycd.REMUX.HEVC.DTS-HD.MA.5.1-FGT. N" ~- m- \, T5 P5 P
Language                                 : English8 x, F1 Z5 V/ M" F
Default                                  : Yes) ]: K; C5 y6 i1 G
Forced                                   : No
* Y; _; C. I$ l  |3 I2 z! m4 tOriginal source medium                   : Blu-ray8 R- }7 v' e: w0 n7 B

8 M' ?7 N$ w( t4 n& p- b+ _1 pAudio #2. u7 @+ l8 J7 g5 n2 v! G0 G# F3 X
ID                                       : 3. o$ R. M" P7 O7 P/ s1 ?' A/ U
ID in the original source medium         : 4355 (0x1103)8 v2 `# Y! u6 T  D2 Y& _# M. P. s- K- t
Format                                   : DTS XLL
9 C6 b, b3 x) T: ]$ h$ e# qFormat/Info                              : Digital Theater Systems
( l' h3 t, f; z( kCommercial name                          : DTS-HD Master Audio+ o/ ~8 F4 ]% [+ E0 o1 B
Codec ID                                 : A_DTS
' \6 K! c0 H2 }+ DDuration                                 : 1 h 39 min
: B- @4 t' ~* }" R$ x$ |Bit rate mode                            : Variable
: Q  J& a8 k0 @6 n% EBit rate                                 : 1 752 kb/s' R9 M; G: c) H  h, K- Y  a
Channel(s)                               : 2 channels$ k* X( g& d, H* _0 H2 B) n
Channel layout                           : L R
" \3 `: f# t( n, ^. |, }/ g' k( TSampling rate                            : 48.0 kHz
  @/ |' M7 Q8 C  g: p+ ?Frame rate                               : 93.750 FPS (512 SPF)
& t" h" d1 U7 J4 ^( ABit depth                                : 16 bits
; D( b9 G. x# l" s* |% E4 K9 ZCompression mode                         : Lossless# e% v9 u) ?6 U  a9 w, [; }
Stream size                              : 1.22 GiB (2%)" i) T. d: J$ O" D5 ^8 i9 L
Title                                    : Crash.1996.UNRATED.2160p.BluRaycd.REMUX.HEVC.DTS-HD.MA.5.1-FGT. \" t: f. [: |) U+ N
Language                                 : English- }, _" e* H  g" @4 u& s0 }
Default                                  : No
( e: A2 B/ S. P2 s6 ]8 }Forced                                   : No
2 j/ P4 s; n0 ?! q/ s) f" V& nOriginal source medium                   : Blu-ray' x4 ?+ {* z  }5 `$ z. U

3 p1 b8 W) v5 }Audio #3
8 ?1 U3 D* v# d* T; uID                                       : 4
/ [3 N! N3 \4 m6 T3 EID in the original source medium         : 4352 (0x1100)6 O, L/ X, D  _$ E- w  z+ {' |* I* @
Format                                   : DTS XLL1 d# {# p6 w0 B$ t4 `8 }
Format/Info                              : Digital Theater Systems  M; ^% Y+ ^! G% d3 r& G
Commercial name                          : DTS-HD Master Audio6 i3 L9 u1 Y& D2 c: t! N' I, F
Codec ID                                 : A_DTS& J* h: ], ?1 d% ^/ `
Duration                                 : 1 h 39 min+ q1 Q, X4 a' J8 \. s- k
Bit rate mode                            : Variable# O' V+ W( G  f% q4 X, [
Bit rate                                 : 2 243 kb/s
$ s& o3 ^3 G* ^9 x) G. ]Channel(s)                               : 6 channels: x0 o6 U2 e3 d& @
Channel layout                           : C L R Ls Rs LFE3 W+ i( w: Y, j" W! A
Sampling rate                            : 48.0 kHz
) l9 R2 I- q2 SFrame rate                               : 93.750 FPS (512 SPF)
( n6 s8 I. d/ f7 M6 t8 y7 C& w4 N' _Bit depth                                : 16 bits
" b/ }0 m, X; a; }. U' yCompression mode                         : Lossless. F" [# _5 H$ _5 e- f( }
Stream size                              : 1.56 GiB (3%)
. G- O$ b( C8 Z) ITitle                                    : Crash.1996.UNRATED.2160p.BluRaycd.REMUX.HEVC.DTS-HD.MA.5.1-FGT( n1 h2 v& T. u7 i, e' W
Language                                 : German
! e+ e- J; @! \, L0 sDefault                                  : No; ^) j, m' _5 n/ ?, g" N$ D7 c
Forced                                   : No7 }; k4 \: u* J1 d2 h* U
Original source medium                   : Blu-ray
0 S" D$ [; w8 g3 C/ v! l' H7 g- Q( f; I) N
Audio #4) |! t, [. L' `
ID                                       : 5
1 |" T4 u5 X  K) nID in the original source medium         : 4353 (0x1101)
$ z  k+ X9 a7 |7 u- Q; ?8 J% dFormat                                   : DTS XLL% O. Z- N5 q1 k, W) c% m
Format/Info                              : Digital Theater Systems$ D$ W* a6 U% o( }
Commercial name                          : DTS-HD Master Audio4 c' _( c$ C1 d
Codec ID                                 : A_DTS
$ ?! N" ~  Y+ a; yDuration                                 : 1 h 39 min
+ U' W( W; o& y8 d. i. `; E6 iBit rate mode                            : Variable- A% T- g( s" \- l+ l
Bit rate                                 : 1 732 kb/s
% F- g* n& M9 Y. O/ I: y; }3 {2 XChannel(s)                               : 2 channels
3 S/ H6 z# L" p& c% Z5 ?Channel layout                           : L R
2 I6 G: X2 b9 V) m, nSampling rate                            : 48.0 kHz
, p7 E# A  J8 P( C+ d7 q6 nFrame rate                               : 93.750 FPS (512 SPF)( {, G! \, m1 k. E) U& \
Bit depth                                : 16 bits
2 u* h! J, h% y/ QCompression mode                         : Lossless
) \5 K7 s3 B( e1 D5 IStream size                              : 1.21 GiB (2%)( N2 w$ a+ J' @1 H1 F& h6 Z# |
Title                                    : Crash.1996.UNRATED.2160p.BluRaycd.REMUX.HEVC.DTS-HD.MA.5.1-FGT- I* J- H% A3 K2 C9 l
Language                                 : German/ g' s  c  h8 h4 M2 x
Default                                  : No
3 {: Y1 l" Y6 AForced                                   : No
8 P# K5 l- T* s5 Q  @3 Z9 j- dOriginal source medium                   : Blu-ray( l. z" n% L- F6 V2 n, b: v

8 @3 L; n0 ^; k" }Text #1
  M( M# x5 H6 Z: t- U! FID                                       : 6- g: \: m! N6 o  r) a) `
Format                                   : UTF-8
' d& T* @$ N3 A& b& dCodec ID                                 : S_TEXT/UTF8% _7 v9 P  {( V; |
Codec ID/Info                            : UTF-8 Plain Text
. T4 |7 P) I$ C/ r( T- E- gDuration                                 : 1 h 30 min8 j$ g, \" k+ q* j0 m
Bit rate                                 : 21 b/s5 {* c5 o9 m4 T$ O
Count of elements                        : 433
# D2 q6 e4 E5 ^6 w3 [Stream size                              : 14.0 KiB (0%)
4 h) c2 X  Q) H0 XTitle                                    : English-SRT7 E( w0 T1 p. c* |1 E- U! {
Language                                 : English- v9 x3 E- c5 G. x+ Y, g6 m
Default                                  : Yes
3 T. O- E0 ^! JForced                                   : No
% f; a  {5 H4 J' o
# V. H: J# V8 Q( U, GText #2& c# R! I+ |3 s4 A# `0 L
ID                                       : 7
! a4 u& X, V. X" j8 k% nID in the original source medium         : 4769 (0x12A1), ?5 F- j! p# S2 L) V  a8 j
Format                                   : PGS5 V" d% f5 ^  W. V# k" a1 I
Muxing mode                              : zlib
/ d3 [" i( m, \) W0 ^1 o1 q# SCodec ID                                 : S_HDMV/PGS( n6 g7 Q# W+ |* R+ x- h) G
Codec ID/Info                            : Picture based subtitle format used on BDs/HD-DVDs
9 l% F9 z6 ~$ N# h6 H- x; UDuration                                 : 1 h 30 min4 a+ ]; d2 A/ U% ?
Bit rate                                 : 13.9 kb/s
, [3 z5 j! q$ N2 [3 JCount of elements                        : 8682 Y  x1 T5 K" d" B, ?
Stream size                              : 8.98 MiB (0%)
$ g) x$ d7 Z1 d8 d+ k" ^2 A, eTitle                                    : English-PGS
' y6 F  f. H! ?# ?: H/ nLanguage                                 : English* M) }3 V) d8 s! K, K
Default                                  : No0 N. I% ~6 x. E9 L9 N9 e
Forced                                   : No
( R# u* S4 ^4 V" o$ I( xOriginal source medium                   : Blu-ray' s6 M( F% D  k6 G
, }* m' G+ s( f! W- o& l* R
Text #3
1 }! ~$ c9 ^% H/ o! g9 _# c0 |ID                                       : 85 {2 K& x" m" T; H, x
ID in the original source medium         : 4768 (0x12A0)
- B+ D0 s  Z4 n* V0 G: T- JFormat                                   : PGS$ H2 v% n9 ?4 K" i) v% n6 q* s4 w
Muxing mode                              : zlib
" x2 L( V9 R/ z; c6 mCodec ID                                 : S_HDMV/PGS
# w. A. K+ M1 }  q0 dCodec ID/Info                            : Picture based subtitle format used on BDs/HD-DVDs
' @& }  w$ }7 e0 _: s) tDuration                                 : 1 h 30 min
7 _) B: C% l* t* e5 cBit rate                                 : 16.0 kb/s
# C  T2 g/ I6 S. d- ^: z7 Q9 z5 Y  NCount of elements                        : 814
" A# f4 z0 m% a: P4 m% k  }6 W" bStream size                              : 10.3 MiB (0%)( I) Y8 T( B! }# J* h' v& u2 S
Title                                    : German-PGS% M+ n) T- B5 ^4 s  E( O
Language                                 : German
7 k( |) Y& G, E# @+ m. CDefault                                  : No, Z# W5 l6 d  W, X. w: P
Forced                                   : No' W& e! K) |/ r
Original source medium                   : Blu-ray
# e. m9 w$ {; S$ G
# f$ K6 M! W# Q& k5 |Menu
) q9 `8 s$ F- n/ [: _8 O8 d00:00:00.000                             : en:Chapter 012 g( \3 L/ ^8 y1 C0 z6 }7 G. D' j) `
00:02:46.916                             : en:Chapter 02
1 t, D: T$ G/ l  U! y( D" q& b00:06:46.906                             : en:Chapter 03
6 x3 `- y) T; a/ I00:11:00.117                             : en:Chapter 04  G+ r3 s! r2 [8 m5 x. Z
00:16:08.258                             : en:Chapter 058 h+ @* F( E/ s- x
00:20:09.750                             : en:Chapter 06
  c$ S6 O4 O) q( j00:25:23.647                             : en:Chapter 07& |% R- l' v4 p
00:33:52.905                             : en:Chapter 08
, a; O" }7 X, G2 h00:36:54.378                             : en:Chapter 09
" b7 s; ~4 Z8 }$ L3 l1 d# m00:40:40.896                             : en:Chapter 103 H3 L1 f0 r. G# \; }$ v/ d+ i
00:50:50.088                             : en:Chapter 111 S4 p; T$ ]* B* Q- J
00:58:03.313                             : en:Chapter 12
8 g- j# [) q( Y. V/ L$ Y01:04:39.208                             : en:Chapter 13( I- c5 U) |8 n( P
01:11:25.114                             : en:Chapter 14+ R; u* C0 M8 C. c0 Y, \
01:17:03.285                             : en:Chapter 15
0 n" a7 e9 ^- b0 e8 L2 O01:24:38.073                             : en:Chapter 163 d  p. @) E  o
01:30:27.964                             : en:Chapter 17
1 K( O9 u# n% G& G4 ]# \; W01:36:14.351                             : en:Chapter 18

4 I$ Q" c7 b$ e; u) R
游客,查看本帖隐藏内容请回复 | 加入VIP贵宾组可免积分免回复下载 立即了解 | 还不是会员:点击获取邀请码 Invitation Code

35

主题

999

帖子

3807

积分

Sponsor

金币
434 枚
体力
1334 点
lanpanshuma 发表于 2020-6-9 06:54:12 | 显示全部楼层
啥也不说了,楼主就是给力!
8 D) O( N% a3 C1 r1 cBlu-ray Film Forum: I will always support you!
6 p, `3 s5 Z+ C/ E
该会员没有 ...

553

主题

1677

帖子

1万

积分

VIP advanced

金币
1278 枚
体力
3892 点

公主勋章卓越贡献勋章

21cn 发表于 2020-6-10 01:37:23 | 显示全部楼层
楼主发贴辛苦了,I*老*虎*U!( f$ W7 P+ P& i
至少是现在,我一天没有访问蓝光电影论坛就不爽!At least now, my day did not visit the Blu-ray Film Forum on unhappy!
% i2 h5 B+ h9 B& Q5 F8 b7 g% i

本版积分规则

小黑屋|Archiver|蓝光电影资源网

GMT+8, 2020-7-5 14:59

快速回复 返回顶部 返回列表