BluRayCD Forum

 找回密码
 立即注册【分享大片】

QQ登录

只需一步,快速开始

查看: 75|回复: 7
收起左侧

[蓝光原盘] 高空7500/空中危机 [REMUX原盘] 7500 2019 1080p BluRaycd REMUX AVC DTS-HD MA 5.1-FGT 23.70GB

[复制链接]

7672

主题

7866

帖子

6万

积分

Forum Moderator

金币
10250 枚
体力
9331 点

卓越贡献勋章

24小时 发表于 2020-6-20 19:40:53 | 显示全部楼层 |阅读模式
01.jpg 6 J: }+ F  u9 V/ `! K  ^8 ]6 x; U
3 V# e5 g5 F! n1 w0 [: ~6 j2 ]
◎译  名 高空7500/空中危机
/ N( x0 g+ ]; ~0 Y◎片  名 7500
( d$ h3 [) ?$ r8 l  S- |/ \◎年  代 2019
. _% Y" {; i" b' f7 ]: H+ E% m8 \◎产  地 德国/奥地利/美国- b0 q7 X2 @2 k/ e
◎类  别 剧情/惊悚" N( Z* p4 c7 h3 _8 r' I
◎语  言 英语/阿拉伯语/土耳其语/德语
9 `7 a/ {1 G- U$ p) ^9 A◎上映日期 2019-08-09(洛迦诺电影节)/2019-12-26(德国)/2020-06-19(美国)
  N8 m7 U0 @9 ^) p. E◎IMDb评分  5.9/10 from 2,438 users
- Y. _+ [0 L" v) S1 k9 ^◎IMDb链接  https://www.imdb.com/title/tt6436726/
+ a0 D0 ^+ P; K1 E; O◎豆瓣评分 5.3/10 from 173 users7 Z/ \3 F/ m0 u3 y0 Z) o
◎豆瓣链接 https://movie.douban.com/subject/26957934/; P2 g7 X) \% |
◎文件格式 x264 + DTS
. p7 j9 Y4 ^" j- t0 t1 O+ M◎视频尺寸 1920 x 1080
* C% A0 h9 k5 z; [6 O◎文件大小 1DVD 23.73 GiB$ e' f0 a& s3 S" P- w
◎片  长 1 h 33 min
+ c3 A% ]2 J' r7 w/ }◎导  演 帕特里克·沃尔拉斯 Patrick Vollrath" d/ u- y& G6 ], p
◎编  剧 帕特里克·沃尔拉斯 Patrick Vollrath4 Q! R( U( a8 C$ J6 X& |
       Senad Halilbasic
6 q1 e5 ^: D% Z! v( O( g◎主  演 约瑟夫·高登-莱维特 Joseph Gordon-Levitt
9 t& u# H/ m  z       艾琳·特策尔 Aylin Tezel$ _( R' J+ P2 _% i; g
       穆拉桑·木苏鲁 Murathan Muslu
# |# U; Z0 J9 Q. T5 w       克里斯蒂安·斯基宾斯基 Christian Skibinski
( ~& e# a4 p- U( b% d5 e       尼诺·波尔齐奥 Nino Porzio
1 a9 E) {5 k! R1 R       克里斯蒂安·斯基宾斯基 Christian Skibinski
9 `% U3 |* H. M, `) v8 h* A       Max Schimmelpfennig
' q, z. u  R+ y9 Q       Aurélie Thépaut0 d, I$ N- q7 a7 X$ a! ]
       Omid Memar
0 A5 l4 X1 a0 V9 X       Paul Wollin
1 a1 t( P5 O3 t       Denis Schmidt, Z9 G- q, X$ |; p
       Passar Hariky
- d% J! c* A+ z% e6 V2 B, |       Christoph Wielinger" c# B' c  K& O
       Anna Suk
2 T  }. f! U. W7 K' m% f: z& u       Mario Klischies* i6 D* D2 M; l6 @

9 B# q1 G% y- q' u! q+ ?8 u◎简  介  ! W' Y3 [( @9 [0 @! r+ M9 c

9 F5 D* h& W3 s5 k2 @" J. g  A pilot's aircraft is hijacked by terrorists.3 i9 ~! v' t: f7 Q3 y% X
, @' z2 [3 G8 P% g' j) m) n8 H
  莱维特饰演副驾驶员Tobias Ellis,在柏林飞巴黎的商务之旅途中,遭到用玻璃瓶武装的恐怖分子劫机,Ellis必须要保证全机人安危,同时与恐怖分子谈判。7500是飞行员在遇到劫机时使用的代码,它在不提示劫机者的情况下,无声地向空中交通管制员发出警报。
' ^2 [& U* v' B, M: q5 q7 ]% p7 i7 R
  德国导演Patrick Vollrath首导剧情长片,他执导的短片《Everything Will Be Okay》曾获2016年奥斯卡提名。
9 }1 t$ ~! l. ]% `8 t# l! N( j7 L' K( f+ s4 v. ^2 u, a: x+ q1 a
◎获奖情况  
8 v2 _: a, e; @9 D2 y
# o. h- p6 X$ \* F$ k  第72届洛迦诺国际电影节(2019)9 G- |3 g! C; x& _
  Variety Piazza Grande Award(提名) 帕特里克·沃尔拉斯- g6 F& N7 W! [- I" |$ ~
Video4 s9 [  c1 @# x" j6 ?
ID                                       : 1" P& w' `3 M( o0 e' X! w+ C5 H
ID in the original source medium         : 4113 (0x1011)
% |, }+ c7 J! s9 mFormat                                   : AVC# B4 s5 p; G# H# s2 E
Format/Info                              : Advanced Video Codec
8 g! S4 e! ?8 b/ S: XFormat profile                           : High@L4.13 g9 ^! H! L1 Q+ F3 U
Format settings                          : CABAC / 4 Ref Frames0 o7 E  Z: `" K, q/ x* {% \& V
Format settings, CABAC                   : Yes, `# C3 S) q) h" q% S) T3 V4 a
Format settings, Reference frames        : 4 frames: ]- ~6 ~4 ?. F# x) s
Codec ID                                 : V_MPEG4/ISO/AVC
  E, c2 \0 a8 q- P* k1 J7 YDuration                                 : 1 h 33 min
. r+ k  E$ e) x2 n, U2 d1 wBit rate mode                            : Variable& H! [5 H7 z4 e( q1 K. B2 I# _% n
Bit rate                                 : 32.4 Mb/s/ P# f: L( d# N  |" ^; B
Maximum bit rate                         : 36.4 Mb/s
3 T* y* e: ?" N  `Width                                    : 1 920 pixels
6 ^3 K% k  \4 |1 t8 o  I( XHeight                                   : 1 080 pixels6 Y) @& P3 h8 }' |8 G: @/ [6 F
Display aspect ratio                     : 16:9
' _) f3 R% @& m8 u$ \& uFrame rate mode                          : Constant3 P% s6 A" `6 t: |5 u
Frame rate                               : 24.000 FPS6 O0 y9 ~/ R8 U# I9 w+ V- S4 g
Color space                              : YUV
! K; `; \; L8 C$ o# s$ uChroma subsampling                       : 4:2:0- d( B" z" f& \
Bit depth                                : 8 bits8 r& d5 c7 r) j  ?
Scan type                                : Progressive) h6 k% o0 T& L" {) R0 H3 D
Bits/(Pixel*Frame)                       : 0.651
3 y6 `! c" w' V+ i0 FStream size                              : 21.1 GiB (89%): w1 u( }; g  @! F+ }
Title                                    : 7500.2019.1080p.BluRayCD.REMUX.AVC.DTS-HD.MA.5.1-FGT
+ |) ~* ]4 @4 u! e) w/ dLanguage                                 : English) H4 B, H" D9 d( |' V7 U7 l' a3 D
Default                                  : No
: Z6 T( X* o  {2 }0 f# y, hForced                                   : No0 _4 \2 I6 Z  ^  D4 \/ N
Original source medium                   : Blu-ray
+ _9 l7 F0 w, B; r3 L6 |' y- r9 X: D- I
Audio
# S" A$ ]7 d1 f; |9 `1 I0 Y7 GID                                       : 2
+ C1 @5 K0 m& R( u( x' ]& sID in the original source medium         : 4353 (0x1101)) m& Y- z2 ~5 j" }
Format                                   : DTS XLL6 B* E9 F; r: _/ u, h
Format/Info                              : Digital Theater Systems( [; t4 Y1 X; N9 [* @
Commercial name                          : DTS-HD Master Audio  f$ ~% k: x+ k
Codec ID                                 : A_DTS% ^- t, p8 p9 z2 I  q
Duration                                 : 1 h 33 min
. w1 ~& T5 p7 `7 Q" pBit rate mode                            : Variable" z4 H  b7 b! o# K
Bit rate                                 : 4 043 kb/s! R: B( `6 V( d# m; {- r
Channel(s)                               : 6 channels
; J3 w- X( i4 x: q# z- ?3 pChannel layout                           : C L R Ls Rs LFE- ?8 r6 g5 B9 |9 N) e6 o6 p6 e
Sampling rate                            : 48.0 kHz2 O2 f, @+ U6 {$ D
Frame rate                               : 93.750 FPS (512 SPF)8 i, L1 C5 _. m9 N$ M6 h
Bit depth                                : 24 bits. s, q" b3 q& X( Y& M3 W. x: h* a
Compression mode                         : Lossless
" p& `# x# u7 p* @4 C& Q" \# BStream size                              : 2.63 GiB (11%)
1 ~; J' ?1 l0 r, ~Title                                    : 7500.2019.1080p.BluRaycd.REMUX.AVC.DTS-HD.MA.5.1-FGT' O) Z/ D! k/ p9 X7 Q7 z" H
Language                                 : English
0 {9 o+ |) X: \. {/ Z5 n$ t% B: ^Default                                  : Yes
0 U4 I4 ?, `% R9 E. V5 j/ hForced                                   : No, V1 ?! h7 S5 x  P+ {  S6 E
Original source medium                   : Blu-ray
; u, I% @  `3 a7 y5 n  o# O. p4 \
- [1 ]: `4 W# B# c8 I$ PText #1/ \* n" t0 I& I; ?! ~* c, x; a
ID                                       : 35 n- o3 H& B8 d+ G
Format                                   : UTF-8
6 C8 ~' |) |# v9 c( i9 b7 nCodec ID                                 : S_TEXT/UTF8; e& @% }$ r. d& A% n( u5 c
Codec ID/Info                            : UTF-8 Plain Text
0 ]0 F* A/ I4 T# d, kDuration                                 : 1 h 24 min" u: l+ ]4 Z! C& k8 c  a/ N
Bit rate                                 : 19 b/s9 k! V) E! k4 j5 A  W9 B
Count of elements                        : 326+ J% ^( m6 X: F, Z
Stream size                              : 12.3 KiB (0%)
# u3 X1 i, W) A: PTitle                                    : English-FORCED-SRT, i3 f4 y. [5 _$ }/ @; L6 ^
Language                                 : English% ^$ k2 t4 I3 [
Default                                  : Yes8 g8 n$ \" @9 t5 V  Y9 d/ R
Forced                                   : No7 |0 @( A2 m: M( N

+ }8 v; V( b( a4 l( _/ E9 G: GText #2
! [- n/ l/ w8 s3 G5 N9 XID                                       : 4
% S! x2 i+ O* `1 H2 xID in the original source medium         : 4611 (0x1203)
9 |! l+ l- Y- r, o  Y) C. S" }Format                                   : PGS
) {! K$ _8 E  R2 j3 B3 yMuxing mode                              : zlib
) P5 p" B) }4 a7 X( QCodec ID                                 : S_HDMV/PGS9 p0 F' z) S) H; ?
Codec ID/Info                            : Picture based subtitle format used on BDs/HD-DVDs) q8 P- f, L, l7 H
Duration                                 : 1 h 24 min
' {/ F; T6 W9 y3 {4 cBit rate                                 : 9 809 b/s
2 L$ d9 K: z/ P; b. H# e: }: w) NCount of elements                        : 652! R% j4 j% k' _8 c/ S1 W8 S
Stream size                              : 5.92 MiB (0%)
5 C: l- L$ ^3 w: y' `, LTitle                                    : English-FORCED-PGS5 p4 [/ f- y( X# h9 S7 d% [# e$ V
Language                                 : English
) y  ]# M2 p7 T! P  EDefault                                  : No
& j! u0 V; b. R0 q  f7 M) W- PForced                                   : No
- P$ p! I- e( f7 \8 l' pOriginal source medium                   : Blu-ray. s  n& X0 b' l+ ?# l
6 k: Z$ h6 T5 ]0 J7 s9 [
Menu" Y7 s2 K! o/ d/ e, k) x
00:00:00.000                             : en:Chapter 01
4 J1 d# w& Z0 e! x1 W; _; A6 T. S00:13:02.166                             : en:Chapter 02- A1 V. @5 V; u
00:24:17.416                             : en:Chapter 036 |, }, o  j9 Y( {& p! A8 ?
00:35:51.958                             : en:Chapter 04+ C% I2 c% |' l0 ?/ p( `
00:44:50.125                             : en:Chapter 058 h$ y' e7 n' N) ~6 v1 M/ B, x
00:55:39.875                             : en:Chapter 06
) C  z( v& Q. F0 \4 A5 e. y; v; k01:09:33.916                             : en:Chapter 07
1 ^3 w& F/ x& q- x+ O2 ]" Q01:21:56.541                             : en:Chapter 08
5 \" T0 v: H# l6 x- {! i7 _
游客,查看本帖隐藏内容请回复 | 加入VIP贵宾组可免积分免回复下载 立即了解 | 还不是会员:点击获取邀请码 Invitation Code

0

主题

339

帖子

1761

积分

Sponsor

金币
14 枚
体力
1130 点
QQ
sunday_119 发表于 2020-6-21 00:36:49 | 显示全部楼层
啥也不说了,楼主就是给力!
3 ^6 m0 {; l3 x+ {- ~Blu-ray Film Forum is now my home!9 ^5 ~5 j! x7 J3 U+ {

2

主题

627

帖子

2673

积分

Sponsor

金币
586 枚
体力
907 点
tto138 发表于 2020-6-21 21:17:27 | 显示全部楼层
其实我一直觉得楼主的品味不错!呵呵!
. J; T8 W) T% h7 Z, c* k3 s9 y( OBlu-ray Film Forum: I will always support you!8 ]9 C8 W9 {8 K0 x  z0 u

1

主题

97

帖子

491

积分

Sponsor

金币
76 枚
体力
190 点
wyyo 发表于 2020-6-22 09:36:38 | 显示全部楼层
楼主发贴辛苦了,I*老*虎*U!4 a  W& C; X1 U6 R' |) d
bluraycd forum, a lot of Blu-ray movies!
" u  \) f; j1 Z# v

1

主题

97

帖子

491

积分

Sponsor

金币
76 枚
体力
190 点
wyyo 发表于 2020-6-22 09:37:59 | 显示全部楼层
膜拜神人,后来者请保持队列……!3 T$ x: [0 |1 z! u) z
In fact, I have always felt that the landlord of good taste! Ha ha!
6 c3 @' e, n1 k* y  }3 ?

0

主题

321

帖子

1703

积分

Sponsor

金币
581 枚
体力
424 点
huayoujing 发表于 7 天前 | 显示全部楼层
膜拜神人,后来者请保持队列……!
; q: m' D% }* L- r, {: \, [Blu-ray movies Community: my favorite!/ d$ A" V. ~2 Z% N! ?5 x9 @7 j

0

主题

16

帖子

249

积分

Sponsor

金币
103 枚
体力
107 点
halo117 发表于 7 天前 | 显示全部楼层
Bluraycd又有新电影发布了,激动中……!4 J" E! p% m# q9 V& Y
Bluraycd.com movie updates really fast, also did not release issued, whether you believe it or not, anyway, I believed!

1

主题

275

帖子

1010

积分

Sponsor

金币
34 枚
体力
451 点
firendzhon 发表于 昨天 19:16 | 显示全部楼层
空中危机谢谢分享
2020第一天 ...

本版积分规则

小黑屋|Archiver|蓝光电影资源网

GMT+8, 2020-7-5 15:47

快速回复 返回顶部 返回列表