BluRayCD Forum

 找回密码
 立即注册【分享大片】

QQ登录

只需一步,快速开始

查看: 19|回复: 1
收起左侧

[4K极清电影] 史密斯先生到华盛顿 [4K REMUX无损版 自带中字] Mr Smith Goes to Washington 1939 2160p BluRaycd REMUX HEVC DTS-HD MA 2.0-FGT 53.20GB

[复制链接]

4310

主题

4468

帖子

5万

积分

Post Share

金币
7979 枚
体力
16161 点

卓越贡献勋章

A naive man is appointed to fill a vacancy in the United States Senate. His plans promptly collide with political corruption, but he doesn't back down.
2 O3 y$ n- ^4 {$ ^7 J- v: `2 M0 K! q. n) f! w  j% j

( m" |& v) S( [& v# W9 K3 g
  c! q. g" F9 B8 L◎译  名 史密斯先生到华盛顿/华府风云(台)/史密斯先生上美京/史密斯游美京/民主万岁- J. H, |  M7 ]8 B- v  G  e& ]1 _
◎片  名 Mr. Smith Goes to Washington / Frank Capra's Mr. Smith Goes to Washington  f* j# W0 [: b" r; Q; E4 u
◎年  代 1939( s& O! N4 f* p8 O* H( e/ U2 `
◎产  地 美国
/ r% y( [% H' Q4 F◎类  别 剧情- i* M6 [+ d9 j+ R+ K! }
◎语  言 英语/ i& K+ b4 r# P. g$ O+ B2 ~
◎上映日期 1939-10-19, G3 ^/ ?3 m8 ?$ A, }
◎IMDb评分  8.1/10 from 103,608 users
! G. v9 _  Y) I% R9 d◎IMDb链接  https://www.imdb.com/title/tt0031679/! A6 v1 }7 z* L9 M" U8 W( o) Y
◎豆瓣评分 8.7/10 from 8,084 users
8 m+ U6 r3 r& j* ?◎豆瓣链接 https://movie.douban.com/subject/1297127/6 ~0 D" D! [. w6 ~/ Z! T
◎文件格式 x265 + DTS7 L! N& j, D' J* ?. k3 V: Q2 M# C
◎视频尺寸 3840 x 2160
' f+ O: p4 I& E9 v, D& K$ r◎文件大小 1DVD 53.20 GiB' h0 N# t; M! s! i  d
◎片  长 2 h 9 min5 ~0 p+ l# B" ?2 y+ ]4 H
◎导  演 弗兰克·卡普拉 Frank Capra- @4 o5 l- c  B3 |
◎编  剧 西德尼·巴克曼 Sidney Buchman- w& G1 u2 P' o6 e8 _
◎主  演 詹姆斯·斯图尔特 James Stewart7 |1 o" i& x4 E* A# @3 X! [+ A  W
       琪恩·亚瑟 Jean Arthur
' C/ A, k9 c; g  o       克劳德·雷恩斯 Claude Rains
0 d) |* w% U- h8 `, ?4 g       爱德华·阿诺德 Edward Arnold0 e8 r0 j: @- G% \2 C
       托马斯·米切尔 Thomas Mitchell
' J; O0 C7 Y' w. \5 m1 \" J  @- v  D: R) F0 P" x
◎标  签 美国 | 政治 | 励志 | 经典 | JamesStewart | 美国电影 | 1939 | FrankCapra
; C3 A- R% u3 f2 b+ t" c+ _" i; [' ?+ f& ^! X
◎简  介  
: {3 s) j- ^& u! ~1 h
5 _6 g3 O8 l9 H2 k, ?3 m" B  美国的一个小镇,Jefferson Smith(詹姆斯·斯图尔特 James Stewart饰)是当地的童子军的首领,深受青少年们的喜爱,被选为新的参议员,来到了华盛顿。遇到了他父亲的老朋友,同为参议员的Joseph Paine(克劳德·雷恩斯 Claude Rains饰),并且迷上了Joseph的漂亮女儿。单纯的Jefferson从来没来过华盛顿,在华盛顿闹了不少笑话,被媒体纷纷取笑。Joseph让Jefferson起草一个提案,并让他的女秘书Clarissa Saunders(琪恩·亚瑟 Jean Arthur 饰)协助Jefferson。然而Jefferson却发现,他的这个所谓参议员不过是其他老谋深算的参议员手中的木偶,他发现了他们一个巨大的阴谋。Jefferson决定以自己单薄的力量来对抗那群人,来改变这个腐败的政治环境。到底他能否成功?史密斯先生的华盛顿之旅会如何结束?
( ~  k/ }3 t9 ?' c* c5 @$ N/ n1 S" I8 T0 I4 M4 Q
  本片获第11届奥斯卡10项提名,赢得最佳原创剧本一奖。
! a: }9 x$ s" ?9 D
& F2 X, q  _, K5 Y* s: D  When the idealistic young Jefferson Smith (James Stewart) winds up appointed to the United States Senate, he gains the mentorship of Senator Joseph Paine (Claude Rains). However, Paine isn't as noble as his reputation would indicate, and he becomes involved in a scheme to discredit Smith, who wants to build a boys' campsite where a more lucrative project could go. Determined to stand up against Paine and his corrupt peers, Smith takes his case to the Senate floor.0 ~8 ]$ X5 \& W2 W9 y9 @- T5 v; S

' d( s( U; K4 m0 V& s◎获奖情况  
% j' q* C8 N0 C  ^( {# |! `$ H; j3 @% u) V7 W4 w9 w0 i
  第12届奥斯卡金像奖(1940)
! \: A" p5 {; D/ f- m  最佳影片(提名)# a, }! f* u5 P. r2 f( C
  最佳导演(提名) 弗兰克·卡普拉% O  j/ _) Y+ X
  最佳男主角(提名) 詹姆斯·斯图尔特: ^0 B  e: x5 I% E  h3 ^9 J
  最佳男配角(提名) 哈里·凯瑞 / 克劳德·雷恩斯$ D/ v1 @+ V9 r
  最佳原创故事 刘易斯·R·福斯特
4 n# y- g7 W$ ^$ x5 c  最佳编剧(提名) 西德尼·巴克曼* Q0 E: a9 X% f( \  Z4 @9 Y
  最佳剪辑(提名) Gene Havlick / Al Clark/ H/ o6 t7 z* U9 p9 ~
  最佳录音(提名) 约翰·P·莱伐达莱
7 k0 V& x" x9 O* M/ P9 V' O  最佳艺术指导(提名) 莱昂内尔·班克斯
+ k5 j/ |. Q/ o1 {: ~  最佳配乐(提名) 迪米特里·迪奥姆金  e( m: v( x6 _" v' z
: k  E3 K2 [/ [+ N" E
Video
: F* w3 U, Z* L  C# |+ m! {  NID                                       : 10 f  e' E+ S+ b& L8 T1 L: H& u
ID in the original source medium         : 4113 (0x1011)* `# G5 e, v6 x, {  p6 a
Format                                   : HEVC
4 ]3 j8 j2 Q. MFormat/Info                              : High Efficiency Video Coding
7 {! Y4 D2 J* R  NFormat profile                           : Main 10@L5.1@High2 q$ o7 ^6 ~. \
HDR format                               : SMPTE ST 2086, HDR10 compatible
  R' N/ L" d' G( S3 ]: c- OCodec ID                                 : V_MPEGH/ISO/HEVC
7 h+ w  b" e% k% kDuration                                 : 2 h 9 min  K2 V) v$ O5 r5 T- u6 @
Bit rate                                 : 51.3 Mb/s# U6 S; v7 G( ]6 R) P) h
Width                                    : 3 840 pixels
& D( f0 I( ?3 H/ g( Y% S0 I+ w; b* KHeight                                   : 2 160 pixels+ g  p5 y4 ^+ q$ Q# O
Display aspect ratio                     : 16:97 P5 P6 l, T4 h6 \4 V4 @' R, b
Frame rate mode                          : Constant
8 C3 u" p& C; t0 l9 FFrame rate                               : 23.976 (24000/1001/37687) FPS& r% s* _, E3 C6 h% Q4 f
Color space                              : YUV
# L0 z4 {) e+ s5 R, OChroma subsampling                       : 4:2:0 (Type 2)
* _2 j! x: d9 d' DBit depth                                : 10 bits
" d9 @; a: L* D- vBits/(Pixel*Frame)                       : 0.258
  ?" p) T0 |- l3 vStream size                              : 46.5 GiB (87%)
4 h) \. Y9 k& ]0 p, I1 TTitle                                    : Mr.Smith.Goes.to.Washington.1939.2160p.BluRayCD.REMUX.HEVC.DTS-HD.MA.2.0-FGT; d2 l3 C2 s  i: G7 X$ w- q/ k
Language                                 : English
7 l9 S( x2 C. y9 dDefault                                  : No) P. \5 ], b9 h0 E7 p# x
Forced                                   : No( b2 T7 b$ u$ s% o/ D( b5 P& [& u
Color range                              : Limited5 O$ E, w! `. k8 B7 B& H
Color primaries                          : BT.2020
! M  G( H5 @- V8 n& oTransfer characteristics                 : PQ
# ^" u6 t/ D& v9 m1 M  z! wMatrix coefficients                      : BT.2020 non-constant
: q0 Z4 n' T  M- fMastering display color primaries        : Display P3
/ j; j. e8 A3 [2 S7 L3 Q' \Mastering display luminance              : min: 0.0050 cd/m2, max: 4000 cd/m2
" K# E1 t0 f9 _/ q1 ~0 @8 L# Z, KMaximum Content Light Level              : 2508 cd/m2" v8 L* L) J; N+ ~
Maximum Frame-Average Light Level        : 216 cd/m2+ o0 ^4 ^8 _/ b- s% s1 w
Original source medium                   : Blu-ray$ Q' X! P. _1 v1 ^. o

7 M) r' P1 W2 IAudio #1
( S  z& B1 G3 L2 V! ]+ H# B: vID                                       : 2
) f' W( m% a2 O6 R# lID in the original source medium         : 4352 (0x1100), S/ [+ N% B8 v7 o, l$ K
Format                                   : DTS XLL
) J: V5 v! b. x2 }- T! U; F3 \6 @Format/Info                              : Digital Theater Systems
- H- D: ^+ W3 s# W' j9 t! [6 [Commercial name                          : DTS-HD Master Audio4 C) Z( h; V  b- e  E7 r9 x
Codec ID                                 : A_DTS
3 ]/ O+ q, @8 ^( q& rDuration                                 : 2 h 9 min
3 s' W0 K; |" A5 ~3 e8 \Bit rate mode                            : Variable; f$ A9 q+ v/ c8 Y
Bit rate                                 : 1 768 kb/s
+ g" J; R0 U& V- c% l* u. qChannel(s)                               : 2 channels% e% E3 R/ Q( Q+ H
Channel layout                           : L R
9 L4 p  G8 o6 J0 S; lSampling rate                            : 48.0 kHz) H0 C1 z6 E, Q
Frame rate                               : 93.750 FPS (512 SPF)2 g* X# y0 J. y
Bit depth                                : 24 bits# v/ Y1 h1 N9 A; T' O9 q
Compression mode                         : Lossless2 s( q9 Z* l8 L- C( `- X. w
Stream size                              : 1.60 GiB (3%)  E9 G& d9 _5 W9 V8 J3 W
Title                                    : Mr.Smith.Goes.to.Washington.1939.2160p.BluRaycd.REMUX.HEVC.DTS-HD.MA.2.0-FGT
, |% {/ f* a2 KLanguage                                 : English
/ u- ^. {0 ~( h$ F) W2 eDefault                                  : Yes
  V& M! O+ {& N2 r6 n4 I' m; VForced                                   : No
$ h& j/ m* R2 d- {9 D: lOriginal source medium                   : Blu-ray* N, e1 }  F! b- Y
! }3 ]* G4 H! h3 {
Audio #2
3 W0 x- }$ C  S- o, ~ID                                       : 3% e: V& ^" z6 _% Z2 T0 F' n& p5 X- S
ID in the original source medium         : 4353 (0x1101)
7 R5 a' b7 k9 C3 AFormat                                   : DTS XLL, y9 G5 Y1 E( N
Format/Info                              : Digital Theater Systems' n% ]  W2 F8 U1 O2 T! G
Commercial name                          : DTS-HD Master Audio
$ _9 w) b7 T6 k% ?$ F" ?5 zCodec ID                                 : A_DTS
6 u* w1 E8 m" H9 }$ G/ @( f! sDuration                                 : 2 h 9 min
2 I4 K) p0 Y" S$ u5 Z" k+ cBit rate mode                            : Variable3 o. x* f; s# n+ O2 G& U/ V
Bit rate                                 : 1 561 kb/s
6 p. V/ e. Y4 Q4 F0 D' u2 RChannel(s)                               : 2 channels
9 {0 d5 R3 {) r) ?Channel layout                           : L R' Z/ n# T; h+ G9 T9 s& N2 ^6 {% g, h7 |
Sampling rate                            : 48.0 kHz% e$ ]0 I+ M/ M/ a' I  P
Frame rate                               : 93.750 FPS (512 SPF)1 E* W& \+ {3 i
Bit depth                                : 16 bits' l* k+ I! V% L. |, {
Compression mode                         : Lossless
/ w$ t6 D$ j( G8 H5 QStream size                              : 1.41 GiB (3%)( `  k1 Q5 ^# Y# e  |) q2 |1 y
Title                                    : Mr.Smith.Goes.to.Washington.1939.2160p.BluRaycd.REMUX.HEVC.DTS-HD.MA.2.0-FGT
" p' T% d  H- ?* P, d1 s7 g  BLanguage                                 : French; c8 f, P) O; D  J
Default                                  : No3 w$ u3 G# A& X2 h$ J& O" s3 S9 @( |
Forced                                   : No
4 p5 z$ m4 @3 L4 B+ D- s+ YOriginal source medium                   : Blu-ray
6 j+ G/ G+ s7 g0 r" y
6 I4 [# W1 Q3 V4 OAudio #3
6 Q8 i) l7 B9 JID                                       : 4
9 |9 O# I" T5 q! jID in the original source medium         : 4354 (0x1102)
1 D" W( V6 \' a1 y2 r; I. zFormat                                   : DTS XLL
9 `0 M7 t$ |$ B: U$ {( q5 T/ @Format/Info                              : Digital Theater Systems
2 ^: b2 g- V) b1 O6 y  [; MCommercial name                          : DTS-HD Master Audio
& B# _" G( W* a0 mCodec ID                                 : A_DTS! G- ^5 z- v  l
Duration                                 : 2 h 9 min
' z4 M; Z6 _6 X8 h2 e* XBit rate mode                            : Variable, N" Q4 v9 y! Q) a; j6 U( V
Bit rate                                 : 1 570 kb/s
; H: X- x) L2 C% w, k) [; YChannel(s)                               : 2 channels
, B2 t( r* g  O( }' Z' P; |Channel layout                           : L R
* p  I$ j* U& uSampling rate                            : 48.0 kHz
* f' B4 g2 J! dFrame rate                               : 93.750 FPS (512 SPF)  Z7 o' K  V: [$ L& ^
Bit depth                                : 16 bits' y% H' e2 M1 E# \" J* [
Compression mode                         : Lossless
0 r" n  A& K# P3 L; U, iStream size                              : 1.42 GiB (3%)' w1 A- l6 S1 T
Title                                    : Mr.Smith.Goes.to.Washington.1939.2160p.BluRaycd.REMUX.HEVC.DTS-HD.MA.2.0-FGT
5 s  }0 F- D$ l5 I% pLanguage                                 : German
4 w# q3 {% q; KDefault                                  : No2 a- E8 A" L) [  g( T
Forced                                   : No
. n; m+ @! i0 a$ T' h1 a) M* COriginal source medium                   : Blu-ray
6 B3 B4 |% A  y- h2 o: d
5 i! W- i5 {5 J6 L, b/ G! }7 BAudio #43 O/ Z! m  D  I2 v+ N9 D* ]5 S
ID                                       : 5$ N5 g; r* K" n
ID in the original source medium         : 4355 (0x1103)$ a. y4 x0 }, Y: ~9 C7 A8 n
Format                                   : DTS XLL# c5 c+ {0 {1 o7 H
Format/Info                              : Digital Theater Systems
0 @; i% D/ G; f2 I, f# uCommercial name                          : DTS-HD Master Audio4 P" w, w0 L3 |% c6 x$ l% b
Codec ID                                 : A_DTS9 J8 O( s) ]. x
Duration                                 : 2 h 9 min! d1 R; X9 ]* B# w: l0 s
Bit rate mode                            : Variable
4 o0 w2 Q$ M# c& IBit rate                                 : 1 560 kb/s
5 u! u$ Y6 ^- B4 O5 OChannel(s)                               : 2 channels
: Q; d) M( F. I+ U6 vChannel layout                           : L R: O3 F) `5 `5 Z) p' e: r6 y; c# A: T
Sampling rate                            : 48.0 kHz
8 U5 o" O) s, e% c0 eFrame rate                               : 93.750 FPS (512 SPF)
1 Y3 f6 N1 v9 v% g8 U+ |Bit depth                                : 16 bits
/ u3 T! Q8 A5 H) h6 RCompression mode                         : Lossless8 Z' y( E" I9 U7 r1 N6 ~2 p& O! b
Stream size                              : 1.41 GiB (3%)
) |( O. L7 B0 a# T# e3 aTitle                                    : Mr.Smith.Goes.to.Washington.1939.2160p.BluRaycd.REMUX.HEVC.DTS-HD.MA.2.0-FGT
1 k+ H! y( I9 g' R) _1 kLanguage                                 : Italian
3 b8 f, t/ ?% J, {( w: XDefault                                  : No. d3 t, ~4 b0 _/ h
Forced                                   : No
* M1 k( Q6 c4 }6 jOriginal source medium                   : Blu-ray
+ ]% b8 t# \* F- B' j1 [. l# f3 h! C* M
Audio #55 i% g+ U6 N8 ^; x. S% \4 C9 z
ID                                       : 64 H( `3 H! a8 j6 ]  u! W6 x' W/ }
ID in the original source medium         : 4356 (0x1104)# G  `, K; Z! i3 K
Format                                   : AC-3; q  g" k' m  L; P/ o6 E
Format/Info                              : Audio Coding 3
! x) f, K: Z/ RCommercial name                          : Dolby Digital( K! \  ^, u9 M$ r
Codec ID                                 : A_AC3( h2 B+ Z- y. w0 m3 ~
Duration                                 : 2 h 9 min
% T$ b* J4 `+ B! l. Z5 W8 }: FBit rate mode                            : Constant1 k( C& G* J7 t
Bit rate                                 : 192 kb/s1 U5 o) A- a- w& W. W
Channel(s)                               : 2 channels
! \' L- T! D" a4 `" h7 TChannel layout                           : L R% O! e' a0 |3 r* i( Q* i, |
Sampling rate                            : 48.0 kHz. U: Y2 g6 j2 _2 F$ |& m' h8 S
Frame rate                               : 31.250 FPS (1536 SPF)
0 }2 r+ \6 u# m9 G# u' G0 I4 RBit depth                                : 16 bits" O: u; L/ i( E/ M
Compression mode                         : Lossy
/ W0 b3 R  Z6 n- W2 Q( B5 HStream size                              : 178 MiB (0%)
9 t# P  Q8 T/ B3 L7 D6 M4 eTitle                                    : Mr.Smith.Goes.to.Washington.1939.2160p.BluRaycd.REMUX.HEVC.DTS-HD.MA.2.0-FGT
' W" q& H& Y) x' T$ j1 oLanguage                                 : Portuguese
+ J- j; W" E$ Z0 W4 U* v" [; AService kind                             : Complete Main
$ Z- z% b8 b/ m1 k. UDefault                                  : No' o) [& o" n9 S9 I; Z
Forced                                   : No! W/ y6 J7 \! s4 R( T
Original source medium                   : Blu-ray, z: \  U+ c/ U/ [& C  E3 L& s
& d4 w# B0 A+ p9 X
Audio #6
( r9 E. `: r* y6 S+ F" NID                                       : 7) s/ ?' Y5 L8 R8 W, N
ID in the original source medium         : 4357 (0x1105)
: i$ U3 j+ M" H$ \1 e9 f0 ~Format                                   : AC-3% K- T3 x+ D) G- g0 P7 X
Format/Info                              : Audio Coding 3
7 |0 S- N( o; u" N4 V1 R4 t. NCommercial name                          : Dolby Digital
+ O- Y! S% ~' k, u" rCodec ID                                 : A_AC3* |/ s2 U3 }1 g9 O
Duration                                 : 2 h 9 min
2 P) f5 t$ j% F0 e1 WBit rate mode                            : Constant9 g3 H$ @$ a/ Z' @8 F5 S6 F
Bit rate                                 : 192 kb/s* g5 c% d# K2 F  S
Channel(s)                               : 2 channels0 G9 E. X& D$ |1 ^) u( i
Channel layout                           : L R- C: A5 J% m0 L6 Y/ O
Sampling rate                            : 48.0 kHz
7 N! F' O2 R, O" r0 \" gFrame rate                               : 31.250 FPS (1536 SPF)
% b# m" _7 v+ h4 |8 zBit depth                                : 16 bits% c! @4 r, T$ {
Compression mode                         : Lossy
  ^2 u) K7 ?9 c& r: S. kStream size                              : 178 MiB (0%)3 D0 [% t7 ~' M2 d! A
Title                                    : Mr.Smith.Goes.to.Washington.1939.2160p.BluRaycd.REMUX.HEVC.DTS-HD.MA.2.0-FGT
! N, M1 X; @. n0 i. i  [Language                                 : Spanish
  r9 L! M9 Q2 Z8 FService kind                             : Complete Main
4 Z6 x9 m2 @3 ?5 z8 {/ q, z) @: @Default                                  : No. `! l3 l7 l, Z3 E5 q8 d+ [4 h2 N, q
Forced                                   : No! x7 B% }! T; ~/ o; ?; a
Original source medium                   : Blu-ray) Z% G( I3 ?) ~) r/ ?" t
5 ?: a7 \, @3 z
Audio #7' }8 I; Z# p: a
ID                                       : 8
$ }& x/ T% F  k+ [* n' mID in the original source medium         : 4358 (0x1106)
  F# ]) u9 V9 W6 m% K# SFormat                                   : AC-3! x" O8 P* g. T/ B
Format/Info                              : Audio Coding 3. [* P* D9 P8 G) m2 u
Commercial name                          : Dolby Digital; L% T8 d3 X: B2 Q% L9 r3 j
Codec ID                                 : A_AC3
% H0 L  {6 O& \& s" G+ Z& V( ?Duration                                 : 2 h 9 min
3 z, m% o- w: {- R+ ~Bit rate mode                            : Constant
0 A& g2 S) \$ VBit rate                                 : 192 kb/s3 O7 ^0 R1 U1 u& O' y; n& R0 F
Channel(s)                               : 2 channels
! M- r, E7 S1 a$ f% VChannel layout                           : L R
( C( [8 ]! K/ s7 n7 lSampling rate                            : 48.0 kHz
1 [7 @: ?& s) [7 ~/ M* R; rFrame rate                               : 31.250 FPS (1536 SPF)
9 a: Z% q4 o6 k4 eBit depth                                : 16 bits
- V& s; O. K' w9 N8 C1 B7 MCompression mode                         : Lossy
4 ]* ?3 I- e( j" @% rStream size                              : 178 MiB (0%)9 b/ k( U8 u3 g1 E
Title                                    : Mr.Smith.Goes.to.Washington.1939.2160p.BluRaycd.REMUX.HEVC.DTS-HD.MA.2.0-FGT6 U% U7 B) P/ v( y. U  ]
Language                                 : Spanish( S7 S5 J  ]( i2 ]6 E4 c
Service kind                             : Complete Main
% X& t! V1 {8 d: cDefault                                  : No1 U2 d( Z9 _9 k4 v0 d1 r; G& F
Forced                                   : No
$ r& p/ P/ E/ t) t6 w! KOriginal source medium                   : Blu-ray! Z( q% p7 R: \
8 l- _. ~2 `, v3 \6 v3 a9 ~# p
Text #17 p" ~, k9 Z, k& K$ j) R
ID                                       : 9. g. _, l" d; N0 ?  ~7 `
Format                                   : UTF-8$ l9 |% h8 z+ W; y$ K
Codec ID                                 : S_TEXT/UTF8& i+ M2 g0 o" q: j
Codec ID/Info                            : UTF-8 Plain Text
# v' Z+ h3 u8 \Duration                                 : 2 h 7 min- R8 r8 x1 z# g" X4 B
Bit rate                                 : 88 b/s
, {( c! [% R: i# JCount of elements                        : 2150# R5 p. [& }- G4 f! W3 K
Stream size                              : 83.1 KiB (0%)
( A' N; i; [5 P* |0 Q" sTitle                                    : English-SRT
# Y- E* B  G8 _8 ~. ZLanguage                                 : English
& h) A9 C; f9 T& LDefault                                  : Yes$ u9 \' J5 `4 G4 X8 K' f) T
Forced                                   : No
& |0 ]; a  ~) r2 e/ I' |8 v$ y4 g' L( z3 v  X1 l- q' D" @, S6 \5 ~* C" K
Text #2
4 |6 ^: d( w# r" kID                                       : 10# \- }! }7 c; t$ T, L6 J" K
ID in the original source medium         : 4768 (0x12A0). `- L, \9 y8 w' A
Format                                   : PGS
( m. t. h* n2 s! k3 G4 pMuxing mode                              : zlib! K6 F- s5 S( q. B5 _6 G
Codec ID                                 : S_HDMV/PGS
7 C* Q2 |/ [/ @% Y( }3 XCodec ID/Info                            : Picture based subtitle format used on BDs/HD-DVDs" x1 r% M& O3 w* v. Y6 T- Q
Duration                                 : 2 h 9 min: ]8 [$ K  Y2 y: d- t1 A" i8 g
Bit rate                                 : 53.0 kb/s
$ N! A0 @9 U! v2 D5 G* G* a% m& L1 jCount of elements                        : 46438 t$ ]! L( s+ v( w
Stream size                              : 48.9 MiB (0%)6 x( l+ `. {0 c; ^( `1 h
Title                                    : English-SDH-PGS
; k$ y6 y, _5 i( A/ e! `4 p/ V' CLanguage                                 : English
+ j) N/ G: }% ODefault                                  : No
( U+ R8 Y' Y: IForced                                   : No
# r$ E# R4 a' F7 C8 OOriginal source medium                   : Blu-ray
: [+ u+ v$ x, a
4 d4 F) @) Q& j/ W, \; s- }& dText #3
: C6 F! f& e, P: J6 B2 Y$ q3 Q+ C: KID                                       : 11. d+ Z7 g& A9 n( e1 X2 C
ID in the original source medium         : 4769 (0x12A1): c/ f+ K+ I5 g7 ~4 O( d
Format                                   : PGS+ R& ^6 u( P5 c/ S, O9 `
Muxing mode                              : zlib
- M/ ~- }/ G/ e% rCodec ID                                 : S_HDMV/PGS4 U$ d/ |  q4 l: s2 `! l
Codec ID/Info                            : Picture based subtitle format used on BDs/HD-DVDs6 I6 b* Z+ D' `
Duration                                 : 2 h 7 min6 e3 n1 Z& l; u0 k6 O, G  ~
Bit rate                                 : 50.6 kb/s7 ]1 Y9 J8 l0 J: s. E
Count of elements                        : 4304
' @' i  k# s0 s5 a1 DStream size                              : 46.3 MiB (0%)
9 ]! E) m1 C( }Title                                    : English-PGS# k1 l. |! A! A; a
Language                                 : English' e1 R% d; l4 o1 b4 A
Default                                  : No( C2 b" F9 I; U- l5 j# N* A6 A# [
Forced                                   : No% H6 y' e7 D% f1 k* s3 z
Original source medium                   : Blu-ray
+ I) G+ d# t. X9 }7 y
3 R$ g7 A, K) K' `Text #4
% l( ?3 c2 s+ [" AID                                       : 12
% p1 q0 ]" l1 Z- ^ID in the original source medium         : 4770 (0x12A2)
  E6 J5 D/ @4 M% E! f; _Format                                   : PGS2 C& Z8 j2 f- |0 k4 v
Muxing mode                              : zlib
7 s* G( j# v, R" l$ xCodec ID                                 : S_HDMV/PGS
" z  S/ c* l7 ?  L  b& ~Codec ID/Info                            : Picture based subtitle format used on BDs/HD-DVDs+ w9 s: v. W, C' I/ ?
Duration                                 : 2 h 9 min
8 i' D- I8 s3 I9 t8 PBit rate                                 : 52.9 kb/s$ b  y& X: A: @4 o9 o4 X% c
Count of elements                        : 4643
  m7 K+ _, L. j5 J- H4 DStream size                              : 48.9 MiB (0%)1 \& {8 s1 |' r$ y4 B9 e
Title                                    : English-SDH-PGS  n& d, o& @& W/ Z* R
Language                                 : English
( H6 z4 X. W6 y# h6 vDefault                                  : No& T- v4 z$ a+ T- p- i: b
Forced                                   : No
' i0 ~# b' w) D$ U4 w: BOriginal source medium                   : Blu-ray
5 B- y3 Z/ `% e; W1 t
! {4 Y4 d4 x/ I# p* gText #5
$ }$ ?* J- E% ]ID                                       : 13
5 k8 d0 ~2 c+ J/ H- mID in the original source medium         : 4771 (0x12A3)* m4 B# Z# r! N* ]. M8 m
Format                                   : PGS3 F# W5 I- J1 V& Y! [
Muxing mode                              : zlib
3 j8 ^. O; f7 X2 }) t/ ^Codec ID                                 : S_HDMV/PGS
9 q; v! D: v/ u8 n* d1 D  XCodec ID/Info                            : Picture based subtitle format used on BDs/HD-DVDs2 U0 i3 X8 U8 T  W9 a' }
Duration                                 : 2 h 7 min
* v" _2 p  f" K1 jBit rate                                 : 50.6 kb/s
1 }) Y! d9 u) S  r' UCount of elements                        : 4304
8 o" B/ \, a: s9 Y- g9 RStream size                              : 46.3 MiB (0%)3 X! S- @4 X9 b2 [' f* I; Z  f
Title                                    : English-PGS5 V4 L  v4 A) B2 w  j
Language                                 : English, Y& t+ Z. W# B& _$ G
Default                                  : No+ y' f& b7 @  U5 m' {
Forced                                   : No
% c0 ~& t# I1 e6 fOriginal source medium                   : Blu-ray! Z4 t0 P/ o, H5 A
+ E9 S. d$ }+ _' C
Text #6
# s8 `' Y1 z5 j  y$ G# n& u- HID                                       : 14+ r  n9 [: g/ \& }+ F
ID in the original source medium         : 4772 (0x12A4)* I( U2 p8 P! t5 r1 x
Format                                   : PGS
- T; S( j' J; h! DMuxing mode                              : zlib5 H3 N; Y$ H3 r
Codec ID                                 : S_HDMV/PGS
- z+ D3 |& v9 ?( pCodec ID/Info                            : Picture based subtitle format used on BDs/HD-DVDs" H( W7 v, m# V
Duration                                 : 2 h 8 min( p0 P  J% u- k  Y( z
Bit rate                                 : 40.5 kb/s
8 ~  a: F/ }$ }& {4 ACount of elements                        : 4415
) a" \; g7 @+ Y: D. y6 \Stream size                              : 37.3 MiB (0%)
1 S7 V% t9 ]9 Y( U' ?Title                                    : French-PGS6 I  i3 T  E% k! U& j; }1 a
Language                                 : French
5 G: F, i/ X( Q9 j1 U* o& WDefault                                  : No
% F4 J! p. p8 @6 ]% W  EForced                                   : No$ G8 }$ u2 H  D. Y4 p) f* D1 V% R
Original source medium                   : Blu-ray
. d2 k9 M# \- }# j; f
; s; s0 O$ S5 b& |Text #7! L+ f& p0 y# P1 p5 C+ c" ]1 H. o( {; D
ID                                       : 15$ Z1 W2 A8 ], d  M$ T
ID in the original source medium         : 4772 (0x12A4)1 T& H* ?4 j, Q
Format                                   : PGS
$ E! B8 B  S: H" wMuxing mode                              : zlib* ~/ E' O( y5 Q3 `
Codec ID                                 : S_HDMV/PGS. N! Y/ g: A; ]! ?
Codec ID/Info                            : Picture based subtitle format used on BDs/HD-DVDs
1 z2 b& O6 j+ Y, v4 O0 k! ^Duration                                 : 2 h 8 min
: C8 V+ o6 ?% I9 z6 oBit rate                                 : 6 687 b/s, A' W! q/ t# R  \; L
Count of elements                        : 752: y* k/ G, p# L5 |* }' W9 Z
Stream size                              : 6.15 MiB (0%)
: S2 E( B; S* s: Z! gTitle                                    : French-FORCED-PGS
' r: a( i" l1 v+ d: Z$ v- q( tLanguage                                 : French' D6 j) H0 ^8 {) i- ]7 w) j) ~0 @# _% o
Default                                  : No4 C! c9 N  v$ X5 ]& ~
Forced                                   : No
2 p  R9 T1 b" p* H; [/ ]Original source medium                   : Blu-ray
1 z1 }6 d* O- ?, k# _& I3 Q# `5 @; F' W6 o7 |
Text #8
, Q; X& t! d4 t( R- XID                                       : 165 P$ p6 Z3 l/ n! @- `$ R, J* m2 V
ID in the original source medium         : 4773 (0x12A5)1 A# w+ {3 c" q0 L
Format                                   : PGS
) R) J3 ^" A7 w5 @+ jMuxing mode                              : zlib
% Z) |' J; S4 B  ^# CCodec ID                                 : S_HDMV/PGS5 i+ [  U9 Y* j* b
Codec ID/Info                            : Picture based subtitle format used on BDs/HD-DVDs) [0 m. ~- m: {6 J( N
Duration                                 : 2 h 8 min- H4 O6 Q; @+ h- A; I
Bit rate                                 : 46.1 kb/s
* Y" E! j9 m9 @- \' G/ j' R+ qCount of elements                        : 44237 T( r6 \6 M) Y+ b2 O
Stream size                              : 42.4 MiB (0%)
& x: C; M3 F" W/ t2 xTitle                                    : German-PGS
! K6 @. A! ~$ D. C0 u* ZLanguage                                 : German# m$ C4 F( l5 b! n/ U
Default                                  : No
7 D# h% _6 H# o/ |1 RForced                                   : No
$ ~! {8 P! B/ ~1 z: f8 G) vOriginal source medium                   : Blu-ray8 `" G5 x6 C( s* V0 e/ E, T
6 Y: T% Z7 k# [, A: T' s
Text #9
' n- N( N; d1 w! T8 X7 @ID                                       : 172 Q* y+ {8 r- C& A# Z# F
ID in the original source medium         : 4773 (0x12A5)
7 H) b( @1 j4 t  [$ P4 i+ RFormat                                   : PGS6 G3 e; n+ N9 l: ?
Muxing mode                              : zlib
2 a3 A2 ?* U  R) XCodec ID                                 : S_HDMV/PGS- `" v( }; W) t4 H7 R* \) |# u
Codec ID/Info                            : Picture based subtitle format used on BDs/HD-DVDs/ p5 X9 ~% Y  }3 l& D) m$ n6 p6 }
Duration                                 : 1 h 59 min
0 s$ N5 H8 {, ^7 SBit rate                                 : 1 333 b/s
: O% c7 D( P( T+ {5 hCount of elements                        : 113% M. F7 m7 I2 {# o  q
Stream size                              : 1.14 MiB (0%)
8 l1 r4 g. g/ k$ r. B0 G0 nTitle                                    : German-FORCED-PGS
4 M$ Z5 v" N5 F& t/ i& oLanguage                                 : German4 p" R3 L* L9 L4 s  u# u
Default                                  : No# W! R# r9 i$ s5 J& z5 h
Forced                                   : No
- M2 M8 K- d8 k2 H# X) dOriginal source medium                   : Blu-ray
$ X5 }" v) w4 h; A) ~
9 N  m1 H! r5 g- W$ S$ r6 TText #10
& a# \8 y* |' X# G5 t' Y% P; Z- aID                                       : 18* [# x: R1 h$ j- G  l( e, k, k
ID in the original source medium         : 4774 (0x12A6)
7 C7 R- N# O( _8 u; M& x4 IFormat                                   : PGS5 q2 z- g$ z) w. h3 F
Muxing mode                              : zlib
) v# T3 C8 ?- d. yCodec ID                                 : S_HDMV/PGS) p- |' J1 B1 x9 p& b
Codec ID/Info                            : Picture based subtitle format used on BDs/HD-DVDs
5 G6 o* n4 o$ M. a# |Duration                                 : 2 h 8 min' {2 T# t; ^% [- A/ V* x
Bit rate                                 : 49.3 kb/s
( Y! w. C3 R7 VCount of elements                        : 4400- }: a& ^, o  e: f
Stream size                              : 45.2 MiB (0%)
! k( {2 s. v  e( j( _Title                                    : Greek-PGS
4 T. o# K5 V" o  G2 G8 u1 oLanguage                                 : Greek+ U& O  m4 z; O
Default                                  : No* p+ X$ W# d6 r% E5 [4 G
Forced                                   : No
! A1 b& T. e0 H8 J6 O3 UOriginal source medium                   : Blu-ray0 a% N7 v1 M6 h3 D2 T' D  n
# O) F% v! w5 ?! N! k
Text #11
9 G( s; B$ w& E) ^) d& q6 sID                                       : 19
2 u7 e5 M. |# y; v4 mID in the original source medium         : 4775 (0x12A7)
  K+ _0 u  O1 I5 JFormat                                   : PGS
/ a/ R0 y9 w% [Muxing mode                              : zlib* ?* h5 D5 s5 s/ ]* t. c$ X
Codec ID                                 : S_HDMV/PGS
! |( N4 M1 {" W4 @, OCodec ID/Info                            : Picture based subtitle format used on BDs/HD-DVDs0 k1 K2 Q; V. O% A9 {) Q
Duration                                 : 2 h 8 min, w8 {* o( c* E7 g4 R9 {6 h
Bit rate                                 : 49.4 kb/s( |+ k* Z' p5 `3 ~
Count of elements                        : 4433. n  B9 e0 v+ J2 f; c6 M0 z
Stream size                              : 45.5 MiB (0%)2 U! y" U# a9 b( H2 {
Title                                    : Italian-PGS
' b: w/ g* \4 [% a  o# yLanguage                                 : Italian& K$ W# p; G0 f* C9 C$ q$ K
Default                                  : No
4 e' p. x" f9 |$ [, E9 KForced                                   : No7 u8 t" G  R/ T& u7 n: b- f/ F
Original source medium                   : Blu-ray
$ F3 f# A5 K7 `! ]$ D: T1 I
$ L3 u6 Z& P7 G. mText #12. U3 o/ \$ B1 n0 X+ v, X4 T: W
ID                                       : 20! S5 O. s. t( M3 G6 ~  v
ID in the original source medium         : 4775 (0x12A7)$ G! N' }* W5 S$ @; F: w% A
Format                                   : PGS
) m* h  Q8 w% `  P! E% EMuxing mode                              : zlib) n8 H+ z9 B) E% U+ P: O7 r
Codec ID                                 : S_HDMV/PGS! k$ W0 @0 S! X. T. u3 t
Codec ID/Info                            : Picture based subtitle format used on BDs/HD-DVDs9 K# Z: y9 ^0 H2 N% L2 x
Duration                                 : 2 h 8 min9 ?& L; Y/ f" P# ?" }" ]
Bit rate                                 : 1 565 b/s& {% |- Q8 o" X1 _+ U. f/ D3 c. K, r
Count of elements                        : 1295 N$ u6 k) e. ?5 M( W- o! S7 q/ Q
Stream size                              : 1.44 MiB (0%)$ e' k# ^2 m; U5 i
Title                                    : Italian-FORCED-PGS
  O4 S* X+ N% s" X( S0 RLanguage                                 : Italian! Y% r' C: N8 C' k7 r
Default                                  : No3 ~2 k4 b  D; {1 q( C& L% ^1 i9 S; }% t
Forced                                   : No+ O5 i3 D+ J2 q* i4 G  ?, j! r! i
Original source medium                   : Blu-ray& K. K) y$ z' m7 Z% G

% i' y& S0 @8 Z- ]6 uText #13/ j7 v% c" ^$ v  o$ E
ID                                       : 219 S8 q! s* w% x. N3 ?9 \9 Z" x
ID in the original source medium         : 4776 (0x12A8)
5 M$ F1 k/ z* dFormat                                   : PGS
% Y" R+ e, _; v% g; l* ^1 f" KMuxing mode                              : zlib5 M: T* @" X4 W" z
Codec ID                                 : S_HDMV/PGS" t3 C5 j7 `$ G# v* _1 y
Codec ID/Info                            : Picture based subtitle format used on BDs/HD-DVDs% |1 ]! q# m0 o& l6 W+ r" f
Duration                                 : 2 h 8 min+ k; j) U) z$ n
Bit rate                                 : 34.3 kb/s' L3 c+ J# Z$ O2 a7 y
Count of elements                        : 4437
1 B1 q! d# r& G! TStream size                              : 31.6 MiB (0%)7 F9 J2 {* i( p) T' k2 ?. S) i
Title                                    : Korean-PGS% G& t! m4 ^/ X0 z
Language                                 : Korean- f- i4 Q) _' b6 Q
Default                                  : No
3 G2 F' F* K% Q/ Z# m' b* AForced                                   : No3 c& T0 M( H8 @+ ]7 [- ~/ t6 X; p
Original source medium                   : Blu-ray
9 g+ p- x" c" J- e: \- y' g: V4 O% B. c- v" S8 c8 X
Text #14& C/ {  U* p3 P$ b( k
ID                                       : 22
3 w& D- M9 g5 N- w5 [  oID in the original source medium         : 4777 (0x12A9); w3 b( _4 V3 }) t
Format                                   : PGS
4 I' j. B8 n" @8 {% w4 {  H0 WMuxing mode                              : zlib
  V6 O* r9 F! M  i, mCodec ID                                 : S_HDMV/PGS2 s8 y! |+ N) i) F3 A  Z( N
Codec ID/Info                            : Picture based subtitle format used on BDs/HD-DVDs
* t/ B% B# r. o% ~, K; ~5 ^Duration                                 : 2 h 8 min
: \" ?" b+ U, U; r) M# a/ qBit rate                                 : 42.8 kb/s* E8 U- w2 \# h5 E! `* P
Count of elements                        : 4606
6 b3 _0 Z4 D8 Z6 T% m, hStream size                              : 39.4 MiB (0%)
1 u4 U9 r3 k% n: A- `% R# o. P" lTitle                                    : Portuguese-PGS
% P# O2 X7 Q1 B/ Z7 k& ELanguage                                 : Portuguese
$ s6 A; c0 d- J! ?- G' pDefault                                  : No
% V5 c4 b0 ~2 i9 E3 l) d4 L" uForced                                   : No
& H, A+ p  P; `7 \, }3 K% L: I! cOriginal source medium                   : Blu-ray# ?9 L0 L3 _9 J
' |  @3 P- J) W- a. K/ B
Text #15- z) ]8 y9 {; Q7 H. }' T! S
ID                                       : 23
% {1 k& P) c; e* p- \ID in the original source medium         : 4777 (0x12A9)6 \) m! J/ I7 r/ g+ n4 A
Format                                   : PGS+ }( F; L" D& q$ L" P9 m
Muxing mode                              : zlib
2 z/ d% C2 z- @) f" RCodec ID                                 : S_HDMV/PGS
0 t5 d4 c1 F/ J- B# oCodec ID/Info                            : Picture based subtitle format used on BDs/HD-DVDs
) O0 i! H+ p# k. {) HDuration                                 : 2 h 0 min
+ c5 x4 u, P; C# RBit rate                                 : 1 399 b/s
) {- \, r1 S; W  o0 a) \6 r, M' VCount of elements                        : 1157 K# M, Z1 r0 q9 w# @
Stream size                              : 1.20 MiB (0%)8 X3 t1 R% a7 E; D
Title                                    : Portuguese-PGS
. I* v2 [; l# m/ ALanguage                                 : Portuguese
8 e7 `- W( r7 i" G# Y( uDefault                                  : No
, B8 t+ G- k# F4 |6 nForced                                   : No+ v$ G' l3 u; D  L$ q: H$ `+ H
Original source medium                   : Blu-ray
8 [* T- p6 C( Y
4 n0 m; V* w8 VText #16
0 |9 f8 h9 ^6 t. c  w6 wID                                       : 24
  P, }* x$ G* ~( I( RID in the original source medium         : 4778 (0x12AA)$ Y6 O5 h1 {5 ~' K
Format                                   : PGS
% O) u+ ^/ A% _: V1 ]Muxing mode                              : zlib
& M9 j( D' Q( WCodec ID                                 : S_HDMV/PGS
4 X/ v. S/ j( l* X' hCodec ID/Info                            : Picture based subtitle format used on BDs/HD-DVDs' z9 Z0 W; _+ o) U
Duration                                 : 2 h 9 min
, |5 r. ]9 o! V6 @) J4 K( WBit rate                                 : 52.7 kb/s
  G: v) k  ]6 u( e) sCount of elements                        : 4427
/ F( N: S! C4 Q/ P% g( EStream size                              : 48.8 MiB (0%)
- v% g  \' ]  S* nTitle                                    : Portuguese-PGS6 x2 e% `# N) Y2 _. t( I8 q& R
Language                                 : Portuguese% ?& I) o  u3 G& o9 U4 d
Default                                  : No1 d7 q6 n# N7 Q3 x, K! Y! P
Forced                                   : No
  `; c5 e' X& ^% d# ?% @& L' tOriginal source medium                   : Blu-ray% `4 D" H% W7 |& s
6 m; @  _. x! O9 D% N
Text #17- z) x# f( q: e4 l
ID                                       : 25% `1 o. w$ E' t8 |  W  s1 K  X6 r) q5 \0 f
ID in the original source medium         : 4779 (0x12AB)
& ]& x% D& A2 n  q1 I4 f8 wFormat                                   : PGS
' n3 Y) D0 i4 VMuxing mode                              : zlib+ N( R' N  f" X" w. Z' B$ v" ~4 I
Codec ID                                 : S_HDMV/PGS
( k; }; `- u$ J% F4 I0 {; i% DCodec ID/Info                            : Picture based subtitle format used on BDs/HD-DVDs
- l0 k; u+ T& N5 {2 lDuration                                 : 2 h 9 min1 u+ Y$ q5 n) [) V7 d" ~4 X/ H, B! i
Bit rate                                 : 50.1 kb/s. C" ^* _9 }: m
Count of elements                        : 4433, |! D7 v: m& P* [: h: |4 r
Stream size                              : 46.4 MiB (0%)5 o9 s8 e" F7 j( M) o+ H! b5 q
Title                                    : Spanish-PGS
- F* p9 Y- _8 Y# v2 F" CLanguage                                 : Spanish
3 d' e" P% X* GDefault                                  : No
9 c+ W! O. C' u" _( |  `' jForced                                   : No1 i" t$ f" Z3 T8 B( O
Original source medium                   : Blu-ray7 R( p- W1 {) I. c
! F% B/ H: Q+ m
Text #18( p7 \- y! u5 D
ID                                       : 26
% e4 v) F) I- t0 ?  JID in the original source medium         : 4779 (0x12AB)  E2 h( p9 a' C& X
Format                                   : PGS
5 n/ O5 q6 z- OMuxing mode                              : zlib
2 F  p$ A# E& b7 \Codec ID                                 : S_HDMV/PGS
. j: H( |- I0 k: jCodec ID/Info                            : Picture based subtitle format used on BDs/HD-DVDs
( b# g" T9 P1 a6 G# h2 K' \: a- gDuration                                 : 2 h 8 min5 C8 o8 @" n+ s2 e% H3 a, F
Bit rate                                 : 1 571 b/s5 J, C. U/ z2 g% W+ T4 _0 |
Count of elements                        : 131/ i8 A' j+ C6 N& r9 `$ W! [2 {" B9 F
Stream size                              : 1.45 MiB (0%)
# O) k4 N9 s0 H$ l/ L+ gTitle                                    : Spanish-FORCED-PGS& A# \* V! @/ Q2 ~: s6 R
Language                                 : Spanish
: B+ a% C1 L$ c7 hDefault                                  : No
( p+ S7 ]: @6 r- T1 S7 E3 NForced                                   : No
/ A6 Y/ L* r( M  R3 tOriginal source medium                   : Blu-ray2 v) v" v2 L2 u
* |6 x) h! M# ~+ j
Text #19' z4 j5 C2 u. n' \
ID                                       : 27: N2 {- M  p% p! u8 k% E
ID in the original source medium         : 4780 (0x12AC)
# S" a& a% g) K0 hFormat                                   : PGS. i; o5 K# g2 z$ f' O1 n
Muxing mode                              : zlib1 L1 s7 B4 ?' ~7 o  o  U4 X1 v: c4 `
Codec ID                                 : S_HDMV/PGS
) a& A0 I7 S, X1 S1 b9 ^Codec ID/Info                            : Picture based subtitle format used on BDs/HD-DVDs) }4 V% I% v8 J( s0 g% j
Duration                                 : 2 h 8 min. T% x' y, h) |: z- i
Bit rate                                 : 50.5 kb/s
: j& s; b" j: b) `" R2 w3 h; o: MCount of elements                        : 4668+ S- }) U" v& X; e% u/ @0 ^
Stream size                              : 46.5 MiB (0%)
* ~: k" \$ ~3 H0 [. J. j8 ^Title                                    : Spanish-PGS" \" T& s6 X6 y5 b1 t' M. \
Language                                 : Spanish
. o" k! \% J" v! j/ @, t4 ?$ y# T( gDefault                                  : No
0 G0 U4 f1 A. n3 D9 v/ HForced                                   : No
, |# ^( ~% M8 ]) S, XOriginal source medium                   : Blu-ray/ i( Z: w- x+ E* }$ O

1 I. z8 K3 ]$ q" Z, H; }- ?$ ]Text #20
- L& U6 k1 {3 l2 Q; N$ g( SID                                       : 28
6 b7 ~+ j4 t# NID in the original source medium         : 4780 (0x12AC)7 u$ g# b9 V8 [7 u
Format                                   : PGS
* x+ l! I; H1 o* v: Q7 M; gMuxing mode                              : zlib
. c) g& I* a# o0 ~) M6 P2 z2 f0 FCodec ID                                 : S_HDMV/PGS. Y! }7 H; I- i6 l, z1 J9 `
Codec ID/Info                            : Picture based subtitle format used on BDs/HD-DVDs" m7 ^4 a% b4 a  N
Duration                                 : 2 h 0 min
  V% E/ V" k! ~1 z0 |2 f3 z% b+ ABit rate                                 : 1 523 b/s8 [7 p8 r+ Z! l  E' p6 N
Count of elements                        : 117# j" Q1 k0 `' h. p1 Z' c. d2 _& T- j
Stream size                              : 1.31 MiB (0%)
  T& P/ v$ G2 w) QTitle                                    : Spanish-FORCED-PGS5 u+ B$ S9 `2 _8 R) q
Language                                 : Spanish
& f1 Z1 l# z% C" I2 N% W8 TDefault                                  : No
% p! l9 {; S- t* rForced                                   : No
1 i' [# Y$ f1 w  @. AOriginal source medium                   : Blu-ray- u1 }0 O; U, L5 t

& H  ~" V/ l4 K% r1 I; U" }7 gText #21
* ?. l! g/ r- `ID                                       : 29
4 ^: w1 G9 W1 F7 o! y2 o3 `ID in the original source medium         : 4781 (0x12AD)# p# G- {/ s3 G' [3 J  `
Format                                   : PGS3 o5 G& v, u3 }5 w% A
Muxing mode                              : zlib
; Z' I/ l" \8 O6 o( a5 \Codec ID                                 : S_HDMV/PGS
1 M. P" x7 S7 O* p' DCodec ID/Info                            : Picture based subtitle format used on BDs/HD-DVDs
2 g, k! f  [1 q+ s' cDuration                                 : 2 h 7 min  L! a$ h4 |* O- `" y$ y2 i
Bit rate                                 : 46.5 kb/s
5 _. K' Y2 @. t$ h) HCount of elements                        : 44330 `% t; |9 k3 Q0 G
Stream size                              : 42.6 MiB (0%)
# T4 {5 o! a5 L2 Z* T& T$ zTitle                                    : Thai-PGS
" S6 p; K; h$ E5 `% E9 VLanguage                                 : Thai
3 o+ Z$ m8 e$ E7 W! iDefault                                  : No
1 h- ]# v4 ~9 _+ x# T- t. D0 L  W0 sForced                                   : No9 B& t$ o! ~, F, n3 c1 V
Original source medium                   : Blu-ray& }# r5 p4 ^* v- d/ J

- C: }7 Q; w# {# bText #22
! \( v, l8 T: HID                                       : 30
* P/ A; h% k3 ?, z1 LID in the original source medium         : 4782 (0x12AE)
. ?) @0 I( Z) E! IFormat                                   : PGS
5 f( A7 V6 \- EMuxing mode                              : zlib
! ~# _8 `8 x5 KCodec ID                                 : S_HDMV/PGS
9 z% P- [  |1 R# |Codec ID/Info                            : Picture based subtitle format used on BDs/HD-DVDs
, F2 Z( O6 W' r- X2 V9 FDuration                                 : 2 h 8 min
5 O3 K( ^: D9 h% I; G, K0 t. j- FBit rate                                 : 29.4 kb/s4 ^4 ?" R5 o; I5 {& E1 v$ A
Count of elements                        : 4437
+ E/ c9 [1 [6 f, C0 I; j0 rStream size                              : 27.1 MiB (0%)* L: s( u# W6 B$ K
Title                                    : Arabic-PGS
* a/ M/ K8 S6 |3 @5 `, OLanguage                                 : Arabic- q& h0 Q5 A5 `0 D
Default                                  : No# |' z7 U2 \. {3 t5 P# i6 e. y9 I
Forced                                   : No1 Z7 I$ I; s6 ~% \
Original source medium                   : Blu-ray- J4 _3 u) r1 E! o

: i+ K# ^% h- q# ^9 NText #23
' B0 t- c9 r$ g) cID                                       : 317 D& W3 [0 ]5 i% {
ID in the original source medium         : 4783 (0x12AF)
) N9 `( ]5 t3 P0 x8 o  g% d$ CFormat                                   : PGS1 Y; J8 X% D- ~' M8 J
Muxing mode                              : zlib
: l6 {' |( C2 r9 W. K* I5 \  NCodec ID                                 : S_HDMV/PGS# Q* q; l1 O. ?# X4 V5 D: U! x
Codec ID/Info                            : Picture based subtitle format used on BDs/HD-DVDs0 X1 U, }- _" b9 z2 ], [; s
Duration                                 : 2 h 8 min0 p, j( w- L; x
Bit rate                                 : 43.0 kb/s
8 d7 T5 R3 C6 d/ M/ ?$ MCount of elements                        : 4683
* e, N' X3 n- f8 {Stream size                              : 39.6 MiB (0%)' {6 Z6 v  p9 l# P# A( ^  T
Title                                    : Chinese-PGS2 p5 A% T1 y3 ]) e; W" o
Language                                 : Chinese' f0 V) x" R  e- s3 O- @
Default                                  : No% I1 D0 T9 B1 Y( {" q& K5 i
Forced                                   : No
7 |* {8 t% ?1 WOriginal source medium                   : Blu-ray
* ^0 L7 P; Z. d, u: E: Y. c2 h0 N
* R. p4 G- q2 ~5 R6 KText #24) f) R# J- a, q: w) |  |( p* p
ID                                       : 32
% C/ w3 Y0 |" b5 f( w4 j7 h) cID in the original source medium         : 4784 (0x12B0); C0 d3 M2 r& v' I4 K
Format                                   : PGS" ^' J- H0 n2 A7 q4 G' Q6 J6 W
Muxing mode                              : zlib( B  b8 y# N/ ~4 N- D% [. j7 `# x4 r
Codec ID                                 : S_HDMV/PGS; c: d8 S" [: s. d
Codec ID/Info                            : Picture based subtitle format used on BDs/HD-DVDs. q. V& R' u3 U" i4 N* p$ h
Duration                                 : 2 h 8 min
/ a' A- P/ X) v0 wBit rate                                 : 48.2 kb/s3 e7 F% Z. S8 I) a
Count of elements                        : 4437- Y7 ]# d/ z( j0 B- ]
Stream size                              : 44.3 MiB (0%)4 F  q; D3 ]% _( G7 R
Title                                    : Chinese-PGS- K/ x: u/ J! o- i. Y) [' X& o7 p
Language                                 : Chinese+ i% I( w# n- g; T
Default                                  : No
5 s! c" F1 C4 @0 x* eForced                                   : No# N0 U  i$ f* q5 A
Original source medium                   : Blu-ray
  [+ D0 m' Z+ D  m" g: a
4 D; K  V8 T+ ]) s! NText #25' t6 }# s" c& c+ _: [2 q
ID                                       : 33
9 [: y3 s. N9 ]* q9 k2 b7 i0 LID in the original source medium         : 4785 (0x12B1)
3 k( X8 l3 Z. `+ S" ]Format                                   : PGS
3 |1 k- Y3 y9 c" P$ mMuxing mode                              : zlib6 s# ^: L1 \1 {
Codec ID                                 : S_HDMV/PGS
' V1 v& E2 ^4 ?Codec ID/Info                            : Picture based subtitle format used on BDs/HD-DVDs% [: j9 K" ?( x( x. d6 l. W
Duration                                 : 2 h 7 min
3 s! ^. ^$ k$ S/ B, k* x. cBit rate                                 : 43.9 kb/s' D% s/ y+ {+ d3 _+ r
Count of elements                        : 4680: [1 X9 [3 Q+ b: A5 d( x: ~
Stream size                              : 40.2 MiB (0%)
# K0 |$ J1 ^: y# R/ KTitle                                    : Chinese-PGS. [& `1 L0 v+ L/ j" C" s
Language                                 : Chinese0 ?% p  X1 g2 P5 g
Default                                  : No
* ^- W) B' Z& `% D" l( @3 \Forced                                   : No" E" y9 Q5 p5 J: B+ D
Original source medium                   : Blu-ray) F) M$ T2 e4 B. z3 d

0 k$ I  _" J% D6 H4 X) _3 bMenu& R: V7 p" u' A0 _" z7 s
00:00:00.000                             : en:Chapter 01; W" z7 J  y  h3 I! m
00:06:16.000                             : en:Chapter 02
6 Z, }* s6 E3 a" b, L9 O  I8 G00:14:54.059                             : en:Chapter 03  E" l9 {. P' b4 P' Z
00:20:57.214                             : en:Chapter 04
6 S3 R, E$ @) R- A7 \00:28:58.945                             : en:Chapter 053 @1 ~) O0 H4 d; D4 C8 m
00:34:20.141                             : en:Chapter 069 B& \6 k9 T; ]; B
00:42:02.311                             : en:Chapter 07
1 {7 I# q- d+ p5 I! _+ W9 H8 w/ l00:50:23.395                             : en:Chapter 08& q" T1 d6 P- x! x# o
00:59:49.877                             : en:Chapter 09  R9 s8 H& ?3 R6 x! k7 y) Z
01:09:29.957                             : en:Chapter 10
: L$ \. N9 i1 u7 ^, C1 w0 l" u01:17:28.310                             : en:Chapter 11+ Y/ x" I8 O, `0 V- c& L2 P* M
01:24:49.834                             : en:Chapter 12
+ q* Y! h7 I' w+ f01:34:34.960                             : en:Chapter 133 P* l. S) t- v) |
01:41:41.720                             : en:Chapter 14( G9 M$ T0 M& g# U- U; H7 ]# r( m
01:51:18.838                             : en:Chapter 15
3 _& L' F" E& u: r* d: |& t: r* U02:00:02.862                             : en:Chapter 16
$ k/ G% `- ~/ o9 \& ?* [/ ]
游客,查看本帖隐藏内容请回复 | 加入VIP贵宾组可免积分免回复下载 立即了解 | 还不是会员:点击获取邀请码 Invitation Code

35

主题

999

帖子

3807

积分

Sponsor

金币
434 枚
体力
1334 点
lanpanshuma 发表于 4 天前 | 显示全部楼层
楼主发贴辛苦了,I*老*虎*U!
" N9 W1 N$ y4 _$ ^2 t1 _( rI love your Blu-ray movies Forum!
( d% b7 i2 V- e1 v. j$ `* P* z. L& a. m5 k; h+ k( ]
该会员没有 ...

本版积分规则

小黑屋|Archiver|蓝光电影资源网

GMT+8, 2020-7-5 14:01

快速回复 返回顶部 返回列表