BluRayCD Forum

 找回密码
 立即注册【分享大片】

QQ登录

只需一步,快速开始

查看: 116|回复: 9
收起左侧

[蓝光原盘] 狙击精英5:绝路反击 [REMUX原盘 内封中字] Sniper Assassins End 2020 1080p BluRaycd REMUX AVC DTS-HD MA 5.1-FGT 18.66GB

[复制链接]

7777

主题

7971

帖子

6万

积分

Forum Moderator

金币
10555 枚
体力
9607 点

卓越贡献勋章

24小时 发表于 2020-7-3 19:34:10 | 显示全部楼层 |阅读模式
01.jpg
0 s5 h* C3 u) q, w! g8 J, F- v) a8 I! k0 A0 Z4 x3 A
◎译  名 狙击精英:绝路反击/战略阴谋:刺客末路(台)/狙击手:刺客末日/双狙人:刺客末日/死亡小姐/狙击精英5/双狙人8/狙击手87 f& [6 x; c8 M  }+ U
◎片  名 Sniper:Assassin's End / Lady Death / Sniper 89 P! e7 c- x) D  }/ J" s4 E- C
◎年  代 2020
- s  [- O: G3 y1 c◎产  地 美国
+ B1 a4 R$ ?( G/ O, f+ O◎类  别 动作* e3 D6 [" a, M9 l
◎语  言 英语- j1 W3 e, @3 O3 m+ V
◎上映日期 2020-06-05(美国)
& A* ^' ?% o& r, {3 k7 s3 v◎IMDb评分  0/10 from 0 users (尚未上映)
4 z3 v. D8 }& a) E7 W◎IMDb链接 https://www.imdb.com/title/tt12305696/
1 g6 e: b) C" ]' O  m' P◎豆瓣评分 5.0/10 from 682 users; y' i# C, n; s3 f! ~. \; b( s
◎豆瓣链接 https://movie.douban.com/subject/35068518/- a1 |5 Q. H2 ?0 i& |
◎文件格式 x264 + DTS  
4 h' `" K# Z8 t: K! n◎视频尺寸 1920 x 10801 |1 `0 w" ~8 [
◎文件大小 1DVD 18.66 GiB* n+ G6 L3 l' D# l, i# D9 E7 s
◎片  长 1 h 35 min
2 F2 ^, \! Z5 d7 y5 |& p. V◎导  演 卡里·安德鲁斯 Kaare Andrews
1 `  t' }7 N6 P6 t6 c5 d4 j$ s, q: ~$ o◎编  剧 Oliver Thompson
$ A" [9 ?7 ?# j  g& I◎主  演 查德·科林斯 Chad Collins
/ Y  l1 \0 q/ x+ }       秋元才加 Sayaka Akimoto" K6 n4 l% g3 H
       汤姆·贝伦杰 Tom Berenger
; d" Y0 B+ C+ r. n. U$ `" o5 o) I       瑞安·罗宾斯 Ryan Robbins
0 i6 G, ]$ j) N: \       洛奇林·莫罗 Lochlyn Munro
+ E" h& `8 ^5 G# B$ U( U) T       Michael Jonsson
$ Y# u* u  D0 `/ g       C.恩斯特·哈斯 C. Ernst Harth! \. P9 t( E  x5 D1 B  K1 d
       Sean Kohnke
7 T1 K) v2 X( d% F" M# I! T1 @       Sasha Piltsin
. q* x6 r: v' z
' D& e% h; Y! P& _* _& m◎简  介  
! {' l4 g" A' z3 J
  |# _3 Y- |% E$ y  Legendary sniper Thomas Beckett and his son, Special Ops Sniper Brandon Beckett, are on the run from the CIA, Russian Mercenaries, and a Yakuza-trained assassin with sniper skills that rival both legendary sharp shooters.7 N/ J+ W8 w! j
0 x" e7 N) J* K, B  @  k
  美国与俄罗斯签署贸易协定的当晚,一位重要人物被刺杀,而特种部队狙击手布兰登·贝克特(查德·科林斯 Chad Michael Collins 饰)则被当成了头号嫌疑人。死里逃生后,布兰登意识到此事可能牵扯到了政府内部的黑暗阴谋,于是便找到了他唯一能信任的伙伴—他的父亲,“ 双狙人”托马斯·贝克特(汤姆·贝伦杰 Tom Berenger 饰)。父子二人再度联手,而这一次,他们不仅要面对中情局、俄罗斯雇佣兵的追捕,更要面对一位人称“死亡小姐”的日本极道杀手(秋元才加 Sayaka Akimoto 饰),而她拥有着足以与二位传奇狙击手相匹敌的狙击技能......2 [! n& ]. [3 x3 m, u+ I. `9 U

' `! T3 B0 w8 x; }6 V, I# e  本片为“双狙人”系列的第八部作品。& z9 t6 y2 a  D7 n" U1 a

& M3 F: @7 T2 r  c6 k& o- E  Special Ops Sniper Brandon Beckett is set-up as the primary suspect for the murder of a foreign dignitary on the eve of signing a high-profile trade agreement with the United States. Narrowly escaping death, Beckett realizes that there may be a dark operative working within the government and partners with the only person whom he can trust, his father legendary Sniper Sgt. Thomas Beckett. Both Becketts are on the run from the CIA, Russian Mercenaries, and a Yakuza-trained assassin with sniper skills that rival both legendary sharp shooters.
2 v1 f# M# m4 ^0 |, U6 Q
Video% A' N6 |7 e7 a3 T9 Q$ q
ID                                       : 19 m4 ?- Q. C# Y0 u* c
ID in the original source medium         : 4113 (0x1011)
6 ]: ^5 ?. T/ T9 c7 F" QFormat                                   : AVC
2 e$ q: W2 A& K6 ?" [" BFormat/Info                              : Advanced Video Codec
! v1 d. q3 K0 L; ^! A4 o$ WFormat profile                           : High@L4.1
$ s- q; f4 E' E4 X; Y8 XFormat settings                          : CABAC / 2 Ref Frames
- A& T6 ]5 u3 m3 Y+ e$ sFormat settings, CABAC                   : Yes, a" M" n5 u' ]
Format settings, Reference frames        : 2 frames
! M. o: S; J' |# O/ k3 z4 aCodec ID                                 : V_MPEG4/ISO/AVC( M  Y' ?3 A4 _; T' z
Duration                                 : 1 h 35 min
9 l( D3 g6 w9 D/ H( _Bit rate mode                            : Variable
6 R/ X( @% B1 R: i3 C" OBit rate                                 : 24.8 Mb/s0 y+ z3 @, ?2 k1 ~
Width                                    : 1 920 pixels4 {+ H. l, N& b" w% v
Height                                   : 1 080 pixels" t& l+ r/ J5 G7 p9 |7 f$ \
Display aspect ratio                     : 16:9
, P. w0 A1 Y/ T6 @2 [; U( i$ r' oFrame rate mode                          : Constant5 w% f% p% y& Y& N; y$ `
Frame rate                               : 23.976 (24000/1001/37687) FPS
5 |3 d: h1 M  W0 }& k2 P9 ~! KColor space                              : YUV
9 e" {: o5 B4 aChroma subsampling                       : 4:2:02 O5 ^" W! M* B& W9 |, O8 y7 Y- J
Bit depth                                : 8 bits( ~3 {9 g: W  @; P0 H
Scan type                                : Progressive
1 h4 E" _4 b# h, ZBits/(Pixel*Frame)                       : 0.500) Q  i) K! _7 m1 Z; x1 C/ s6 c
Stream size                              : 16.5 GiB (88%)- `* N9 r: Q( X* l! ~% ^7 h
Title                                    : Sniper.Assassins.End.2020.1080p.BluRayCD.REMUX.AVC.DTS-HD.MA.5.1-FGT
! B2 m9 r( P6 ?! m& j" aLanguage                                 : English' Y2 d4 w" Y. Q9 j$ h" f6 S& S
Default                                  : No
* D9 q- H; y7 Q$ j5 e7 hForced                                   : No
/ |+ _9 ^7 R4 s. ]/ _1 ZOriginal source medium                   : Blu-ray
  |9 L; q" p7 L" U* T! U: u- R# g" M* ]" W
Audio #1, N* h9 Y5 \8 p4 T$ `7 ]
ID                                       : 2
' t% o2 S0 e4 H& o: o; x. y. v# b; b/ [ID in the original source medium         : 4352 (0x1100)+ a5 C' [4 C1 q3 ]0 O
Format                                   : DTS XLL+ R. k. a  Q- @6 S! D( G5 W* n
Format/Info                              : Digital Theater Systems" ?& k: S% m5 h
Commercial name                          : DTS-HD Master Audio
0 g# W# b6 D1 q' OCodec ID                                 : A_DTS
5 a+ Z) S9 X' O* W/ k4 KDuration                                 : 1 h 35 min
% B) V6 A- {8 b! H7 z$ ^Bit rate mode                            : Variable9 w" k) @& U6 q5 {
Bit rate                                 : 2 155 kb/s! O6 }! [" B, n8 |' L; |5 F
Channel(s)                               : 6 channels6 V+ ?, S, N' U, x8 {
Channel layout                           : C L R Ls Rs LFE6 V9 _& ?( _2 j' r) E6 s5 @
Sampling rate                            : 48.0 kHz
8 S5 Z- L7 ?& p7 DFrame rate                               : 93.750 FPS (512 SPF)3 W, w8 Q/ L8 m9 ~3 x* O% C( V
Bit depth                                : 16 bits
& A% t1 a8 V" F- R: g* UCompression mode                         : Lossless& J  q3 H& }, M7 P
Stream size                              : 1.43 GiB (8%)3 l( ~8 l; m& V- k% A
Title                                    : Sniper.Assassins.End.2020.1080p.BluRaycd.REMUX.AVC.DTS-HD.MA.5.1-FGT
9 L0 S! d/ M4 X' yLanguage                                 : English: T/ c7 ^. g, x& f7 r9 s8 J
Default                                  : Yes: O  R4 ^: {. i0 `
Forced                                   : No
- s) a  U2 `) z, a: Q5 |Original source medium                   : Blu-ray
$ ^$ }) {! g% U  p/ V* g5 z; N3 x# c4 l
Audio #2
+ B) {1 b1 @1 u" oID                                       : 3
- }" H, j# b, ]& R& z& QID in the original source medium         : 4353 (0x1101)" B( Z( m+ P0 N% k; {
Format                                   : AC-34 e4 {8 w3 i# I" F3 c7 ]
Format/Info                              : Audio Coding 3
! Q3 }! h3 [% ~8 qCommercial name                          : Dolby Digital
: ~3 R# B  {( b, g, g1 ACodec ID                                 : A_AC3
" V& [9 C( o: P6 r- y7 T7 o: l7 h7 fDuration                                 : 1 h 35 min
9 H' B  Z2 l2 MBit rate mode                            : Constant$ F3 h3 H5 R/ M4 |& E3 ~& Q. h
Bit rate                                 : 640 kb/s
: |2 x3 \' m/ j& n8 NChannel(s)                               : 6 channels
3 I) r% n; H9 HChannel layout                           : L R C LFE Ls Rs: E- b, H) a- z/ M' V% k# S
Sampling rate                            : 48.0 kHz
5 \9 e' H/ F+ b/ RFrame rate                               : 31.250 FPS (1536 SPF)- J5 G8 ^7 e; K! I" I7 g8 q' g5 C) h
Bit depth                                : 16 bits
% p, G1 Q% H" o2 Y1 X1 KCompression mode                         : Lossy
+ ?' S$ P: [% m# ?  M& o  R( GStream size                              : 435 MiB (2%)
2 |5 j0 V5 S5 l! [+ s: M1 J! NTitle                                    : Sniper.Assassins.End.2020.1080p.BluRaycd.REMUX.AVC.DTS-HD.MA.5.1-FGT2 s8 \9 i+ X' ^: O- u$ _
Language                                 : Russian. a4 l' V# ~# K! [
Service kind                             : Complete Main$ _' U' j. l0 d! O, b1 K
Default                                  : No
# |3 }; g$ Q/ R& {- X1 ?Forced                                   : No
* r5 q' V* `9 R% }5 Q0 OOriginal source medium                   : Blu-ray
* I& `7 u! l( V" F8 I  R& F$ `7 N" ~* O2 t3 _4 ?8 J% N
Text #1
' q7 Y+ D6 }8 V" v! \ID                                       : 40 k$ h/ g- h9 q3 {: A
Format                                   : UTF-8
5 ^2 ^  A( i( u0 q) G* P2 q3 L/ PCodec ID                                 : S_TEXT/UTF8  u8 d8 A0 U% k, ^) i7 B
Codec ID/Info                            : UTF-8 Plain Text
4 Z! |  v/ B- ]& u* Y5 zDuration                                 : 1 h 29 min0 i0 ~; c; i' m+ h+ S
Bit rate                                 : 49 b/s( d' N4 F6 m4 @% z* ]
Count of elements                        : 901* M6 v5 w; C2 b& u/ I4 M) s8 W
Stream size                              : 32.7 KiB (0%)
: D: a( O9 L+ s4 q+ cTitle                                    : English-SRT# X2 M* I- A' j1 x% t% l( H9 R
Language                                 : English! O* O* I# k6 u
Default                                  : Yes7 f+ m1 _3 J' G" r8 }5 J
Forced                                   : No
7 n. n; v, R$ I3 I4 o
1 q, E6 D- R' R$ k- I, F3 Z7 c9 s. M- s$ ^Text #2
  Y/ J/ a) L6 G$ I" _" x1 iID                                       : 55 e& [; Z/ L, P. K" m$ c- c2 Z
ID in the original source medium         : 4608 (0x1200)! y9 K- h) s  X, }1 w$ |* V
Format                                   : PGS
, ]5 K4 z" ~( q& b# _1 Q0 eMuxing mode                              : zlib1 t" B4 @/ W) b9 K- D- u9 Q
Codec ID                                 : S_HDMV/PGS
) W8 N' H8 @0 T; M/ \( }! RCodec ID/Info                            : Picture based subtitle format used on BDs/HD-DVDs& g% n6 b* [# ?, K! ?4 R
Duration                                 : 1 h 34 min  q3 i9 h9 \1 M8 ?* _3 k
Bit rate                                 : 34.6 kb/s! Q, T& t& e7 l" y
Count of elements                        : 2354" l7 ~' |( z9 B: k7 y" \* _5 \
Stream size                              : 23.5 MiB (0%)
( f5 y6 ~% b2 T- t7 _! ~0 {! a8 z% ^Title                                    : English-PGS
1 p1 |' f, j  B+ I6 t+ `  ?Language                                 : English
  @$ r; g& N* h( H1 j7 jDefault                                  : No0 H, s+ b, N- N2 r& Y# F
Forced                                   : No
* X2 B% w/ X7 X" N8 gOriginal source medium                   : Blu-ray2 r% U: t! z5 f7 e
  z- T/ c: v3 g( C
Text #39 ^1 L. _5 z) Y3 S6 \, z
ID                                       : 6
0 u' I: F  W0 T# y4 KID in the original source medium         : 4609 (0x1201)9 [! @% \# H" v6 Q+ a; R
Format                                   : PGS
  f6 R4 a& a% Z1 t  z$ Z8 z" x8 k/ HMuxing mode                              : zlib2 ?% |% Z# a' k8 v4 Y
Codec ID                                 : S_HDMV/PGS
  }; L; V: k, B' I: kCodec ID/Info                            : Picture based subtitle format used on BDs/HD-DVDs
2 C# M* ~' F4 T$ w% z" h$ Y/ e9 V# S# \Duration                                 : 1 h 29 min* R" O; C: |! B! A2 \4 n
Bit rate                                 : 30.0 kb/s- T( r0 p7 u2 M  J) q- Y
Count of elements                        : 1802
8 e' ~! h& S( c! ^3 j# T4 Y# j3 vStream size                              : 19.3 MiB (0%)
0 u# t& Y: p0 ?/ q% _3 Z$ o/ |' mTitle                                    : English-SDH-PGS5 L( a- i  N9 G/ Y  l
Language                                 : English
. C) n/ B- O: H/ D3 Y8 e* _Default                                  : No
' Z# ?$ T* x& U% `: @; P5 mForced                                   : No
6 r5 t8 }8 H1 r) y7 e& K% r" LOriginal source medium                   : Blu-ray
6 S- }4 u  Q' T( x
0 \2 t9 z& B. Z7 hText #4* F6 s* t! _2 f$ F$ w, u
ID                                       : 7, z2 E- e7 Y' A/ u
ID in the original source medium         : 4610 (0x1202)
" {& F' X# ?5 L$ c; l( d/ aFormat                                   : PGS5 n. O2 E  L0 y3 o3 X: P( d1 I1 e
Muxing mode                              : zlib
9 m9 t1 ^: _! GCodec ID                                 : S_HDMV/PGS( z$ c: z7 }$ e2 ]0 q! P' |  @# a
Codec ID/Info                            : Picture based subtitle format used on BDs/HD-DVDs5 `0 ^2 Y0 u5 ~( G) ~+ [
Duration                                 : 1 h 34 min5 w5 @& A3 r2 W. }" @
Bit rate                                 : 34.6 kb/s
7 {5 C8 v& ~3 Q& O# B: o8 k* MCount of elements                        : 2354
' T( h0 G0 z+ a: a! a( B! _6 NStream size                              : 23.5 MiB (0%)
1 v$ D; E, [2 y5 P, _Title                                    : English-PGS" Q: G( r7 n$ s7 x( K& E
Language                                 : English
, }2 V& T4 [8 y" oDefault                                  : No: i* f4 N( f) J
Forced                                   : No
% q- C% k$ p2 H; e, YOriginal source medium                   : Blu-ray' `1 E& }" i' t& n$ c" L- U- ]! v

$ u. A" z- _0 m2 M2 W' _Text #5& U6 G( l4 p, r" H: x. F* m
ID                                       : 89 [0 j* x/ r6 {; E& h+ [
ID in the original source medium         : 4611 (0x1203)' d: w8 I; T1 ^
Format                                   : PGS
% R. B8 ?) u- I; D* I9 bMuxing mode                              : zlib
2 ^% I" z9 x" sCodec ID                                 : S_HDMV/PGS
5 k  m, @, P% I. t" C, `Codec ID/Info                            : Picture based subtitle format used on BDs/HD-DVDs
# b+ L2 a) R& \- ]0 Y! pDuration                                 : 1 h 29 min
' v, ~! J" m+ JBit rate                                 : 30.0 kb/s- W. J6 Y; B4 L9 _
Count of elements                        : 1802
! s2 M0 ?$ o4 y& E0 `5 u. `Stream size                              : 19.3 MiB (0%)% x2 `) _2 ]* v1 @1 c
Title                                    : English-SDH-PGS
3 g' Y; n# ]7 O  wLanguage                                 : English' L. |4 S* ~- p7 b: N
Default                                  : No, c  K" _/ g8 P* w2 d" A
Forced                                   : No
: ~/ N1 h% F, L; h9 l+ }. |; UOriginal source medium                   : Blu-ray4 O- {+ }; J2 S, m' U, ~

0 c$ k/ t9 Q  U6 t# _- Q" X: U6 AText #6
. I" H5 ?! M5 }; N5 p* F, fID                                       : 9
0 f* d9 Q( ?- ]+ x. W% S& n9 f2 |ID in the original source medium         : 4612 (0x1204)
& h1 x0 h6 p3 aFormat                                   : PGS' ~. |0 `' R- m4 o+ s
Muxing mode                              : zlib
5 y$ N! G. U# u9 e: Y) c) TCodec ID                                 : S_HDMV/PGS
* [6 X; y% ?6 B* q9 O) a& I/ r; ACodec ID/Info                            : Picture based subtitle format used on BDs/HD-DVDs6 T, y7 N% U4 n1 W& B) b
Duration                                 : 1 h 34 min
8 d; C+ o/ d& L+ U& T  }3 `& U5 jBit rate                                 : 17.8 kb/s
; x0 J7 s* j' v. Q" ^Count of elements                        : 1842
; L3 v0 B6 m+ w8 P7 E& @" R7 u# MStream size                              : 12.1 MiB (0%)
/ w& q1 {0 x/ `: `+ g0 f3 k( Z" \* XTitle                                    : Arabic-PGS' V# U/ ]: R  B5 b* |
Language                                 : Arabic9 w# l* S8 N9 k6 ^
Default                                  : No; u8 V% J! ^- }+ l/ F# T& W
Forced                                   : No+ `- T) m# P& y4 l/ u) j: a
Original source medium                   : Blu-ray
7 F/ }- U! x9 P6 F' p- N) B' x2 Q- F( b
Text #7" ~6 s6 y9 ^' \
ID                                       : 10
7 m( |7 P/ X9 F" y, j. g4 A2 NID in the original source medium         : 4613 (0x1205)1 N. U; [1 ]: a8 f; k
Format                                   : PGS4 g9 _$ U9 G+ u, U) i4 X
Muxing mode                              : zlib1 N+ e$ ^+ n: N% N
Codec ID                                 : S_HDMV/PGS2 r* }; M; n1 o) u$ l* ~3 ^( Y
Codec ID/Info                            : Picture based subtitle format used on BDs/HD-DVDs1 C$ ^% S  U% X
Duration                                 : 1 h 34 min! L+ P0 P9 l# a3 G9 O
Bit rate                                 : 25.5 kb/s
' K0 Y* b8 L: a7 q# kCount of elements                        : 1842; S. P0 w$ B& l- X/ T0 Z
Stream size                              : 17.3 MiB (0%)- h" K" F- c- z# E+ x
Title                                    : Chinese-PGS
0 D6 [' i( I# X7 Y1 s) ~( i6 CLanguage                                 : Chinese
1 \! s9 C+ \) N/ wDefault                                  : No
) |) G7 L/ r  h' O9 bForced                                   : No) A* x. O6 e- y' i7 L; D( s- u& f
Original source medium                   : Blu-ray
- q4 }% A2 N5 l* Z' \" }
/ m  T9 W7 u4 L( Q1 ]5 dText #88 x( |) i+ w, a' g
ID                                       : 11
7 K) s6 @" W4 K8 t! \8 hID in the original source medium         : 4614 (0x1206)
9 ?  S) m3 e/ J3 UFormat                                   : PGS1 R% }" Q, I( g- b& a
Muxing mode                              : zlib' x) `6 z0 Q& c7 j2 V
Codec ID                                 : S_HDMV/PGS7 G' G3 o2 C: E* [
Codec ID/Info                            : Picture based subtitle format used on BDs/HD-DVDs- C3 U. j3 t3 [" O- \
Duration                                 : 1 h 34 min- D- a4 |. S% t( s2 x) M
Bit rate                                 : 24.1 kb/s
! f9 e) h) u8 ~, a0 P5 a+ }) PCount of elements                        : 1842+ J, p) O+ v( Q; P) ?% c; n
Stream size                              : 16.3 MiB (0%)! v9 Z" L& Y+ k+ _3 `' n
Title                                    : Chinese-PGS1 V$ z; ~( v* b) L4 ~
Language                                 : Chinese
. S/ |% |. E2 d2 d8 yDefault                                  : No
8 B9 d1 J# Z% V9 K- SForced                                   : No) |5 m, I% A/ @1 ]# l
Original source medium                   : Blu-ray
& w2 P: Y9 b" v& h2 l" ^' p
9 b9 X5 w; i. BText #9
' Y/ Z' @2 T$ Z+ [1 _: QID                                       : 12
, O) ]' _5 i# H; K$ B( {; pID in the original source medium         : 4615 (0x1207)
0 u2 p3 f! W5 u% h0 b/ }5 PFormat                                   : PGS6 W1 `0 Z) I8 ~6 ]& R* \% E, @
Muxing mode                              : zlib9 x! a2 g; {: j! F! J* A$ e% y
Codec ID                                 : S_HDMV/PGS
( K% h, e. V2 v9 \4 ]/ x9 ICodec ID/Info                            : Picture based subtitle format used on BDs/HD-DVDs
7 p% f8 |, a5 d0 }+ i. T6 m( BDuration                                 : 1 h 34 min
, z, T/ A* x- YBit rate                                 : 25.4 kb/s
! y% n5 m1 d) S7 ]! \$ jCount of elements                        : 1834
' K( d& `, Z1 jStream size                              : 17.2 MiB (0%)
* E% Y; f1 X2 {. ETitle                                    : Czech-PGS
9 j8 L# u. u' y' H* z: nLanguage                                 : Czech. `0 t) m! }! o5 I/ w! p) U+ `4 I
Default                                  : No
. `  l+ `; r' ~, iForced                                   : No9 S! p6 {2 R% b& P7 Y
Original source medium                   : Blu-ray& f3 ]6 L* s9 J. z" m( g
1 @( s5 z0 c2 h( t- Y' F0 x/ a' a9 Y
Text #100 j+ s7 h* G4 E  E5 u3 V, g  p
ID                                       : 130 x) f  y& L5 \2 [' U3 a
ID in the original source medium         : 4616 (0x1208)
. k3 i) C8 |: B7 h1 nFormat                                   : PGS/ O2 R3 L( o3 T& M
Muxing mode                              : zlib
7 ]; }1 o" H+ X7 |; ]/ eCodec ID                                 : S_HDMV/PGS1 N+ W+ V- g  c
Codec ID/Info                            : Picture based subtitle format used on BDs/HD-DVDs
- A4 \/ S, B' U5 C* `+ U* `' mDuration                                 : 1 h 34 min) Z8 D. |+ c) x' J: [' l8 K
Bit rate                                 : 24.0 kb/s; l0 j4 N0 f1 s) j% r
Count of elements                        : 1826
- L+ g6 O3 x) wStream size                              : 16.2 MiB (0%)1 m& i: d" m; z' c3 Y" ^2 p
Title                                    : Danish-PGS- I2 P0 z+ _  H  f+ u
Language                                 : Danish1 ~6 i# Z6 I6 x+ c
Default                                  : No( P& ?) x/ U% P, V2 G
Forced                                   : No
1 T1 j" {9 U- C" ^5 S& c# I% FOriginal source medium                   : Blu-ray5 q- K) z" O" }0 g! ]' X
* f( `( U0 A6 J+ E* a
Text #11
+ Z) X) x8 M2 H/ P) PID                                       : 14
( c: h% h& }& E& y2 y9 w  F  ?( xID in the original source medium         : 4617 (0x1209)
; C- j  t/ l) LFormat                                   : PGS9 k) m5 }$ t4 @# J' ^8 |- I! W
Muxing mode                              : zlib! O" y& w* G3 @9 W
Codec ID                                 : S_HDMV/PGS0 G1 r$ `/ ~/ W3 {
Codec ID/Info                            : Picture based subtitle format used on BDs/HD-DVDs
7 a# C8 i9 l, \, b% w  zDuration                                 : 1 h 34 min
; H1 c$ G# V0 g( CBit rate                                 : 23.3 kb/s& l6 u5 |, p/ h2 G
Count of elements                        : 1654, o. [$ P: a" A% v/ I2 k
Stream size                              : 15.8 MiB (0%)4 ^- b* j7 v* O8 @' g
Title                                    : Dutch-PGS
2 i' `  T) N! k6 I+ iLanguage                                 : Dutch7 M7 D! P6 {/ h( y# q
Default                                  : No0 O4 j8 ?* P, z* l4 r
Forced                                   : No
" L) n8 t- @2 f) y" OOriginal source medium                   : Blu-ray
3 Q$ \& y0 N$ {7 a2 W( p1 ^9 F
; Y$ {5 _% P6 xText #12
: l. N* |! o" Q, ^, o) DID                                       : 15
9 l# F8 J% w9 i: U$ o8 eID in the original source medium         : 4618 (0x120A)$ W' Y6 g8 u( G# M7 ?3 M8 X
Format                                   : PGS
$ q* ^# j. U& d7 L$ [Muxing mode                              : zlib
( M0 g; c% z4 F! M2 W. n, f4 ]& FCodec ID                                 : S_HDMV/PGS/ U% m5 p- b3 W) P
Codec ID/Info                            : Picture based subtitle format used on BDs/HD-DVDs
, B3 N. o! \0 Q4 ODuration                                 : 1 h 34 min' p8 u7 J. G, x% J3 f
Bit rate                                 : 27.3 kb/s: r' B% \9 b' u9 U/ D. t
Count of elements                        : 18305 [( z- t8 R: s; V; T  G
Stream size                              : 18.5 MiB (0%)5 ?4 y8 y7 e3 s% Z( `' h4 w$ U, z8 S
Title                                    : Estonian-PGS" H8 I( F3 G7 U
Language                                 : Estonian
; Z+ C! h, i( R  L8 r3 c6 \Default                                  : No) G/ D% ^7 g$ H( Q
Forced                                   : No
+ D3 H8 L3 M; \% w7 o, P3 i2 C$ X9 DOriginal source medium                   : Blu-ray
' l  }/ \2 f$ y1 f3 {- w" I5 C* I& A, Y
Text #13* Z& A3 v" v4 [7 g( u* G
ID                                       : 164 ~, @: z: B9 x  A, m; _7 v
ID in the original source medium         : 4619 (0x120B)
# Z* k& t) M$ w/ T5 NFormat                                   : PGS
6 l* l& z# @3 J. tMuxing mode                              : zlib
" L0 G* D- i/ u6 ]Codec ID                                 : S_HDMV/PGS
/ x  t0 M1 U9 m4 Y1 p$ E6 `; M$ yCodec ID/Info                            : Picture based subtitle format used on BDs/HD-DVDs
# f( n7 c' y9 X9 d3 F# c5 qDuration                                 : 1 h 34 min# e' P5 r/ u9 Z: P/ U/ ~: Q# e0 r1 [
Bit rate                                 : 27.1 kb/s5 M: h2 a7 u; k: E  i! ?8 h! |
Count of elements                        : 1774  K! E& n5 B1 \% M2 A* }- s: z
Stream size                              : 18.4 MiB (0%)
- y# R/ c6 Z" T3 G* g! H0 {Title                                    : Finnish-PGS. E! ^7 x; C  z4 q" G
Language                                 : Finnish
' m" Z% V8 H& t' ~7 u5 F) ?8 HDefault                                  : No
9 u7 u6 ?+ A5 {9 A5 u% J+ z8 ZForced                                   : No
% ^/ ~/ H" L5 h) j- [Original source medium                   : Blu-ray& c# n9 h5 ^" _6 A5 B$ S' c: f; ?' [
0 P* j0 A/ I5 i6 [$ [5 Y
Text #14
0 a& u" {* f- U( w" g  gID                                       : 17% N7 w$ D" T4 L5 d( Q* g
ID in the original source medium         : 4620 (0x120C)- C/ k, @+ A7 f( X
Format                                   : PGS
6 Z5 }8 X0 |& N0 x+ Q  y* hMuxing mode                              : zlib
, D. y& e& r1 o3 X5 Z1 N. hCodec ID                                 : S_HDMV/PGS% S: q% l  h( M8 d0 o( p% e3 J9 A
Codec ID/Info                            : Picture based subtitle format used on BDs/HD-DVDs( b7 _" J$ R" B1 c
Duration                                 : 1 h 34 min
0 y; M0 _3 s( o" b% D( a1 n$ s7 HBit rate                                 : 20.6 kb/s% f# t/ M* l! x% Q4 c* M
Count of elements                        : 1810
: ?. h8 O( V4 u" gStream size                              : 13.9 MiB (0%)
0 d* t1 V' P* A; ITitle                                    : French-PGS
" x0 U8 n9 W1 p: v: E; J1 x7 L% d5 c7 {Language                                 : French
  G. h" ?3 X( h, ?Default                                  : No
$ {; C& }! o+ D7 J$ n6 uForced                                   : No, L  `) [+ ~2 v
Original source medium                   : Blu-ray
' B5 H2 g+ J1 P. k) I. v' p7 o/ r
Text #159 G9 q2 M6 \2 Y* Y7 I
ID                                       : 18
7 G; G4 Z! e4 L( H8 GID in the original source medium         : 4621 (0x120D)6 T: k8 `. w( v! B
Format                                   : PGS1 ^8 I  [. I, T! h
Muxing mode                              : zlib
5 c  y6 E$ l; A  X' J4 [Codec ID                                 : S_HDMV/PGS
3 q; b* n. H# D9 ICodec ID/Info                            : Picture based subtitle format used on BDs/HD-DVDs
; K! h$ T5 _# _. j0 MDuration                                 : 1 h 34 min6 V! N' U8 r3 r) S9 U3 d9 K
Bit rate                                 : 27.5 kb/s5 i8 T2 E% q; A2 U. P
Count of elements                        : 1826
+ _6 ?) k; O6 l& K. ]4 wStream size                              : 18.6 MiB (0%)
( q" o) {- y/ `0 ~Title                                    : German-PGS
3 P1 q8 @. M; m; Y: Z( y3 O7 D2 RLanguage                                 : German
4 N; O5 f+ b' f0 x' ^' UDefault                                  : No
: d+ J9 J7 ], M* o% DForced                                   : No( J; C4 S6 t0 v; K8 t( r
Original source medium                   : Blu-ray
: R  @4 L5 t' g* G0 |. a. v8 v7 N! `5 p! ~; l
Text #16
/ G/ B5 ?. L+ ^ID                                       : 19
( ]" c8 ~, p; L: q+ W: C8 s4 p& oID in the original source medium         : 4622 (0x120E)- T; u; u' R2 H( l  g
Format                                   : PGS/ J& \. E! N8 u# ?& b
Muxing mode                              : zlib
9 t* H5 W/ K& [+ q- aCodec ID                                 : S_HDMV/PGS# h# u7 G( [: \; R# F% z5 L
Codec ID/Info                            : Picture based subtitle format used on BDs/HD-DVDs* y/ V; z6 p5 @5 G& [5 B% i: @
Duration                                 : 1 h 30 min1 I/ J2 d4 i3 C* n
Bit rate                                 : 28.8 kb/s
- R. W. Y3 F' r  @, kCount of elements                        : 18447 u# O8 k/ Z$ I) j, y$ X
Stream size                              : 18.7 MiB (0%); J6 M! x0 g1 p$ h9 p  g6 {  M2 O
Title                                    : Greek-PGS& b' E$ P& y: F, y* p
Language                                 : Greek
# T: n) X" |$ }7 ]5 J7 S+ V& CDefault                                  : No% P$ g( O8 S, \( d
Forced                                   : No
% A4 h/ U7 J0 T* p. eOriginal source medium                   : Blu-ray9 x  c1 {- B" G* J9 C

- ?6 Z- a. \3 [Text #17+ k- p5 @% _+ s" c7 O
ID                                       : 208 W; |3 U, {( D0 F
ID in the original source medium         : 4623 (0x120F)- T- n9 w( y  j  o
Format                                   : PGS
7 Y( L! g. [5 c2 b+ m0 d8 ]Muxing mode                              : zlib( e+ ?4 H1 c- C5 a
Codec ID                                 : S_HDMV/PGS3 G; I0 r, p. Z" |+ e
Codec ID/Info                            : Picture based subtitle format used on BDs/HD-DVDs
2 d5 m5 i' p, [: Q  t3 \Duration                                 : 1 h 34 min' S% ]+ n/ C6 `
Bit rate                                 : 27.5 kb/s
: N" X1 ^* R. [- l5 HCount of elements                        : 1828
! ?, L  y& n/ T! Z' UStream size                              : 18.6 MiB (0%)0 T+ W0 b& r% f" \# Y
Title                                    : Hungarian-PGS( u1 ~9 Z  `( }, i8 J
Language                                 : Hungarian
% L, q; w0 p) j( j' e9 {6 G$ f5 nDefault                                  : No2 j3 u0 Z  Y6 a# L6 i: i
Forced                                   : No% t6 d( Y+ B' a5 k  n% J
Original source medium                   : Blu-ray+ [7 U  t0 @3 `/ u! v4 D  l

9 \' _5 ^/ C' T2 PText #18
/ E, G# Z$ `$ c( N0 w" k  g1 @ID                                       : 21
# H/ t1 M- L; vID in the original source medium         : 4624 (0x1210)
  W8 @) d* q) C/ ?" q1 ~Format                                   : PGS, F& T9 S  v3 f2 y6 L0 \
Muxing mode                              : zlib8 ]5 W- _$ T9 d! ~$ i
Codec ID                                 : S_HDMV/PGS: S: }  h6 z& \: j0 z
Codec ID/Info                            : Picture based subtitle format used on BDs/HD-DVDs
' b: D' L  u9 }2 {- ?% t& FDuration                                 : 1 h 34 min2 O# O1 q+ j; k" C
Bit rate                                 : 26.7 kb/s
% n" P- H+ g/ L- {8 ~7 W+ hCount of elements                        : 18200 m  v1 I3 R  U* D8 |
Stream size                              : 18.1 MiB (0%)
) \, D# M: r0 e. ~  oTitle                                    : Italian-PGS
# j) O/ w( M; p+ D! oLanguage                                 : Italian2 U3 t& L  Y$ a5 w3 k4 `; ?
Default                                  : No
. X( J9 e7 {: U6 m/ X; Y3 _6 e2 tForced                                   : No
6 z( H8 t- \& {. R9 @, ?9 ROriginal source medium                   : Blu-ray  q4 U  Q' t( W
1 b+ Z5 c9 X9 X/ M! `$ t
Text #197 ?6 Z% T% ~0 o* H- R6 c
ID                                       : 22
3 }% `) s. g. H: W1 QID in the original source medium         : 4625 (0x1211)- V) D$ I2 i5 V3 R3 R4 s
Format                                   : PGS; f8 o; h+ x) D
Muxing mode                              : zlib3 ], b( H8 Y: S1 v; {
Codec ID                                 : S_HDMV/PGS
+ u) D) g7 K$ cCodec ID/Info                            : Picture based subtitle format used on BDs/HD-DVDs
1 i# T  S: \) ?) VDuration                                 : 1 h 34 min
; W5 u0 p9 @+ i# I7 W5 U0 ?Bit rate                                 : 22.1 kb/s
4 v, C4 u+ |0 @9 bCount of elements                        : 17756 H' l, D4 @3 [; G; C
Stream size                              : 15.0 MiB (0%)
3 E2 _; P9 B' O; xTitle                                    : Korean-PGS: k: Y# [- W! z6 r/ h- [# O
Language                                 : Korean+ }; W" V8 _4 D" l/ M
Default                                  : No
2 x9 G# k! I% Z5 Q9 MForced                                   : No
& J+ E! J0 [2 C$ iOriginal source medium                   : Blu-ray
( o- o) ~( K- `; D4 J' I# b& q( m$ g) H/ r
Text #20$ O- X+ ^! c; l0 w& j
ID                                       : 23
% i, ]! {9 s4 XID in the original source medium         : 4626 (0x1212)
3 J; D6 x: r$ uFormat                                   : PGS6 h) m: o2 g0 M3 S2 P
Muxing mode                              : zlib
5 A/ Q8 G9 ~& Q8 g4 y& KCodec ID                                 : S_HDMV/PGS
  f. G4 U( ~  m  _! Z0 T$ lCodec ID/Info                            : Picture based subtitle format used on BDs/HD-DVDs
1 l4 |' G' Q  L: ^+ ]. ~% A* fDuration                                 : 1 h 34 min
/ r  |8 q' t7 ~! ]Bit rate                                 : 26.4 kb/s
1 n" E- V) ~1 H7 _* n, h* u- p0 BCount of elements                        : 1842
' a4 v+ ^( N$ c0 l, Q6 t- k# Q4 KStream size                              : 17.9 MiB (0%)) D0 V& w: }! T# ^. O
Title                                    : Latvian-PGS
. x( J& a8 ^/ n5 P) G9 WLanguage                                 : Latvian
4 ]6 ~( I1 E( p% Y6 k4 C) }Default                                  : No5 T# A$ v3 @1 ?$ q! g0 z9 t5 q
Forced                                   : No
8 ~+ ^, _- s- Z# W* kOriginal source medium                   : Blu-ray
' t* N2 s8 g- w0 m2 l3 U$ C: e9 ]% a& J+ A/ l7 v" i: E9 c4 R
Text #210 K3 @# ], S+ m( _. V- F
ID                                       : 24
; e- o! z1 `& P6 x( LID in the original source medium         : 4627 (0x1213)
( P* w; ~; w4 I+ l- yFormat                                   : PGS
0 w( M, l6 M, Z, z! ZMuxing mode                              : zlib
1 x; p: I) w" }: x7 v6 Q6 n+ E2 D) _& oCodec ID                                 : S_HDMV/PGS
+ s2 R$ b  L' M" a  g$ r; HCodec ID/Info                            : Picture based subtitle format used on BDs/HD-DVDs: k! k4 F. @  C$ }8 V
Duration                                 : 1 h 34 min
0 f1 w8 j. y2 \; J% f' VBit rate                                 : 22.3 kb/s3 w, i8 j' E/ W3 N" D
Count of elements                        : 1838
" g7 r6 v4 d$ h8 [9 I, b. m( \% sStream size                              : 15.1 MiB (0%)
: t4 I- r* a$ QTitle                                    : Lithuanian-PGS% w1 v- }" P, n7 S3 b- _( p) X+ k
Language                                 : Lithuanian8 U! H  P: ]: s% X+ v
Default                                  : No
5 W3 R5 Z% U# n. {" c3 ^Forced                                   : No
! W2 g: z& D" O1 P* NOriginal source medium                   : Blu-ray$ U1 ~3 j5 R0 ~/ O
# h$ y+ N" z1 ~  p3 \$ _
Text #22
3 Y  D9 _" b6 l% I/ Z0 E: |1 h- j8 k! QID                                       : 25
0 \' g4 }! f; m' R! H0 ^- o8 n8 WID in the original source medium         : 4628 (0x1214)! k! f4 I' l) w9 X% Q2 i$ n
Format                                   : PGS0 `8 ?1 l0 Y7 O
Muxing mode                              : zlib
, p7 O- ^- n( ^" C! J) V" vCodec ID                                 : S_HDMV/PGS
5 c: _7 y0 H  w" _1 [Codec ID/Info                            : Picture based subtitle format used on BDs/HD-DVDs
5 k2 y' b! L2 k4 J* \0 p' R  i# e6 SDuration                                 : 1 h 34 min& ]+ H1 A4 C5 h8 E
Bit rate                                 : 23.9 kb/s
' E+ M9 @  S9 Y7 ]: U- tCount of elements                        : 1810
, O) l! Y( L3 T# m. C( EStream size                              : 16.2 MiB (0%)0 ~0 {9 X1 y3 ?9 e, @  \
Title                                    : Norwegian_PGS
, d$ }; O* x: I5 S7 h: n8 tLanguage                                 : Norwegian
; [* ^- R0 j9 nDefault                                  : No5 B& H1 p+ c& S
Forced                                   : No
. X; z+ D) T- s- ]Original source medium                   : Blu-ray
0 L! n3 O; k+ K
4 n7 u0 W" Y6 S- m  PText #23( [- i# m( K5 a7 H! v3 B9 m) i% X
ID                                       : 26
5 C5 k! Y% h+ l; h8 o! o3 pID in the original source medium         : 4629 (0x1215)
! g; K/ R) g1 A6 c4 V) \7 WFormat                                   : PGS% t- f+ c# K9 W, k* [/ V
Muxing mode                              : zlib# g5 ]8 i. k. a: |$ X9 y. ^! j: `
Codec ID                                 : S_HDMV/PGS
9 \! K6 Y6 r$ [. yCodec ID/Info                            : Picture based subtitle format used on BDs/HD-DVDs
; l  l: d/ H9 I1 V, CDuration                                 : 1 h 34 min
) {+ X+ s7 P+ \7 g5 lBit rate                                 : 26.7 kb/s8 J; W: X  I0 d
Count of elements                        : 1846$ F& f( M8 K$ A; [
Stream size                              : 18.1 MiB (0%), Y% M: D' ~5 y3 ]
Title                                    : Polish-PGS
5 `* b# g+ q& a' |* D+ E/ `& o7 s2 [Language                                 : Polish, ]' c" }; y' I" }' x5 X
Default                                  : No8 \" D( x( X- @
Forced                                   : No1 Q2 @1 A  N: k# W0 S4 h
Original source medium                   : Blu-ray4 k- n( r+ e3 R
' [0 V' z4 p  x! K) Q) T/ D" w
Text #24; k9 b: C% f4 a) q+ W
ID                                       : 27
8 s3 b6 {6 r( w# c' y/ ?ID in the original source medium         : 4630 (0x1216)
) S! C6 Z2 _/ r# XFormat                                   : PGS
8 g4 R$ q# m8 A- k, MMuxing mode                              : zlib
% B- ?- p$ A$ Y0 w' [Codec ID                                 : S_HDMV/PGS
& R( f7 d* Q; q5 R! {+ ]Codec ID/Info                            : Picture based subtitle format used on BDs/HD-DVDs
9 x2 D! @& k) F9 m6 a% z3 q9 PDuration                                 : 1 h 34 min& Y$ D( r$ r0 n8 I+ a
Bit rate                                 : 27.6 kb/s
( \. k; x9 d8 a. Q6 jCount of elements                        : 1822
' k8 d3 \1 o8 g" K5 D3 k7 k, yStream size                              : 18.7 MiB (0%)4 A8 x. _4 O) N. `- C
Title                                    : Portuguese-PGS
( r5 k! H- u, r$ t! J7 |Language                                 : Portuguese
% [* D, o8 A2 UDefault                                  : No
9 u1 C# Y& n. E# _9 S* |. k! UForced                                   : No
, [+ |7 d! d: I6 ZOriginal source medium                   : Blu-ray8 `  k/ f, A+ E0 z5 {# Y. `2 y8 B
) h' }$ p1 O5 s2 o2 K( M
Text #25
5 |4 M0 M0 }& K$ h$ i' HID                                       : 28- m# N. o. b" G) |
ID in the original source medium         : 4631 (0x1217)2 i, b+ k% E6 d: U4 s7 ~
Format                                   : PGS6 v: `+ I* w9 X, Z' s
Muxing mode                              : zlib
/ D) E6 y( I% }$ [. O0 z) GCodec ID                                 : S_HDMV/PGS
, q; R( [1 Y7 K  t/ p: [& L3 OCodec ID/Info                            : Picture based subtitle format used on BDs/HD-DVDs( p" W# |3 T  F1 f  S$ w+ b) {, C
Duration                                 : 1 h 34 min
3 h9 M# G1 F# [# J$ `3 ]) EBit rate                                 : 27.7 kb/s
5 Z/ j; f0 ]3 X! {, {& G% rCount of elements                        : 18308 G7 Z1 }" T1 n- u8 Z) f* }
Stream size                              : 18.7 MiB (0%)) U% {. R- F( F! B! _7 R
Title                                    : Portuguese-PGS
, ~0 O& L7 _/ JLanguage                                 : Portuguese
9 d' d  T$ \. n6 tDefault                                  : No% }3 W( u8 d8 s: s, J4 Q: D6 f0 ~
Forced                                   : No+ P) e7 }+ q% [2 j" g! f
Original source medium                   : Blu-ray1 N" a# X. |9 Y) c$ w! i

& E" D0 A5 t& ?' dText #26
. o/ S8 t- c6 W3 h6 f: m0 EID                                       : 29
7 x. t- ~, A" ~. V- I9 J; FID in the original source medium         : 4632 (0x1218)3 _# ~, f& y+ G7 G" C' q: b
Format                                   : PGS, c6 f7 N9 D6 {4 F; B
Muxing mode                              : zlib
/ J3 o# o( e& l0 Z: aCodec ID                                 : S_HDMV/PGS6 a/ I7 ]: l! M/ A) j8 p( O; O* J5 x
Codec ID/Info                            : Picture based subtitle format used on BDs/HD-DVDs
7 d2 O  @. v* sDuration                                 : 1 h 34 min- a# Z3 o6 Z% }' X, Z) j, D
Bit rate                                 : 29.3 kb/s
  K' J: l, b" `: v) _Count of elements                        : 1832/ s! M( |& ?! \% E
Stream size                              : 19.8 MiB (0%)
  Z- [0 {+ g" V! f. _Title                                    : Romanian-PGS0 _7 U8 b3 }- w7 L
Language                                 : Romanian
4 U$ |: R; s% M* X! O9 |Default                                  : No
; F1 z( o" i& p' q2 Z* ]/ |7 ~Forced                                   : No' l; E# Q2 Q, N1 \5 d1 Q* T/ b
Original source medium                   : Blu-ray* W: l- X8 B% q* L8 D
" E5 ~0 i6 z, ?/ ~; w
Text #27
) M) r: j% h: c6 ?/ rID                                       : 30
% n+ I& ^3 D3 l: m9 yID in the original source medium         : 4633 (0x1219)
( Q3 J  A3 O9 N1 EFormat                                   : PGS) U% r- k  j  S% ]' k& L" \
Muxing mode                              : zlib
8 g$ Y" q0 p1 T; M. PCodec ID                                 : S_HDMV/PGS# y, p( C5 [/ G& }# Q8 Z
Codec ID/Info                            : Picture based subtitle format used on BDs/HD-DVDs
6 N3 {/ }6 k1 S. v7 mDuration                                 : 1 h 34 min& y; }# O2 Y( N* E6 H
Bit rate                                 : 28.0 kb/s! R, Y* z& R; o
Count of elements                        : 18440 O7 l1 J, |2 G4 ?- n
Stream size                              : 19.0 MiB (0%)
/ E2 B1 D0 x& kTitle                                    : Russian-PGS
( `* u2 r6 D9 [! ^# ILanguage                                 : Russian
+ t9 f$ V; s4 HDefault                                  : No3 h* r8 R0 w! P: @3 A1 S% F
Forced                                   : No
: E3 h. ^& @) x. L+ Z! A; Z7 cOriginal source medium                   : Blu-ray
( q& U$ J, |+ Z" z& {6 B
$ T5 m" S1 t- |/ r; A! \Text #28' Y  |0 n) Y$ \: Y
ID                                       : 31; g8 x: ^3 R7 N( q  l, H  \/ ~
ID in the original source medium         : 4634 (0x121A)
& z2 u" h; n; }- q2 `Format                                   : PGS
# Z2 i) t# L* nMuxing mode                              : zlib
1 z7 z: c* I" X2 j  [Codec ID                                 : S_HDMV/PGS: Z3 e4 F. K  I! h& m* w  M9 J
Codec ID/Info                            : Picture based subtitle format used on BDs/HD-DVDs5 p# r  U0 F# ^0 o0 f  I1 O* l) T) f) [
Duration                                 : 1 h 34 min# u3 m4 P2 e( F( R! c$ L; A
Bit rate                                 : 26.0 kb/s9 ~% L0 Y9 }' a8 h
Count of elements                        : 1832
& M' ^& ]7 y7 j; c$ lStream size                              : 17.6 MiB (0%)# K+ v+ z3 i0 m, Y. k9 V# l
Title                                    : Slovak-PGS
5 p- G9 Q+ k; r+ n5 R0 U( F$ hLanguage                                 : Slovak
* P3 z2 i& E4 M9 VDefault                                  : No; }9 A% l; n" f- F3 X; Q* X. ?
Forced                                   : No
$ n* N# g$ ]; e5 Q6 \Original source medium                   : Blu-ray
& }% S1 Y" }$ x8 v0 H% z
  e6 u/ d2 f8 P% z: CText #292 N  [& }/ ]  x0 T! E# ~! g
ID                                       : 324 F* x# G' {- n% ^, Z
ID in the original source medium         : 4635 (0x121B)
8 T1 X2 x, K/ pFormat                                   : PGS
1 Z7 W% [7 N( j, d& Z$ y8 ^Muxing mode                              : zlib
1 [% |& ~2 F  H0 M$ }1 D3 kCodec ID                                 : S_HDMV/PGS+ L  u! {. c7 W0 ^7 R" W1 t  A
Codec ID/Info                            : Picture based subtitle format used on BDs/HD-DVDs
3 p( S4 n1 L# L  \: h! s& U4 GDuration                                 : 1 h 34 min
6 B  I) H  |1 x/ {: y; CBit rate                                 : 22.1 kb/s
2 n8 \/ c; k8 d. e/ i; g5 ZCount of elements                        : 1834
* t- m1 ~6 U% T" p$ lStream size                              : 14.9 MiB (0%)1 N1 ]" ~; r) h/ A7 y9 }5 o
Title                                    : Slovenian-PGS% v( q' l) M! g: ^: |( a/ n& G
Language                                 : Slovenian: h$ Z( w3 z3 i/ l! J
Default                                  : No
2 c4 _: X" Z5 i6 M, P* ^' E; n: \2 ^Forced                                   : No1 V7 o8 N2 }/ j1 D: t6 L3 b
Original source medium                   : Blu-ray
+ ]$ `. |3 X* I1 }
6 S) S0 X! n6 A$ QText #30; {9 L9 M7 z0 C' {" \
ID                                       : 33) H( M' `7 c7 x7 c* d- }
ID in the original source medium         : 4636 (0x121C)# Z% \% X* j, h1 ?. F
Format                                   : PGS+ T6 k0 l' k3 \8 s1 h
Muxing mode                              : zlib
8 r1 j/ v- v/ U/ e6 fCodec ID                                 : S_HDMV/PGS' l  e% `6 `/ [: M
Codec ID/Info                            : Picture based subtitle format used on BDs/HD-DVDs+ H' P. ~% }+ C# K) ~1 u
Duration                                 : 1 h 34 min
$ u' M" I0 W# D) F3 nBit rate                                 : 26.7 kb/s" e1 B" P6 p+ {# D8 {3 Q1 u  i7 ^, J
Count of elements                        : 1822: a. T* S( D, `6 i0 X
Stream size                              : 18.1 MiB (0%)
& E4 O% I* T& q' c- h6 p; e  Q5 n  cTitle                                    : Spanish-PGS
7 A7 ~- y" C: w/ b0 B/ [/ b6 X' OLanguage                                 : Spanish. ^2 v/ v7 `1 Q( f+ M0 N: m
Default                                  : No& m0 _* i7 v+ a- v" q' X
Forced                                   : No* P9 u5 K' K9 h$ p- z! n: A' o
Original source medium                   : Blu-ray4 s  Z+ a$ X" {6 i+ y

5 d; a. U8 O; {7 [+ B/ KText #31
/ v; K: o- P, P1 \  FID                                       : 34% v9 N0 Q- W5 i  f5 `) l
ID in the original source medium         : 4637 (0x121D)/ n7 t/ C$ i- j' c3 f/ Y0 g. Z
Format                                   : PGS
# h1 r6 |1 O0 V5 X0 B# `3 n: e( B/ ~Muxing mode                              : zlib0 y$ V" S: r7 c: A' ~$ o
Codec ID                                 : S_HDMV/PGS
" V% l) d* |8 t0 Z6 y1 @Codec ID/Info                            : Picture based subtitle format used on BDs/HD-DVDs
% ]. R5 D1 d5 k2 R2 iDuration                                 : 1 h 34 min
0 I) Q7 J7 I8 v; g3 g  v1 xBit rate                                 : 28.0 kb/s9 m1 r" Q; U& Q4 b
Count of elements                        : 1828. p, n6 Y# B$ |0 V
Stream size                              : 19.0 MiB (0%)! M0 S6 a( j  u9 }. w* @9 o" ]
Title                                    : Spanish-PGS
/ P2 m$ W# C6 V6 wLanguage                                 : Spanish4 W3 r% _- Z7 f
Default                                  : No
1 k4 R3 C1 g# t0 YForced                                   : No3 c$ }! q5 x: W# p* a. u* Y
Original source medium                   : Blu-ray
0 q8 S+ D" p$ o$ a/ g
( ^/ Y/ {7 W2 \Text #32' f, F) K: k* N. L8 L8 }7 ]
ID                                       : 35
1 T2 k, A3 C- Z9 K( \6 oID in the original source medium         : 4638 (0x121E)
' h. {  w# Z- i# s# DFormat                                   : PGS
2 h! T) |: r7 l2 aMuxing mode                              : zlib; [& I$ z3 L. c9 y: E; \
Codec ID                                 : S_HDMV/PGS/ K* Y/ e4 R: U1 x( P/ G( `2 j
Codec ID/Info                            : Picture based subtitle format used on BDs/HD-DVDs
; b' B. ]$ K& t0 H/ RDuration                                 : 1 h 34 min% w. o) x! r* Q1 i% }! C" W0 ~+ |
Bit rate                                 : 25.4 kb/s
* r4 Y/ M/ t6 x' e. R* rCount of elements                        : 1772# B. P: p& W2 g1 w( j# L4 M6 w
Stream size                              : 17.2 MiB (0%)  F( t& ~) K! z
Title                                    : Swedish-PGS, M" l) G: k, q5 Y9 F
Language                                 : Swedish% a: D" r8 ^! b. K
Default                                  : No3 Y0 [" l1 N5 R1 R5 c$ z: x
Forced                                   : No
! P0 W! O" W. J/ s# cOriginal source medium                   : Blu-ray
% V0 {/ m# |# J. p$ d3 P+ @1 h
/ l7 ]! D6 C: L' Y& M0 I5 rText #33
6 K4 i% r# ~8 `4 sID                                       : 361 E, t" h5 m, Z0 e/ h6 \
ID in the original source medium         : 4639 (0x121F)
3 v  r# V  a2 c7 BFormat                                   : PGS
) d0 j( l# |% |1 l' V( b% e! mMuxing mode                              : zlib
& Q1 }& y+ }+ tCodec ID                                 : S_HDMV/PGS$ i( `& w: D3 F0 U) r' P9 N# }
Codec ID/Info                            : Picture based subtitle format used on BDs/HD-DVDs
0 v, S, f5 [6 `% IDuration                                 : 1 h 34 min
/ K( }6 T9 K+ fBit rate                                 : 27.9 kb/s" G% A4 [% A, _
Count of elements                        : 1844# o7 Z0 u( ^3 i% t8 b# W5 ~! [5 h5 k. j
Stream size                              : 18.9 MiB (0%)% w; X. P( \' f& x0 F
Title                                    : Thai-PGS
0 P1 B6 T( O' n6 w8 ^& Y% X4 xLanguage                                 : Thai
* A- Y, q  E9 HDefault                                  : No
2 h3 Y8 E! K: Y3 D  g0 JForced                                   : No
- S# p0 I# N+ a3 wOriginal source medium                   : Blu-ray9 U% |* ~3 {" t% Y( B5 ?
" H$ l' C4 @6 L( }2 W: d$ v* ~
Menu7 g" U9 G) R/ S! D$ x. r0 q% Y
00:00:00.000                             : en:Chapter 018 h6 {8 n3 J4 v8 ]: W
00:06:06.783                             : en:Chapter 027 w0 a/ A5 ?: X( ^# Y& c
00:13:01.864                             : en:Chapter 03% u, C  C8 P& `! p1 W
00:19:36.550                             : en:Chapter 04
4 H7 z5 j. B. M" C4 y% i00:25:37.410                             : en:Chapter 05' f! A" E, A7 J: o, M  A% O
00:31:26.593                             : en:Chapter 06
8 W1 X2 v- X, ^+ g$ ^9 V$ C, c" T00:37:11.896                             : en:Chapter 07( ~" b$ @( w) _! ?( n4 I+ K
00:42:04.230                             : en:Chapter 08% b: s0 e6 v8 s/ @4 r) u' [
00:47:22.506                             : en:Chapter 09% r7 \. E. f- @$ F# @1 Z1 x
00:53:11.104                             : en:Chapter 10; t& a; O" l8 m2 v8 N
01:01:50.581                             : en:Chapter 11& k1 p/ d4 W) P- i' N: m' d
01:05:07.320                             : en:Chapter 12
- c* `" D" J3 }  q7 Z01:08:12.671                             : en:Chapter 13/ C7 Y$ _9 @/ M6 M7 [/ D
01:12:33.515                             : en:Chapter 14
8 t! q5 w3 }- k7 [5 U( g01:19:43.320                             : en:Chapter 15+ |+ G( o8 g. C* L% `4 a  z
01:28:07.573                             : en:Chapter 16
& V8 T" r7 n5 [" J: f

% C$ F$ f5 u5 @+ }  [
游客,查看本帖隐藏内容请回复 | 加入VIP贵宾组可免积分免回复下载 了解详情 | 还不是会员:点击获取邀请码 Invitation Code

59

主题

1471

帖子

5339

积分

Sponsor

金币
290 枚
体力
2028 点
lanpanshuma 发表于 2020-7-4 05:14:52 | 显示全部楼层
每天都来蓝光论坛看看,我爱蓝光电影。
$ s: W9 X- h  k/ O0 o! GI love your Blu-ray movies Forum!- p1 x, ^# j3 ^* l" w6 w# x( r
该会员没有 ...

0

主题

420

帖子

1849

积分

Sponsor

金币
66 枚
体力
641 点
bais69 发表于 2020-7-6 20:36:59 | 显示全部楼层
谢谢楼主分享!

11

主题

183

帖子

932

积分

Sponsor

金币
73 枚
体力
436 点
wyyo 发表于 2020-7-7 08:38:22 | 显示全部楼层
膜拜神人,后来者请保持队列……!
9 L$ c  R" E5 J& J" Ibluraycd forum, a lot of Blu-ray movies!, {! W7 |' A4 H2 U

0

主题

186

帖子

993

积分

Sponsor

金币
152 枚
体力
482 点
2475017 发表于 2020-7-18 01:35:07 | 显示全部楼层
谢谢楼主分享!
0 G( z: w  Y3 E
该会员没有 ...

0

主题

186

帖子

993

积分

Sponsor

金币
152 枚
体力
482 点
2475017 发表于 2020-7-18 01:40:50 | 显示全部楼层
谢谢楼主分享!
+ C9 w) d1 Q5 n( j
该会员没有 ...

0

主题

96

帖子

574

积分

Sponsor

金币
5 枚
体力
383 点
XN15 发表于 2020-7-18 18:27:14 | 显示全部楼层
非常重要 新人必看:论坛操作常见问题的解决方法

0

主题

362

帖子

1859

积分

Sponsor

金币
16 枚
体力
1177 点
QQ
sunday_119 发表于 2020-7-25 17:44:25 | 显示全部楼层
每天都来蓝光论坛看看,我爱蓝光电影。+ X  s) M; b5 M9 s; s. T
bluraycd forum, a lot of Blu-ray movies!
7 _) S! r) u4 O4 @' s

0

主题

819

帖子

2953

积分

Sponsor

金币
7 枚
体力
1480 点
BlueCharlie 发表于 2020-7-26 14:01:39 | 显示全部楼层
感谢楼主分享这精彩的电影

0

主题

362

帖子

1859

积分

Sponsor

金币
16 枚
体力
1177 点
QQ
sunday_119 发表于 2020-9-19 18:35:11 | 显示全部楼层
每天都来蓝光论坛看看,我爱蓝光电影。
9 G7 ]5 y& ~+ a7 R) k8 M祝愿蓝光社区越办越好!I wish Blu-ray communities better and better!+ e9 [: ~0 A" N& b4 ^& k- e% Z

本版积分规则

小黑屋|Archiver|蓝光电影资源网

GMT+8, 2020-10-20 07:28

快速回复 返回顶部 返回列表