BluRayCD Forum

 找回密码
 立即注册【分享大片】

QQ登录

只需一步,快速开始

查看: 101|回复: 8
收起左侧

[蓝光原盘] 狙击精英5:绝路反击 [REMUX原盘 内封中字] Sniper Assassins End 2020 1080p BluRaycd REMUX AVC DTS-HD MA 5.1-FGT 18.66GB

[复制链接]

7701

主题

7895

帖子

6万

积分

Forum Moderator

金币
10335 枚
体力
9410 点

卓越贡献勋章

24小时 发表于 2020-7-3 19:34:10 | 显示全部楼层 |阅读模式
01.jpg " @% {$ U  n9 L' Y& p  P2 u

7 }) r$ [% x) X: s7 I$ {  S◎译  名 狙击精英:绝路反击/战略阴谋:刺客末路(台)/狙击手:刺客末日/双狙人:刺客末日/死亡小姐/狙击精英5/双狙人8/狙击手8
# ^6 w2 i5 E# _! U$ D% f6 ?% X9 e◎片  名 Sniper:Assassin's End / Lady Death / Sniper 85 I" j% {9 ~8 H, E$ f
◎年  代 2020- }' U) w3 F+ ^) U1 O! B: J
◎产  地 美国
8 \9 u7 `' z) M' u) D% q" A◎类  别 动作
) }: s- D* m( W3 @: [7 n◎语  言 英语; V, c' F7 E7 V6 k6 T
◎上映日期 2020-06-05(美国)5 C  ~, z: x$ p. `% `% |
◎IMDb评分  0/10 from 0 users (尚未上映)
8 F. F8 Y; K9 g* ?3 f$ w◎IMDb链接 https://www.imdb.com/title/tt12305696/
8 ?9 j1 }7 ?3 C! l9 _◎豆瓣评分 5.0/10 from 682 users: i& L& g9 T& O) @& r+ Y, W
◎豆瓣链接 https://movie.douban.com/subject/35068518/' m7 t2 c: D3 S; H, U4 Y
◎文件格式 x264 + DTS  ) M: ?( X$ e0 F5 X4 x; O, R
◎视频尺寸 1920 x 10807 R$ C  M- @% e$ A# W
◎文件大小 1DVD 18.66 GiB
' k$ ]+ Z: V% E. T+ L/ }+ B0 c◎片  长 1 h 35 min1 O% ?  M) j  C" R/ A( n: ^
◎导  演 卡里·安德鲁斯 Kaare Andrews
" T1 X2 M3 ?% ~) y& t◎编  剧 Oliver Thompson
% ~0 P$ ~2 c4 ^  |; h9 i◎主  演 查德·科林斯 Chad Collins. ~9 R& p0 X6 r: c# D2 b, ^
       秋元才加 Sayaka Akimoto) l( i% v4 n; V% Y7 b/ P* ^7 u! s
       汤姆·贝伦杰 Tom Berenger
/ u! O# ]/ B$ L. Q" z( J       瑞安·罗宾斯 Ryan Robbins" i! R) K/ y$ |) p
       洛奇林·莫罗 Lochlyn Munro
& J/ y. G. u9 u       Michael Jonsson1 W' N/ I1 E! G9 \; {9 {
       C.恩斯特·哈斯 C. Ernst Harth: x3 q- ]  e9 d5 V" O: i4 a
       Sean Kohnke2 Y! F# i  Q: [$ g3 w' K4 C
       Sasha Piltsin
$ Y$ _+ W7 U8 |% @" [: U9 E5 E" Y/ Q0 T. j4 X1 c
◎简  介  
; u; r/ j; k4 F* F( r' B- x, A% _
  Legendary sniper Thomas Beckett and his son, Special Ops Sniper Brandon Beckett, are on the run from the CIA, Russian Mercenaries, and a Yakuza-trained assassin with sniper skills that rival both legendary sharp shooters.
/ w. @: ?4 ]( m* x* d) B
% \1 |( S! M6 w9 v  D: u  美国与俄罗斯签署贸易协定的当晚,一位重要人物被刺杀,而特种部队狙击手布兰登·贝克特(查德·科林斯 Chad Michael Collins 饰)则被当成了头号嫌疑人。死里逃生后,布兰登意识到此事可能牵扯到了政府内部的黑暗阴谋,于是便找到了他唯一能信任的伙伴—他的父亲,“ 双狙人”托马斯·贝克特(汤姆·贝伦杰 Tom Berenger 饰)。父子二人再度联手,而这一次,他们不仅要面对中情局、俄罗斯雇佣兵的追捕,更要面对一位人称“死亡小姐”的日本极道杀手(秋元才加 Sayaka Akimoto 饰),而她拥有着足以与二位传奇狙击手相匹敌的狙击技能......
9 u% J8 S) Z# j% ?3 t) e; q0 F$ E/ w. \5 ]( R# A+ g
  本片为“双狙人”系列的第八部作品。
4 Q/ M5 n. [* u
$ h! Q: |, y' _* W  Special Ops Sniper Brandon Beckett is set-up as the primary suspect for the murder of a foreign dignitary on the eve of signing a high-profile trade agreement with the United States. Narrowly escaping death, Beckett realizes that there may be a dark operative working within the government and partners with the only person whom he can trust, his father legendary Sniper Sgt. Thomas Beckett. Both Becketts are on the run from the CIA, Russian Mercenaries, and a Yakuza-trained assassin with sniper skills that rival both legendary sharp shooters.
& \6 n# S, ^3 I$ e+ o
Video
) d/ B6 L6 K& n! P. `$ ]* MID                                       : 1
( S  M  l# F1 b1 XID in the original source medium         : 4113 (0x1011): L; a1 {5 O: V5 m: Q3 \1 h0 G
Format                                   : AVC
5 d  U/ ?1 E2 ^3 ]( j* `Format/Info                              : Advanced Video Codec. f" r, ^* l; Q  r& z* ]! j% R2 z
Format profile                           : High@L4.1  R# i) Z2 l+ y" B* I: o
Format settings                          : CABAC / 2 Ref Frames% p5 u6 U' _+ B% j7 ^
Format settings, CABAC                   : Yes0 f2 o/ P" D$ C7 p4 \
Format settings, Reference frames        : 2 frames& P/ l  J5 j4 \5 O7 r
Codec ID                                 : V_MPEG4/ISO/AVC
9 O$ J: I( J) p* X! VDuration                                 : 1 h 35 min
$ `4 g4 Y1 q; sBit rate mode                            : Variable& h0 N# H1 h7 h8 P
Bit rate                                 : 24.8 Mb/s
# u4 ?  e! ]9 N5 w/ g7 ~! I! T! TWidth                                    : 1 920 pixels) ~4 N' ^. E2 k1 b  B
Height                                   : 1 080 pixels5 t- V% t; [  J1 u- m1 H0 e
Display aspect ratio                     : 16:9
0 s% V+ Q' A. N2 ZFrame rate mode                          : Constant
3 z4 f% O' J, @" X4 yFrame rate                               : 23.976 (24000/1001/37687) FPS
* g) E6 m1 o+ ^7 n5 c" M1 pColor space                              : YUV
" d7 Q  }  p6 w! {. RChroma subsampling                       : 4:2:0
6 S  |8 {/ O& }6 @9 wBit depth                                : 8 bits
7 l/ k% M. L5 Q0 ]8 W% M3 A, G; N- pScan type                                : Progressive# n0 {0 r# H5 J+ ]+ d8 R. y' W
Bits/(Pixel*Frame)                       : 0.500
$ U- g* Y) g! IStream size                              : 16.5 GiB (88%)
1 m; Y% \/ K& E# B( _/ p4 UTitle                                    : Sniper.Assassins.End.2020.1080p.BluRayCD.REMUX.AVC.DTS-HD.MA.5.1-FGT
1 y% R+ c' \! j; ~Language                                 : English
  L# v! O' ^" F( I$ L* _' ^/ TDefault                                  : No' f& Z) ?$ @5 L$ g6 g4 ~: |. P5 a8 F
Forced                                   : No
( z7 q5 u9 d0 ]' dOriginal source medium                   : Blu-ray
; g- e  i0 i8 B" l, D6 u9 s7 z% B
4 X% y/ |! G( A) y3 t) I  jAudio #1( g! {' S& D$ i& Y
ID                                       : 2) o3 g0 w" e/ |" p
ID in the original source medium         : 4352 (0x1100)
! \; U- ]1 I$ N2 U4 FFormat                                   : DTS XLL
' f' ], s( j" _6 p6 v2 I( g& d; A' TFormat/Info                              : Digital Theater Systems# x8 {2 Y+ W5 k% L# G; w
Commercial name                          : DTS-HD Master Audio/ ~% u: C0 R2 k" N. f! P$ W" @
Codec ID                                 : A_DTS  ]+ y7 g' @2 U1 p% R, r$ ~$ A
Duration                                 : 1 h 35 min" f  ~, e! G9 h5 x: u
Bit rate mode                            : Variable
6 Z0 F6 t( r6 vBit rate                                 : 2 155 kb/s- \; `% N, |5 h7 ^. k% U! \
Channel(s)                               : 6 channels
' A  t, \' |; jChannel layout                           : C L R Ls Rs LFE' S, o3 ?+ `% d! b# j0 V, P  K
Sampling rate                            : 48.0 kHz) N' r, `6 A: c4 L' I! @& U6 l: \& |
Frame rate                               : 93.750 FPS (512 SPF)/ [2 L% q8 |) Y' Y% |
Bit depth                                : 16 bits
# W/ {7 z7 r8 }4 lCompression mode                         : Lossless% r! O* }4 o8 ~3 Q5 }( t) e5 c6 K
Stream size                              : 1.43 GiB (8%)
: M. ?0 o. n+ N4 fTitle                                    : Sniper.Assassins.End.2020.1080p.BluRaycd.REMUX.AVC.DTS-HD.MA.5.1-FGT: u4 X3 ?5 Q9 z! p  X( t
Language                                 : English
5 h: s8 a$ j4 |4 DDefault                                  : Yes
1 v; j8 K* s  w( P2 U4 `Forced                                   : No+ d* Q  J/ G. L! |# [
Original source medium                   : Blu-ray
$ g8 r9 x1 |  P, X" Y0 L
) G" a1 O. _5 \Audio #2+ B" _3 H4 C2 T4 @0 N2 U
ID                                       : 3
4 ]5 y5 E! ]2 t  ~/ R; @4 y/ ]ID in the original source medium         : 4353 (0x1101)
, H% M3 f: s& z: Y7 D1 zFormat                                   : AC-3
* r0 W# [9 e) }) s+ B# ~' vFormat/Info                              : Audio Coding 32 B  b6 n) h& I) `  t0 v/ R
Commercial name                          : Dolby Digital% \: g6 x* f7 m2 n% ?
Codec ID                                 : A_AC3
' H3 c2 _3 F/ m. r' T6 HDuration                                 : 1 h 35 min# |( J! e, \- [' l+ t2 s6 A
Bit rate mode                            : Constant2 U6 X4 E1 V5 M, n: z: u$ n
Bit rate                                 : 640 kb/s
2 K: Y3 j. p0 [7 V- _; ]+ wChannel(s)                               : 6 channels
1 B4 A: N6 |* w. r, pChannel layout                           : L R C LFE Ls Rs+ J7 J/ y2 B- m, Q3 K  I* e
Sampling rate                            : 48.0 kHz
: K* y, n: B, v  q- L; }Frame rate                               : 31.250 FPS (1536 SPF)
0 f! p/ n( G( tBit depth                                : 16 bits) U/ E8 G- V+ f+ w7 |1 H$ a) S0 \
Compression mode                         : Lossy$ U9 Y/ ]' c0 e5 M+ s! n2 M
Stream size                              : 435 MiB (2%)! h6 D9 J# ^" D/ R, w: Z
Title                                    : Sniper.Assassins.End.2020.1080p.BluRaycd.REMUX.AVC.DTS-HD.MA.5.1-FGT
- \, U$ r' C5 g6 M* h3 HLanguage                                 : Russian
) g9 T) L& N' H0 MService kind                             : Complete Main6 D( @# c4 ?7 ^% i/ _' @
Default                                  : No. F8 ^$ n7 S; d4 y
Forced                                   : No
4 [/ x; @/ v+ d& lOriginal source medium                   : Blu-ray
8 g' r1 I( B& Q7 e/ c: O1 @+ d! Y( h5 O) k, P" u
Text #1+ ~) @# P* J" T8 l
ID                                       : 4# ^6 C  z/ I8 O0 G) @2 c
Format                                   : UTF-8, C3 U8 j/ q$ F# R, Q; ~
Codec ID                                 : S_TEXT/UTF8  I' n4 i6 a! c1 e
Codec ID/Info                            : UTF-8 Plain Text
$ o9 _' j2 L# d& c2 [Duration                                 : 1 h 29 min8 W, c1 O4 l6 P. }3 B
Bit rate                                 : 49 b/s
! e0 S; Q* ~$ v+ hCount of elements                        : 901* G- g+ Q( N# w+ r
Stream size                              : 32.7 KiB (0%)6 j! B9 |( u1 X" ~# J8 ~! ~( X
Title                                    : English-SRT
  a3 x9 a2 ~7 u8 S) z; ^Language                                 : English
* v' A1 L1 P' S/ ~: @  r  e. Q' ?+ `Default                                  : Yes9 U% }  ]) j; }0 e
Forced                                   : No
1 q: V; P/ c; m8 |* \; a
* K. n& \0 a: |2 O7 PText #2
6 s+ }4 P$ `( R4 v6 k7 fID                                       : 5
& q0 ?& V3 x' [. w) dID in the original source medium         : 4608 (0x1200)
  c6 b7 G, Y/ g% [Format                                   : PGS2 B# X& _. {" b/ C7 A- B
Muxing mode                              : zlib
! C% h  @: G% w7 x8 P/ w" xCodec ID                                 : S_HDMV/PGS  Z+ o5 J& c0 l( W& z, \5 O
Codec ID/Info                            : Picture based subtitle format used on BDs/HD-DVDs* H2 F7 u0 T, P' f+ S+ P- W3 c
Duration                                 : 1 h 34 min
* l) X3 P& W; z+ PBit rate                                 : 34.6 kb/s
- d) d4 e! j& W; n. O8 r, Z8 _. ]Count of elements                        : 2354
$ H3 z: ~% d' M% M& ?( ~! YStream size                              : 23.5 MiB (0%)8 k+ m2 h; w. |/ m. u
Title                                    : English-PGS4 N( _2 m7 L. c! v' Y8 s3 u: @
Language                                 : English
: A: t8 r1 I( D) `  [/ k  C$ bDefault                                  : No
; u+ a) e- H7 L  k! v0 q9 P* i% `! mForced                                   : No9 K; ^4 W. H, p, o/ [
Original source medium                   : Blu-ray
  G  Q0 K* o& ?
4 U5 g# U+ r  d: H/ lText #38 \) D9 ]8 i3 a; k& u$ F
ID                                       : 62 ^) m* `8 G) Y5 r# }: G, w( G# ]
ID in the original source medium         : 4609 (0x1201)9 D, J5 Y' H' u
Format                                   : PGS3 i( d+ N2 v; W" ^6 R3 C
Muxing mode                              : zlib2 C2 C1 ^' Y4 z7 `2 d: F# e
Codec ID                                 : S_HDMV/PGS. m+ q: Z0 I* _- n2 F5 U8 k) n9 `
Codec ID/Info                            : Picture based subtitle format used on BDs/HD-DVDs6 ^/ {9 [% p% h: D
Duration                                 : 1 h 29 min  }; ^/ }" x6 Y
Bit rate                                 : 30.0 kb/s
) b) ?7 d6 t- x5 m6 j# PCount of elements                        : 1802
. X7 l( ^0 ]. U8 G; o" qStream size                              : 19.3 MiB (0%)9 o6 n, C* N# F7 o3 B; j
Title                                    : English-SDH-PGS
- E, a0 U: [/ {+ ]7 z5 ^9 eLanguage                                 : English  ?: \  G6 d; {: I- ]
Default                                  : No
( p: W. I% J! KForced                                   : No2 D- ?3 x' E& K# S
Original source medium                   : Blu-ray4 I) w' ^  Q& j1 q$ q7 ^& ]

# D2 c7 j) |* N  ?. W2 |Text #4
% B1 s. O& l  O" E) X6 R5 NID                                       : 7/ W' Y/ S7 b% a3 `7 @; `
ID in the original source medium         : 4610 (0x1202)2 b7 S: V+ s+ M* j  g! V: C
Format                                   : PGS
" M2 c* F% J( `$ fMuxing mode                              : zlib
9 ]- U' h6 X  I# [! N9 {: MCodec ID                                 : S_HDMV/PGS3 g: q8 r- c2 w$ I' h5 ?( t
Codec ID/Info                            : Picture based subtitle format used on BDs/HD-DVDs
4 P& l4 F$ N. p3 ]* C$ h1 [4 h+ hDuration                                 : 1 h 34 min5 j9 _" G7 @; M3 n9 w8 f% J) L
Bit rate                                 : 34.6 kb/s2 H, |# R0 Q3 C4 m  ?" X: O; c# x
Count of elements                        : 2354
" A  P$ _; [3 G/ z  w3 f9 `Stream size                              : 23.5 MiB (0%)
! D- B% r- u" i$ M6 k# PTitle                                    : English-PGS
1 n4 b( t4 P5 w/ G) ]: Y0 M8 eLanguage                                 : English
% U  b* N: K0 R6 a2 @# IDefault                                  : No2 f4 \# m1 X! q% d9 z& ^  M
Forced                                   : No
9 b1 {) R3 K. nOriginal source medium                   : Blu-ray3 v  ^& ]# @* R7 E
) z+ L' h* @' d
Text #5
( H" y' r) B( e4 |ID                                       : 8
' \" E: Y( Q4 Q/ t0 D7 {/ V6 @ID in the original source medium         : 4611 (0x1203)! C' a6 [5 w- q2 \( k" V
Format                                   : PGS
) X7 X" d  D; g# d1 E# n# qMuxing mode                              : zlib$ R2 J% H! v$ T$ k5 s& n' U) w
Codec ID                                 : S_HDMV/PGS
5 M7 f$ D4 S/ W3 U+ JCodec ID/Info                            : Picture based subtitle format used on BDs/HD-DVDs
6 v# `" I, |( u7 mDuration                                 : 1 h 29 min6 y- F5 S: x  Q8 h! T' j; Q
Bit rate                                 : 30.0 kb/s9 d1 F  a3 A$ f- n# q- w) f' q
Count of elements                        : 1802
8 z5 q# @; a1 y" lStream size                              : 19.3 MiB (0%)
! D2 U$ M0 z+ o- d  x" ^Title                                    : English-SDH-PGS) |$ W  O3 x7 L
Language                                 : English
7 |  S  f3 c- zDefault                                  : No# y' v# u, i0 a
Forced                                   : No1 M7 V0 ]( b5 r# A! }
Original source medium                   : Blu-ray
  @9 Y( s' D1 o( I8 s( H( m
/ W0 _: L2 R+ R5 w7 YText #6! C& ^5 ]; i3 _0 S3 a' x' l5 u8 V
ID                                       : 99 h  s0 R( [. r7 }6 y$ y% a
ID in the original source medium         : 4612 (0x1204)! B/ j/ S$ I% S) z2 ~( `
Format                                   : PGS
3 h4 S9 O% M$ g6 gMuxing mode                              : zlib
( e: X! W% {2 r. {: c, i+ H$ P" fCodec ID                                 : S_HDMV/PGS
8 ?& s" d* {; j: ^Codec ID/Info                            : Picture based subtitle format used on BDs/HD-DVDs3 ?1 z2 g. M! h8 ^; O
Duration                                 : 1 h 34 min
3 v3 `5 m+ X" U7 c+ a2 kBit rate                                 : 17.8 kb/s
) L- W. p3 [& v, e. w- eCount of elements                        : 1842' v* v0 W+ g2 ~
Stream size                              : 12.1 MiB (0%)! `  t! j7 I: O% U0 i+ H7 B6 g
Title                                    : Arabic-PGS% l! r7 E4 Y, `* r
Language                                 : Arabic/ v" j3 x: U; T6 P- N( j' V
Default                                  : No: z# J+ B; S' k& b( I% I- ]. x. u
Forced                                   : No
1 ?1 C2 d: J  p3 ^: EOriginal source medium                   : Blu-ray1 l6 }# c3 a' H+ e% Y/ S
1 R$ S6 E6 Z/ Q0 z; z
Text #7
5 s4 ^2 q! U8 j; u+ q9 IID                                       : 10
1 V! [& p+ {; c" SID in the original source medium         : 4613 (0x1205)2 L- j& @4 f& b1 O9 A9 Q8 j8 F
Format                                   : PGS
. E" c! C2 a- S( m) u3 W% A: iMuxing mode                              : zlib8 u6 M) {( t% U! J9 m! p
Codec ID                                 : S_HDMV/PGS+ y* V2 Z# {. l1 i2 T/ K
Codec ID/Info                            : Picture based subtitle format used on BDs/HD-DVDs* C: j' j- t4 p/ U) [! R6 Q
Duration                                 : 1 h 34 min% |; Y- I# t/ a! E6 `) f1 J5 z- T
Bit rate                                 : 25.5 kb/s) q/ E/ c8 k4 [$ R# N
Count of elements                        : 1842
3 |% D3 F/ z1 x  n1 v: Q/ QStream size                              : 17.3 MiB (0%)
' X& ]! W; u1 I1 LTitle                                    : Chinese-PGS
; m* V+ m0 t& I6 z( jLanguage                                 : Chinese, K% e( F5 J! m0 U- u
Default                                  : No
* K& e7 U5 D8 [6 d# ^9 `" y: aForced                                   : No
) F6 a/ V$ F: D. w  aOriginal source medium                   : Blu-ray
0 m' l# O5 E' \5 ^5 [" b: @0 L4 a9 B1 v/ }. `
Text #89 m  f+ w3 F' j) U: `# G, o7 |
ID                                       : 11  [; J5 H; j9 ^' q
ID in the original source medium         : 4614 (0x1206)% b' n/ A3 Q! i0 r1 ^) u
Format                                   : PGS" z! d6 W5 a' q8 P) e4 j6 ]/ j$ k
Muxing mode                              : zlib: V6 J4 q6 p& P/ P! v* {
Codec ID                                 : S_HDMV/PGS3 s# ^& s1 |6 w" r2 \
Codec ID/Info                            : Picture based subtitle format used on BDs/HD-DVDs, Z2 s' [5 y/ D, \) P) p8 b
Duration                                 : 1 h 34 min7 `# n- S( E* C- f
Bit rate                                 : 24.1 kb/s
$ }3 y# _  z9 FCount of elements                        : 1842% |5 x  W1 o4 G0 r, }, r5 R( s
Stream size                              : 16.3 MiB (0%)+ G. b5 i& x1 f& A  i+ }
Title                                    : Chinese-PGS
# C' d) A6 ^$ n& d0 U+ z7 J5 VLanguage                                 : Chinese* a% e- K! A& X' N# u
Default                                  : No3 N6 Q/ q" d! R8 H2 n( B/ @; y
Forced                                   : No
$ Z2 b, c8 S  P  yOriginal source medium                   : Blu-ray
, v* b( S2 [4 c2 P* X& V( t" N  ?9 J8 ?) Y9 ~4 z6 K  l
Text #98 `; }6 a& R  N- t
ID                                       : 12
$ Q' C7 B( }: V: O" nID in the original source medium         : 4615 (0x1207)" f/ y/ b" X% S+ w5 s; ?
Format                                   : PGS( H% a1 u, U3 {$ u4 ^! _0 `; F& D
Muxing mode                              : zlib3 W2 \7 o4 f$ |' X7 H
Codec ID                                 : S_HDMV/PGS
& W1 B- t. B7 W( ~5 mCodec ID/Info                            : Picture based subtitle format used on BDs/HD-DVDs
0 ?  b) W; }, a( X; g' \' Z6 EDuration                                 : 1 h 34 min' R: e4 f. l# h* w. M
Bit rate                                 : 25.4 kb/s
% A  e3 V2 A& ^4 J5 wCount of elements                        : 1834
2 _" _/ |" P% v) a* v, R$ WStream size                              : 17.2 MiB (0%)
" V, F7 _+ z, ~' [4 v# V/ ]Title                                    : Czech-PGS
/ R, `  d. q! d0 s  {% TLanguage                                 : Czech
) ]# o- r) {+ q) IDefault                                  : No
3 ]1 m6 D& _' G7 [4 o+ p$ VForced                                   : No
9 _4 n0 |  w- t- fOriginal source medium                   : Blu-ray
- J2 V) S+ p1 f3 A7 k. P$ O9 f4 H' Z9 ]# a, m
Text #10" M8 V" Q' q! |! _2 f+ l! W  L
ID                                       : 13
) [  L0 z$ M  ]3 l% t8 q& `ID in the original source medium         : 4616 (0x1208)
& ?$ L$ ]7 P" M( _% {Format                                   : PGS  s4 R- ]* O& ~" _6 j/ V& A0 F
Muxing mode                              : zlib9 O( w2 U$ W1 x/ O2 m7 m
Codec ID                                 : S_HDMV/PGS
/ L% X, I3 k$ Z4 z% N  CCodec ID/Info                            : Picture based subtitle format used on BDs/HD-DVDs& B% L0 C1 F' }, e! ^3 Z
Duration                                 : 1 h 34 min, ?5 T) }0 I! |+ s
Bit rate                                 : 24.0 kb/s+ T: d9 V1 ?1 J1 c
Count of elements                        : 1826* S; \9 B6 `& j' c
Stream size                              : 16.2 MiB (0%)8 ~: z+ U6 o3 \5 P; |7 t+ R8 h
Title                                    : Danish-PGS$ b2 l. |# [0 j; V
Language                                 : Danish( l4 n+ Q! U- Q1 z1 U6 G9 Q
Default                                  : No
3 q8 i! k; T% tForced                                   : No
% Y0 k' g9 u3 G" A% W. {0 ROriginal source medium                   : Blu-ray
3 }, M& a: a. K5 N9 C% s" d/ W; U* p" ?5 d/ \- x
Text #11, E; A( x& i3 {( r
ID                                       : 14( A8 \/ P0 i6 ^) }
ID in the original source medium         : 4617 (0x1209)4 d( w, T- f4 ]
Format                                   : PGS- h  |7 h9 ^: d" |: o: O
Muxing mode                              : zlib/ b3 p1 d& C# l! ~
Codec ID                                 : S_HDMV/PGS% r9 S: ]$ c/ K4 Q
Codec ID/Info                            : Picture based subtitle format used on BDs/HD-DVDs. ?- [% P! v9 c& r7 Y4 Q% `
Duration                                 : 1 h 34 min3 W  v9 p; k) }9 R
Bit rate                                 : 23.3 kb/s
# `2 J8 w( [- r; r' pCount of elements                        : 1654
* R2 O0 ?" |, @4 }Stream size                              : 15.8 MiB (0%)
; y7 i: E  J( N  x0 s1 JTitle                                    : Dutch-PGS
1 b3 m/ A% \/ a: B7 }Language                                 : Dutch  y) z' P, {% t+ X% Y  A) Z" G
Default                                  : No+ X6 z$ B9 F3 N" r6 A
Forced                                   : No
" B$ x6 S! y2 }" g/ V8 DOriginal source medium                   : Blu-ray- H3 ?$ H/ D# {0 M+ z8 R

+ e, q& Y7 Q' w4 \' ZText #120 L2 ~+ B5 _+ L/ ]' c& P
ID                                       : 15
( S" U; I( f" m2 Z$ p  s; UID in the original source medium         : 4618 (0x120A)5 C& }! {+ n* w0 @" T( f' ~
Format                                   : PGS
& e  v1 D9 [; L+ H0 n/ ^8 oMuxing mode                              : zlib( }7 D0 v3 G8 m4 p7 s
Codec ID                                 : S_HDMV/PGS
* b3 w1 n5 _7 i, _0 S) c' tCodec ID/Info                            : Picture based subtitle format used on BDs/HD-DVDs
7 s. @) ?( r: R6 N7 ^Duration                                 : 1 h 34 min
1 ?, e1 ?: n/ h( YBit rate                                 : 27.3 kb/s$ e+ ^( G- u4 {+ ~  P  c
Count of elements                        : 1830
& x/ d5 A* i" uStream size                              : 18.5 MiB (0%)
& |- R4 Q8 B3 ^5 M/ F5 FTitle                                    : Estonian-PGS1 S4 t! G1 {4 {9 I
Language                                 : Estonian
+ V# v! p+ d- \& T7 [Default                                  : No3 W- v* p! T3 g. G) d4 q
Forced                                   : No0 X) u+ f6 D: b0 U" s; V' I
Original source medium                   : Blu-ray
* G7 r) x( T4 r
. e' H; f1 _, b2 Z( X% ^Text #13
. A4 c* U4 z  c" c& qID                                       : 16
6 [- t7 B& i9 D% C7 Z5 G- q* `4 S: v) VID in the original source medium         : 4619 (0x120B)
  y. o1 c" D  x' x) l9 tFormat                                   : PGS7 ~. [: p/ x( w7 S4 E
Muxing mode                              : zlib# p- q% y/ g- S( b/ B
Codec ID                                 : S_HDMV/PGS
( l$ @  F3 z9 C( g9 \) }Codec ID/Info                            : Picture based subtitle format used on BDs/HD-DVDs! U5 N9 V  O) G* W  h% m6 M3 a
Duration                                 : 1 h 34 min
9 Z1 y3 a# m# t$ O" ~( K& z. x* f: `Bit rate                                 : 27.1 kb/s6 |0 V1 a& d8 G& n1 ~/ y
Count of elements                        : 1774
/ Z$ Q$ e3 M0 u6 t* d9 a4 JStream size                              : 18.4 MiB (0%), t3 @) y$ g+ r% h
Title                                    : Finnish-PGS
* Q- Z% {# X) P1 W0 N/ g& \' T1 zLanguage                                 : Finnish
  l4 G1 ~) J0 Y$ e! YDefault                                  : No
8 y' U! g9 e+ s8 \8 @5 T: zForced                                   : No
/ s# P& y2 B8 `2 w9 s7 NOriginal source medium                   : Blu-ray
3 b7 R, G, E: T5 P
! n8 S6 @# }1 z, z; KText #145 d' e+ d: t* d5 y1 N3 e1 Y
ID                                       : 17
  N1 j+ ^- T' _* zID in the original source medium         : 4620 (0x120C)
) K7 P/ f4 h" K* eFormat                                   : PGS
! @; e6 E' g( K/ {' o( C! |Muxing mode                              : zlib" a" w6 r0 {- G7 @
Codec ID                                 : S_HDMV/PGS
  _5 V" x( s" Q" r3 X6 YCodec ID/Info                            : Picture based subtitle format used on BDs/HD-DVDs
' ]1 G) u3 a% R7 P; @: TDuration                                 : 1 h 34 min* V# L! I7 W4 a& S, _8 B9 \
Bit rate                                 : 20.6 kb/s
7 }: H/ G2 @- VCount of elements                        : 18100 R, Z" D% H) e7 n: s" C8 L$ e
Stream size                              : 13.9 MiB (0%)% r: u" h$ f; N3 b
Title                                    : French-PGS
) F( n! M  f' G& t( yLanguage                                 : French
& k5 n! X; \  {! x2 J! ~. y* bDefault                                  : No, A* F% }% A% _# v2 L5 A$ K
Forced                                   : No
/ _/ f8 @9 h7 Q4 XOriginal source medium                   : Blu-ray2 R& c' f: C/ u/ y

" x" {2 ?) I5 A5 kText #15
; l* Q; F9 N  F9 `8 A5 R8 q1 lID                                       : 18
! P) G  r# N8 D. X! r% v' vID in the original source medium         : 4621 (0x120D)5 F) j8 C0 ^5 q3 g
Format                                   : PGS
$ ^4 J# Y. K  C4 F# I* ZMuxing mode                              : zlib  X$ t7 k0 d' {( d6 ?; T
Codec ID                                 : S_HDMV/PGS
) V+ p( G# K3 x  W6 l; ICodec ID/Info                            : Picture based subtitle format used on BDs/HD-DVDs3 f9 Q; D5 o9 G/ Q
Duration                                 : 1 h 34 min' o6 ]0 b. S$ i! J5 u: h7 d
Bit rate                                 : 27.5 kb/s: V+ ]( _, V* M+ a1 H
Count of elements                        : 1826' C  E6 W* _& v* U; q5 V
Stream size                              : 18.6 MiB (0%)
$ z8 E2 G$ E& u2 i( _9 s2 [Title                                    : German-PGS, H: y; g: n" Y4 J! d1 h5 r
Language                                 : German
2 \0 g: a# r4 l8 bDefault                                  : No/ y3 T* M! q) [1 L, {
Forced                                   : No
! Z7 N5 g# h6 s% k2 B8 P3 EOriginal source medium                   : Blu-ray$ u$ @9 H6 u2 N5 T( _' V
" J; H# Q- k0 z7 d* s3 F& X
Text #16' {) A$ z( j$ W! z8 R
ID                                       : 191 L$ T3 E+ ]% {3 U
ID in the original source medium         : 4622 (0x120E)
0 Z3 B2 N# _0 W/ E: |Format                                   : PGS
9 G2 |: Y: i% c' X/ @- s# s; ]Muxing mode                              : zlib2 l" c/ o- E$ C* ]
Codec ID                                 : S_HDMV/PGS" k3 p4 R% e: `
Codec ID/Info                            : Picture based subtitle format used on BDs/HD-DVDs
/ Y4 `2 }+ x/ E/ W' i- s4 z) UDuration                                 : 1 h 30 min# u! K2 n! J" C: L6 t
Bit rate                                 : 28.8 kb/s
+ b/ A9 R) Y; r8 s, v+ q) A+ C% wCount of elements                        : 1844
5 P) Z) x* F# b0 d  E; U/ WStream size                              : 18.7 MiB (0%)
  S6 D( z- n" c7 l4 C/ O8 T# D0 zTitle                                    : Greek-PGS5 s& T% \" W" @. B* j
Language                                 : Greek+ _% m; A; j" Z2 N) R& s
Default                                  : No: v& S) `$ v- ^) ~" k9 X
Forced                                   : No
4 r4 v7 j' z, W' ?; V4 w- a' a7 TOriginal source medium                   : Blu-ray% u" N1 \% Q5 B0 x! O% O2 h
4 t6 P: \) \5 I2 ^, d4 e
Text #17
4 r: N! |. e0 j! F4 C6 Z& TID                                       : 20* g: E7 ^2 W, U  [- \
ID in the original source medium         : 4623 (0x120F)
: Y+ P7 n1 N, AFormat                                   : PGS1 k: y) T; H5 s' r9 \
Muxing mode                              : zlib, Q( l& i% [  R: [3 b. ~* k
Codec ID                                 : S_HDMV/PGS+ s( C6 I+ e0 i* u& t8 K7 B
Codec ID/Info                            : Picture based subtitle format used on BDs/HD-DVDs( H2 X0 R. g2 F2 A# \; P
Duration                                 : 1 h 34 min# I- f' T6 u$ Y- y5 s" U
Bit rate                                 : 27.5 kb/s
% G8 q( S1 f5 ^Count of elements                        : 1828
7 p+ ?0 R* B) M9 @Stream size                              : 18.6 MiB (0%)8 P3 g( k+ e3 P$ S" n8 S6 L
Title                                    : Hungarian-PGS
  B' B( A* ^) v/ G# H% iLanguage                                 : Hungarian* U, Q0 C) z7 k7 C) i
Default                                  : No$ g. b! H. i) F
Forced                                   : No, o/ h0 C' x* B( @. N
Original source medium                   : Blu-ray9 u8 F) z- w! ^% A/ h% O7 D

$ B' @2 b# o$ lText #18
) j1 Q0 m0 k. }- r. XID                                       : 21
6 ~4 X4 M# W% N1 j" H) g" b2 ?ID in the original source medium         : 4624 (0x1210)9 c2 ?& @( b4 N. o& a
Format                                   : PGS
, l3 y1 a9 z2 v4 ?+ S3 [Muxing mode                              : zlib
6 C, n7 I, _# R2 G% A" p7 x- x' MCodec ID                                 : S_HDMV/PGS2 |0 T6 @' ^; S( u. g. C9 O# G
Codec ID/Info                            : Picture based subtitle format used on BDs/HD-DVDs
" I" d3 ~3 _/ `, J4 e7 Q8 ]Duration                                 : 1 h 34 min
7 |# d; Y4 ~2 wBit rate                                 : 26.7 kb/s! M* J# G  D# F9 Y6 e  ]" ~
Count of elements                        : 1820' N# }5 w- t# d9 [+ N3 n# d6 d' }; T& F
Stream size                              : 18.1 MiB (0%)
: k6 Q# f2 m! S9 c4 {Title                                    : Italian-PGS
; ]' Y- A6 e  P5 r" t' J1 PLanguage                                 : Italian
& D) L, }4 J! O0 o$ oDefault                                  : No
% ]7 e0 w1 X  H; o( g/ P2 aForced                                   : No! e& c4 N3 E* Y" U1 w$ C5 w
Original source medium                   : Blu-ray
6 o8 d, M3 }' t) [- V4 T
$ @1 S% A  @- p; e( W4 B( pText #19
) x7 V6 V% @: o2 W: t. PID                                       : 222 F& v' a  w  o. [/ [& Y: e
ID in the original source medium         : 4625 (0x1211)6 Z+ W- ^0 C5 {  O# h
Format                                   : PGS7 g' m6 J, V# j! m& Z: s% N9 \
Muxing mode                              : zlib" j; D- L5 u+ n* Z0 l
Codec ID                                 : S_HDMV/PGS
) i, U: v' |/ G- vCodec ID/Info                            : Picture based subtitle format used on BDs/HD-DVDs
/ T  v  L" ?- v" SDuration                                 : 1 h 34 min
! H  y0 ]) S: _9 H5 WBit rate                                 : 22.1 kb/s1 g. [  o5 R: M7 m
Count of elements                        : 1775
; G8 E! y/ g9 K8 _/ FStream size                              : 15.0 MiB (0%)& c- P' x# |' E$ \- b' n
Title                                    : Korean-PGS4 L0 `6 b" Z8 X6 H- v1 x- Q
Language                                 : Korean
% V& D% d, g$ T1 ?& YDefault                                  : No
% K) ^+ B8 d+ p, y/ f  A& u+ gForced                                   : No1 N1 B. B! |9 C# w& v
Original source medium                   : Blu-ray0 L- N% _$ ^* T( z0 u9 c8 s4 g

: j3 T# G! Z, l, {$ i8 h( w! M) Z; BText #20) f- Z. {' B/ C; B' k" t6 t
ID                                       : 23* W+ {' O9 h5 A1 [
ID in the original source medium         : 4626 (0x1212)
- I; F2 m: \; B; lFormat                                   : PGS
! k0 i9 K+ m5 p$ f' n. ]+ Q7 vMuxing mode                              : zlib4 l- F4 W0 L6 Y3 B1 S7 x0 U
Codec ID                                 : S_HDMV/PGS9 q( p2 d) g- X  y
Codec ID/Info                            : Picture based subtitle format used on BDs/HD-DVDs
+ \; d3 e5 D: u3 eDuration                                 : 1 h 34 min+ B5 j3 P* r% |
Bit rate                                 : 26.4 kb/s2 c2 g# \8 z$ D! J
Count of elements                        : 18427 c6 q+ y! s; T4 N) `
Stream size                              : 17.9 MiB (0%)0 A/ X/ Y+ |8 T/ u, W
Title                                    : Latvian-PGS3 t& S5 ]# K* L; A) G9 x8 Z, B
Language                                 : Latvian
( m# K6 a* l$ H8 {4 _* \1 j$ _Default                                  : No
  v5 H. t, z/ D, ZForced                                   : No) D0 ^* p( f: |6 \3 f$ Y
Original source medium                   : Blu-ray
1 C' d3 D+ T4 l' L; p& r2 U& x8 P2 I" {" S+ L% i" N
Text #21( A) O, P6 c4 F4 \& E, ?5 j! K
ID                                       : 24
. Z; h1 A4 t  g( Q- Z  l- bID in the original source medium         : 4627 (0x1213)) Z& S6 f& |5 J( ], H5 w
Format                                   : PGS* h5 N- y/ y' @( P" ~
Muxing mode                              : zlib+ S2 A( Y# j' o9 r. f
Codec ID                                 : S_HDMV/PGS
8 r/ x+ _( O% |% p, f3 j# @# gCodec ID/Info                            : Picture based subtitle format used on BDs/HD-DVDs! k) s6 r3 S& @' M' w
Duration                                 : 1 h 34 min* Q& d% ~' ]) z5 a* h
Bit rate                                 : 22.3 kb/s* e9 W" C6 j8 \0 \
Count of elements                        : 18388 G' @8 V3 m4 K# R7 o0 C! H
Stream size                              : 15.1 MiB (0%)
! D! j/ m0 Y; d0 m' m7 h1 mTitle                                    : Lithuanian-PGS
! F2 Q) P0 q/ l5 V' CLanguage                                 : Lithuanian+ E4 i; U, p6 N7 ]' x
Default                                  : No
. Y; V6 e+ k* a5 n7 SForced                                   : No
. c4 f5 |/ h  JOriginal source medium                   : Blu-ray8 u! ]9 y, N" L% M2 k
1 }+ ~+ m6 V- C% g
Text #22
1 V  k( W+ t% h0 F: C, [ID                                       : 25
3 ]7 v% e/ i5 V; T' D( g6 i9 ^ID in the original source medium         : 4628 (0x1214)2 z) R2 E& F# z4 J7 z+ H
Format                                   : PGS
! B7 `2 W# v$ B- M5 i& {3 D; V+ g. lMuxing mode                              : zlib
/ W% r+ f: v5 sCodec ID                                 : S_HDMV/PGS9 T( V! I3 F( E) w1 m1 Y4 h# K
Codec ID/Info                            : Picture based subtitle format used on BDs/HD-DVDs5 k1 @# v. `* ]6 E
Duration                                 : 1 h 34 min9 \2 P1 u, Q' o5 K
Bit rate                                 : 23.9 kb/s( @7 D; a& ?& N( k& N
Count of elements                        : 1810& n, g! C0 w! Y2 P3 [3 u5 E; Q$ b1 L
Stream size                              : 16.2 MiB (0%)8 l2 Q6 }6 n+ K% q6 P
Title                                    : Norwegian_PGS
, f* F, c4 Z" b2 d/ XLanguage                                 : Norwegian
; Z1 g/ d3 k9 Y6 n' V( R+ bDefault                                  : No
# C' Y6 `/ z2 |% _# jForced                                   : No$ A+ p1 e. [) {" Y  |& X% `2 [
Original source medium                   : Blu-ray7 R/ H" d/ b! C8 o) O' P' Z. f

# V6 D/ |; z9 qText #23
0 B: p5 Q7 }/ h' `" \ID                                       : 26
( B0 L; ], Q/ X7 ?  i. Z9 r1 V$ TID in the original source medium         : 4629 (0x1215)& U! v* C4 I2 t
Format                                   : PGS% Q% w' d+ \: Z1 |& }! n) x) J
Muxing mode                              : zlib0 H, D% x8 E1 r$ W! k+ E
Codec ID                                 : S_HDMV/PGS0 I( G' v& n: q7 Y, K( ?1 Y' @  E
Codec ID/Info                            : Picture based subtitle format used on BDs/HD-DVDs3 J( O9 J4 s7 l& i2 B5 R6 I. k
Duration                                 : 1 h 34 min1 L& S% q5 N9 F0 n
Bit rate                                 : 26.7 kb/s
7 |- F! s5 m* r. N3 M' V/ FCount of elements                        : 1846
# E" d% d2 ?# G, Y" |Stream size                              : 18.1 MiB (0%)& l0 @5 U# h. a- h# V2 x
Title                                    : Polish-PGS
( D, a8 s2 q' I4 ?$ y2 x$ P' G/ hLanguage                                 : Polish
% ~) I9 D7 V1 w$ J, _Default                                  : No* c( a+ @9 |8 i+ D
Forced                                   : No! e! v: P5 O5 f0 h+ A
Original source medium                   : Blu-ray0 S& A: U6 }: P  B8 w( @

& L$ x' C: K- [( K7 x' RText #24
6 I: K" ^* ~2 F! |. }- cID                                       : 277 D- [( M9 D' y8 a  T# z
ID in the original source medium         : 4630 (0x1216)
' N7 J9 M% _: I1 M- l& t- x* uFormat                                   : PGS. p. S% P, R" s0 U4 h, C* j
Muxing mode                              : zlib
5 o, L9 P. K/ I" fCodec ID                                 : S_HDMV/PGS
5 @. @; n3 W6 P/ @$ i9 mCodec ID/Info                            : Picture based subtitle format used on BDs/HD-DVDs  e& k$ o. ^' s2 L& y5 h
Duration                                 : 1 h 34 min9 G1 C$ K0 G2 e) X+ L
Bit rate                                 : 27.6 kb/s3 ~% b. v9 G+ X, V* F4 ?
Count of elements                        : 1822% ~- }3 U" i9 x; E( J
Stream size                              : 18.7 MiB (0%)
' v: y# ^" v$ K4 d* n( STitle                                    : Portuguese-PGS0 P* v, h! _! W& H+ P) L
Language                                 : Portuguese* K9 U% A5 p: Z, k! S+ S$ {0 K
Default                                  : No
( b! Q( Q+ k8 ~) @4 _3 wForced                                   : No: a+ r8 Z) L% a' s: D
Original source medium                   : Blu-ray
. G7 p# X3 @0 S' @. c% X
: D* y0 C. z# P' m" sText #25
/ N7 N0 y  `+ b* t; ^% lID                                       : 28
* P' V" q/ x% DID in the original source medium         : 4631 (0x1217)
2 _& X- B& V; U3 c1 M$ aFormat                                   : PGS  A' e, _0 [2 l
Muxing mode                              : zlib
) h+ T+ c* I+ ?/ G; ^9 l: q+ ?Codec ID                                 : S_HDMV/PGS
! Y. W: h" g( @) r8 @4 gCodec ID/Info                            : Picture based subtitle format used on BDs/HD-DVDs" w  A9 S7 D, D8 x
Duration                                 : 1 h 34 min
2 x" i( D1 }) y7 @7 sBit rate                                 : 27.7 kb/s% C  x1 a& s( F) v9 G+ [
Count of elements                        : 1830
2 e/ z: D5 t; ^' m! t0 U8 t! lStream size                              : 18.7 MiB (0%)6 a! v' k$ [. U3 }# g$ j& ?
Title                                    : Portuguese-PGS
$ N. U, G! J/ F- R& H8 ^8 }Language                                 : Portuguese
& y. K( @; ?8 {* I: M' sDefault                                  : No& @7 q1 k1 y" ]" ^
Forced                                   : No
" X$ V9 X: [0 QOriginal source medium                   : Blu-ray  @0 [. B# C7 J) Y! n# }

& L$ h0 W, n, @# zText #26
3 E0 |5 ]. D( _ID                                       : 29$ \7 [. d0 y3 p7 N$ \, r5 Y
ID in the original source medium         : 4632 (0x1218)
0 M& D1 B$ V  t+ o: h4 R4 z2 lFormat                                   : PGS! b) R' i# _. A, r9 ?, F
Muxing mode                              : zlib
- c, e; E; S6 l% W/ C& c6 gCodec ID                                 : S_HDMV/PGS( L$ P/ ]9 s( Q7 W6 j
Codec ID/Info                            : Picture based subtitle format used on BDs/HD-DVDs
+ q( D0 n$ j+ o0 c' P; LDuration                                 : 1 h 34 min$ C' S0 D& t' Y) {( `* q
Bit rate                                 : 29.3 kb/s4 w) ]- }: r* \$ o# Q- \
Count of elements                        : 18327 a5 n. K7 b# X1 Z/ A
Stream size                              : 19.8 MiB (0%)7 m5 |- t4 G0 e: g: \
Title                                    : Romanian-PGS: s* k0 R4 _- C% U2 m& G% x
Language                                 : Romanian0 b' m: {; N/ @; F4 Q3 l* ~
Default                                  : No- ^' K- Q, U' @* {
Forced                                   : No6 }. m' {8 I4 @4 i5 y
Original source medium                   : Blu-ray  _( a+ ]; }2 Y3 j' V: |  C
8 o5 a1 M* Y6 [" e" H/ l3 w
Text #27; n- \) ?4 V( p
ID                                       : 30
) H& n$ M2 r+ LID in the original source medium         : 4633 (0x1219)
8 }, h6 {. K* `6 m* mFormat                                   : PGS
: t  j+ P1 W9 p6 i6 L% ^Muxing mode                              : zlib
1 j; g- A8 V$ QCodec ID                                 : S_HDMV/PGS$ N1 r  G: g& I* g/ P% x
Codec ID/Info                            : Picture based subtitle format used on BDs/HD-DVDs% A, Q* ]' U9 J' |
Duration                                 : 1 h 34 min5 Y& m5 V, z4 S( ?8 W  R0 l
Bit rate                                 : 28.0 kb/s! C2 }6 B- P0 W
Count of elements                        : 1844
% n0 o2 i/ p" D! u7 {# I. wStream size                              : 19.0 MiB (0%); `" D: c# A( M7 t& b
Title                                    : Russian-PGS
: X/ @1 O5 k, G7 m4 eLanguage                                 : Russian& h, i7 g' X8 C% W& T8 f+ S
Default                                  : No
3 n& x8 ]- y( i4 r) u/ pForced                                   : No
. e9 w) r' |0 j$ B" D: o0 lOriginal source medium                   : Blu-ray# @& Y% L# \3 t5 k2 Z3 ~: ]$ R
' W4 q) m8 }9 Z/ s+ _' Y  l
Text #28
2 p* x( W" t5 j4 P6 v% TID                                       : 31# ^! h2 u8 D( g# y9 n6 u$ a8 X
ID in the original source medium         : 4634 (0x121A)
1 J6 k2 d5 |( QFormat                                   : PGS+ e0 O. W2 C: {5 P4 \' ~) L
Muxing mode                              : zlib
( r! U( m& r" W" B4 @" X, n; {! fCodec ID                                 : S_HDMV/PGS
" m) t. f1 {: aCodec ID/Info                            : Picture based subtitle format used on BDs/HD-DVDs
( W7 j/ a) |9 h4 ]5 T! ~; s( X  }$ |Duration                                 : 1 h 34 min2 o% b! q) ]1 f5 l+ w9 K
Bit rate                                 : 26.0 kb/s
" Y. C" a. z; h, {! F8 z1 y0 f( d8 XCount of elements                        : 18327 ]* M& y5 n( I! y# B
Stream size                              : 17.6 MiB (0%)
* P( z/ r3 k' a; STitle                                    : Slovak-PGS
, S3 q+ S, F5 _* E2 k- \8 dLanguage                                 : Slovak
$ k# u1 K% h: q( l" s+ WDefault                                  : No
5 w8 M; f0 u- t: p7 q- V9 w/ E$ qForced                                   : No, _0 N8 G) _. ~  L- M8 L2 U- @$ h
Original source medium                   : Blu-ray! q7 R1 q2 b8 C: ]# w8 M# M
7 T# d( Y1 h" p
Text #29- T3 _) u  M! L7 U/ f% A/ r, L) z
ID                                       : 32$ t5 s! {$ c) ^0 R6 N
ID in the original source medium         : 4635 (0x121B)  _5 s) z: g; \) j3 w  z6 H9 A
Format                                   : PGS6 H% m7 B- U. s1 v: E5 a/ j1 X
Muxing mode                              : zlib
+ {' s1 }: _# g$ l% R8 @$ n- JCodec ID                                 : S_HDMV/PGS
' t! W0 n( a  s4 d. _& a7 F: nCodec ID/Info                            : Picture based subtitle format used on BDs/HD-DVDs- R9 T( i" x$ _# |
Duration                                 : 1 h 34 min- @% c3 e0 \1 f( i
Bit rate                                 : 22.1 kb/s% d) d4 p1 {0 d( Z! D: O4 Q  ]
Count of elements                        : 1834; ^( Z) u/ F- [4 e/ Q$ K) B
Stream size                              : 14.9 MiB (0%)
- u  E. U5 L) b& m8 i. ?) _  ]Title                                    : Slovenian-PGS' B* k; d* i0 Q
Language                                 : Slovenian
2 v) }3 @: d/ F  @# o/ LDefault                                  : No7 p/ e/ C' t: {+ B8 \0 m0 s6 O
Forced                                   : No
! E  o0 X/ S5 G( _- b& F* AOriginal source medium                   : Blu-ray, b- F5 u. t4 o7 o3 y

) e' y5 J, t# H# ~2 r% r8 JText #30
% M+ G6 O( G$ H% w6 }% b$ k- cID                                       : 33+ H2 S. s/ ^7 Y: ?* l/ K
ID in the original source medium         : 4636 (0x121C)
  M7 t% s6 K6 s9 o- t  D& t' [Format                                   : PGS1 }3 c- O" O+ ^% h
Muxing mode                              : zlib
5 l, C: B0 H+ H7 c! WCodec ID                                 : S_HDMV/PGS
% F3 u2 F8 t* J. F% [! ]Codec ID/Info                            : Picture based subtitle format used on BDs/HD-DVDs7 j' M" q, C/ p3 [2 n4 e
Duration                                 : 1 h 34 min
, [% U- T) D3 UBit rate                                 : 26.7 kb/s
3 U  J* b7 c9 u2 H& l% f& YCount of elements                        : 1822
; a+ l; h3 {! }% d) ~Stream size                              : 18.1 MiB (0%)
+ b8 I. O; U9 r( w! jTitle                                    : Spanish-PGS
( ]4 P  a& c/ Z% T- z0 F7 R4 |Language                                 : Spanish) L4 H& G, W* k
Default                                  : No
# j! l; E  N: ]' V9 x8 I# GForced                                   : No/ W% _4 ~  d7 K! S9 ^& x9 B
Original source medium                   : Blu-ray
' e3 D6 B8 h8 c9 B1 Z3 `4 R6 j) p2 }' P
Text #31
" w/ c  V4 U6 u7 N) J- _2 [ID                                       : 343 C/ R& A# D5 U$ I, Q
ID in the original source medium         : 4637 (0x121D)
8 C9 f: D- T1 w- r5 R; tFormat                                   : PGS! E) J9 s+ @$ d
Muxing mode                              : zlib5 e/ ^) V7 C& i" {
Codec ID                                 : S_HDMV/PGS
8 ^9 d  X* L( |& o. J# s" oCodec ID/Info                            : Picture based subtitle format used on BDs/HD-DVDs
9 N) c0 D- A" L" T. ^7 l) cDuration                                 : 1 h 34 min: {: n4 l4 [1 i' K# U
Bit rate                                 : 28.0 kb/s
) E/ R- z) x7 t! R+ _  ^9 k/ \Count of elements                        : 1828
$ ?8 i3 s. K1 ], fStream size                              : 19.0 MiB (0%)3 Z' o5 p, L3 T6 }0 k& C
Title                                    : Spanish-PGS4 q; w+ O- |9 S8 g! {3 g8 k' i  i: ^
Language                                 : Spanish
9 R/ P% U3 V* b9 ]3 vDefault                                  : No
, M  m7 c, X3 \' @Forced                                   : No
" ^  I! m! H6 OOriginal source medium                   : Blu-ray6 M) v! r+ E( Z, N

# Q/ x' X1 J" e. F8 a: Q# k, f. WText #32
- L* S( w+ s$ NID                                       : 35
  v" I# O& E" q0 K  ]3 NID in the original source medium         : 4638 (0x121E)7 @4 }( w" E8 f3 w' C% V
Format                                   : PGS
6 ^2 q7 T  H0 t( Q6 }# l& Y. pMuxing mode                              : zlib( I, J6 H: v- Q: Q0 u8 x$ n
Codec ID                                 : S_HDMV/PGS
. d: B# B- A1 W! {/ i6 h. b$ a0 dCodec ID/Info                            : Picture based subtitle format used on BDs/HD-DVDs4 c; B6 ^' @) e4 M
Duration                                 : 1 h 34 min" }6 U8 S5 [4 ?8 b1 L" h
Bit rate                                 : 25.4 kb/s
: ?6 g# U, n! g& F/ cCount of elements                        : 1772
9 t$ U. x3 G5 z) D3 ^: uStream size                              : 17.2 MiB (0%)% ]: o6 D: q" R6 |  ~. T
Title                                    : Swedish-PGS
, X# u& r4 M; v- V$ y9 xLanguage                                 : Swedish
, c' V) l" {' x7 h) G4 H6 ?Default                                  : No
6 D8 g: s, g; T1 t! uForced                                   : No0 t- f0 q) U& z: K5 B
Original source medium                   : Blu-ray
! E7 b( `; ?, K8 t5 x8 q1 G2 }: W, y1 o0 ~+ k
Text #33; \$ Z! B4 m/ z6 F) t/ G" z& ^6 a
ID                                       : 36
6 L  f6 o6 M  z) Z* K& N3 {ID in the original source medium         : 4639 (0x121F)0 h' W$ [6 j. B( g  K
Format                                   : PGS
; Y. H+ ]5 B% y* c4 H3 |Muxing mode                              : zlib$ C- \, b2 U% K$ A0 v  L
Codec ID                                 : S_HDMV/PGS
! @8 f2 ~8 }. m' D  lCodec ID/Info                            : Picture based subtitle format used on BDs/HD-DVDs
! U' T$ h4 @3 VDuration                                 : 1 h 34 min5 @5 w) ]& C  z  S" F0 v* ?
Bit rate                                 : 27.9 kb/s
5 ~+ I$ A1 B1 p& ~( q; ECount of elements                        : 1844
) u7 |  S9 J, g, g9 @Stream size                              : 18.9 MiB (0%)1 n8 f# C' o! U5 p! x
Title                                    : Thai-PGS0 w2 p, c$ L: j9 N1 q
Language                                 : Thai: s6 L) \) p6 H! X6 J$ }
Default                                  : No
1 N5 o' u: ]$ VForced                                   : No, \9 n2 N7 n  S) Y7 x1 e/ P% q
Original source medium                   : Blu-ray
5 y$ `# D1 D1 }7 Q5 p: R& m3 c2 s
. C% f8 j" D8 eMenu
5 W2 W) G5 A7 c* n00:00:00.000                             : en:Chapter 01. X& \5 F  l- D- K
00:06:06.783                             : en:Chapter 02
+ C4 t7 r8 {" {3 o% j0 Y; ^00:13:01.864                             : en:Chapter 03
. E& [3 B& i8 [: v. z00:19:36.550                             : en:Chapter 04$ ?5 v$ f5 S# M2 M. S3 d. W& W
00:25:37.410                             : en:Chapter 05
" T' Q: g: m+ _' o9 p00:31:26.593                             : en:Chapter 064 E) q* h2 j- G' p
00:37:11.896                             : en:Chapter 07. W2 E# |9 }! t. }  ^) v
00:42:04.230                             : en:Chapter 08
' c  @& t: ^5 H* S+ M00:47:22.506                             : en:Chapter 09; E. ~' @8 l7 M4 ]" V/ f
00:53:11.104                             : en:Chapter 10$ b4 V8 @: S! N8 u- i4 n) A1 \6 O6 P
01:01:50.581                             : en:Chapter 11# X$ x7 x: B* H! h' f  O5 v# o! B
01:05:07.320                             : en:Chapter 12) z9 I' Z8 g0 z+ V4 g' G0 ~
01:08:12.671                             : en:Chapter 13
0 h0 z2 s) X8 V# L( `* ~01:12:33.515                             : en:Chapter 14
& f  L% B. ^5 U7 A+ G4 ^9 l01:19:43.320                             : en:Chapter 15; I) `8 H* p. j% J; t
01:28:07.573                             : en:Chapter 16
; R; M; W. R* N) {5 X5 F
) H. W3 \, V7 E. P1 v
游客,查看本帖隐藏内容请回复 | 加入VIP贵宾组可免积分免回复下载 立即了解 | 还不是会员:点击获取邀请码 Invitation Code

39

主题

1217

帖子

4338

积分

Sponsor

金币
231 枚
体力
1632 点
lanpanshuma 发表于 2020-7-4 05:14:52 | 显示全部楼层
每天都来蓝光论坛看看,我爱蓝光电影。
0 Y4 N( Y1 V2 K" JI love your Blu-ray movies Forum!
; m/ @7 [& V$ G: r" Y" M
该会员没有 ...

0

主题

420

帖子

1846

积分

Sponsor

金币
66 枚
体力
638 点
bais69 发表于 2020-7-6 20:36:59 | 显示全部楼层
谢谢楼主分享!

4

主题

124

帖子

646

积分

Sponsor

金币
80 枚
体力
275 点
wyyo 发表于 2020-7-7 08:38:22 | 显示全部楼层
膜拜神人,后来者请保持队列……!
4 J1 V! \" t4 ^+ R6 k% A0 s4 O9 Zbluraycd forum, a lot of Blu-ray movies!7 x+ ?  t  j+ w+ Z9 g

0

主题

97

帖子

583

积分

Sponsor

金币
84 枚
体力
318 点
2475017 发表于 2020-7-18 01:35:07 | 显示全部楼层
谢谢楼主分享!! D2 s, ^+ Y) U2 }
该会员没有 ...

0

主题

97

帖子

583

积分

Sponsor

金币
84 枚
体力
318 点
2475017 发表于 2020-7-18 01:40:50 | 显示全部楼层
谢谢楼主分享!* B& K! k+ [- X& R
该会员没有 ...

0

主题

94

帖子

559

积分

Sponsor

金币
3 枚
体力
373 点
XN15 发表于 2020-7-18 18:27:14 | 显示全部楼层
非常重要 新人必看:论坛操作常见问题的解决方法

0

主题

341

帖子

1770

积分

Sponsor

金币
13 枚
体力
1135 点
QQ
sunday_119 发表于 2020-7-25 17:44:25 | 显示全部楼层
每天都来蓝光论坛看看,我爱蓝光电影。- c1 U1 n) ~2 c  K8 J/ u  A9 }) }
bluraycd forum, a lot of Blu-ray movies!$ U. h2 d4 Z5 F- Q& [

0

主题

815

帖子

2931

积分

Sponsor

金币
21 枚
体力
1452 点
BlueCharlie 发表于 2020-7-26 14:01:39 | 显示全部楼层
感谢楼主分享这精彩的电影

本版积分规则

小黑屋|Archiver|蓝光电影资源网

GMT+8, 2020-8-9 12:43

快速回复 返回顶部 返回列表