BluRayCD Forum

 找回密码
 立即注册【分享大片】

QQ登录

只需一步,快速开始

查看: 77|回复: 6
收起左侧

[4K极清电影] 德古拉元年/德古拉秘辛 [4K REMUX无损版] Dracula Untold 2014 2160p BluRaycd REMUX HEVC DTS-X 7.1-FGT 50.57GB

[复制链接]

4421

主题

4587

帖子

5万

积分

Post Share

金币
8323 枚
体力
16432 点

卓越贡献勋章

黄金嫖客 发表于 2020-7-4 16:51:17 | 显示全部楼层 |阅读模式
To protect his family and people during a time of intense conflict, Vlad III submits to a vampire, sacrificing his humanity in return for monstrous power.
" [; v! O% H7 e0 i" B' {# P5 J
. k( j  j: |3 l' Y, _ 01.jpg
' F( Y! Y3 O+ i+ w6 b
3 }/ y" F2 M9 m2 i! V' j◎译  名 德古拉元年/德古拉:永咒传奇(台)/德古拉伯爵:血魔降生(港)/德古拉秘辛3 A" S3 W, F3 F- L/ c8 Q6 z4 `* G8 V( q
◎片  名 Dracula Untold / Dracula Year Zero7 J4 N. Q8 n: H" n
◎年  代 20142 C9 v( S' [3 F& w3 o; R
◎产  地 美国' r) }/ S8 ~) [$ E% y' ], ?  n9 Q9 X
◎类  别 剧情/动作/奇幻
8 g# q$ N( {8 s6 x◎语  言 英语1 d; v' ?1 e) b7 H; \( k8 W
◎上映日期 2014-10-02(英国)/2014-10-10(美国)2 H$ x( \. W, K) ~4 a: e, d. m/ P
◎IMDb评分  6.3/10 from 173,102 users
9 W( e7 [9 p; t/ ^, p5 g2 w◎IMDb链接  https://www.imdb.com/title/tt0829150/
$ z0 x/ N, w0 M$ Y◎豆瓣评分 6.2/10 from 23,008 users2 l1 A7 n, Q+ M7 N: T) X0 E
◎豆瓣链接 https://movie.douban.com/subject/2147872/
% V+ s* }0 ^. U◎文件格式 x265 + DTS / `% K4 q1 E/ F# v
◎视频尺寸 3840 x 21600 i9 P. k/ v" T% i" N  |
◎文件大小 1DVD 50.57 GiB
/ k+ x* v, h2 _! ^! t' x" m2 F6 n◎片  长 1 h 32 min
7 n" _2 W& W+ G' V3 F  Q◎导  演 盖瑞·肖 Gary Shore7 q! ]& S! P0 N2 T
◎编  剧 马特·萨兹马 Matt Sazama# y. V3 @& G5 N$ [) \% q3 V
       伯克·沙普利斯 Burk Sharpless
$ p6 g  m7 J* r) r# D6 O◎主  演 卢克·伊万斯 Luke Evans0 i7 X, s# G3 f
       莎拉·加顿 Sarah Gadon6 P7 _# g. L/ }. s6 w
       多米尼克·库珀 Dominic Cooper
* w) Q" \- |7 }% l( A       阿特·帕金森 Art Parkinson4 b1 \# j; \% M, }2 E) e1 U4 u
       查尔斯·丹斯 Charles Dance  g7 ]" m, X% J! W0 s
       迪尔梅德·默塔 Diarmaid Murtagh* _! s* ^5 B& o! j7 V
       保罗·凯耶 Paul Kaye$ l: [& \' G7 ]" S9 x7 f
       威廉·休斯顿 William Houston
! Y' z0 G: e$ D5 i) S/ z# z) o3 u       诺亚·亨特雷 Noah Huntley
- c9 k2 w: a, k* N) H3 T* e; f       罗南·维博特 Ronan Vibert
: A" T  ^* i4 w8 O! V# w9 {       扎克·麦克格温 Zach McGowan) p+ M0 o9 H2 L: ]0 U
       约瑟夫·朗 Joseph Long
% n# u! q7 ?& L( E9 r2 @       雅酷朴·盖尔秀 Jakub Giersza?
* E4 y; e1 T9 l: d) `; ]
7 a% Q# V, a: v◎简  介   
; ?: u. p5 Z5 X+ @
0 I3 G! e* {2 k; U  h/ X  15世纪中叶,作风彪悍残忍的穿刺王弗拉德(卢克·伊万斯 Luke Evans 饰)在土耳其苏丹的扶持下回到故乡特兰西瓦尼亚,建立起一个和平祥和的国家。然而此时此刻他仍受制于土耳其苏丹王穆罕默德(多米尼克·库珀 Dominic Cooper 饰),苏丹要求弗拉德献上一千个男孩充军,包括他儿子在内的孩子们都将成为嗜血统治者的牺牲品。不愿孩子重走自己当年血腥之路的弗拉德奋起反抗,屠杀使者。为了赢得战争的胜利,他闯入神秘而恐怖的断牙山,期望借助传说中的怪物之手击退土耳其的入侵者。0 p0 D4 {* @- ~$ m$ r  W. I

3 x1 v6 Q0 B9 |6 i  他为了国家不惜抛弃良知和灵魂,由此注定了千古悲剧的开始。吸血鬼德古拉的传说由此上演……& \9 Z0 C0 ~+ T
1 I, Z4 _: |1 n* N6 ?5 r, _4 S& `6 D
  As his kingdom is being threatened by the Turks, young prince Vlad Tepes must become a monster feared by his own people in order to obtain the power needed to protect his own family, and the families of his kingdom.
! \4 B. Y8 g# F+ _' u( Z$ b! t& Y/ N2 o! f7 h! B
Video
1 j/ [: L! W* c# QID                                       : 1
- ^' Q7 K3 Y1 i. AFormat                                   : HEVC
0 H. y* @/ V8 @" V. r, P5 FFormat/Info                              : High Efficiency Video Coding2 j. R* k& _6 Z' l- }# h
Format profile                           : Main 10@L5.1@High$ @* O, B# }& n. R8 T
Codec ID                                 : V_MPEGH/ISO/HEVC5 D; `$ j: F$ h: e+ C3 H
Duration                                 : 1 h 32 min
9 i, J( K, e* K) n0 j1 gBit rate                                 : 71.5 Mb/s, W6 b7 w( b4 o7 }5 ]5 x7 P
Width                                    : 3 840 pixels+ ]! ~+ `3 c: \4 f& ]
Height                                   : 2 160 pixels
8 Z: w2 {' {/ D1 A! q# W- [Display aspect ratio                     : 16:9# t4 Y4 B' d' ^! [( h
Frame rate mode                          : Constant
- `0 a2 B$ T/ VFrame rate                               : 23.976 (24000/1001/37687) FPS
. Y3 ]& C7 V+ L/ L. X6 F" AColor space                              : YUV( B8 Z3 U# E9 {) F4 x
Chroma subsampling                       : 4:2:0 (Type 2)
# i9 w6 n) e- W/ B9 P) n) }Bit depth                                : 10 bits" i! W" w6 e$ k% y
Bits/(Pixel*Frame)                       : 0.360% C. p4 M( P) G/ ^
Stream size                              : 46.1GB (91%)
6 H( r$ L  [" F+ H: W/ s0 B% v% A. kTitle                                    : Dracula.Untold.2014.2160p.BluRayCD.REMUX.HEVC.DTS-HD.MA.7.1-FGT5 t; m) g# V% {2 I1 r$ \
Default                                  : Yes
; k) E* e7 a$ a! Q( x; m1 \) ?Forced                                   : No
, h( l) U" |5 b/ r" i. N+ dColor range                              : Limited
( m/ t. y) m0 |5 i  B, OColor primaries                          : BT.2020) R. B  Z# K- Y* w# x
Transfer characteristics                 : PQ  w9 C6 G4 P2 a' E0 s: `! m
Matrix coefficients                      : BT.2020 non-constant1 [/ E: h2 p% g& n
Mastering display color primaries        : R: x=0.680000 y=0.320000, G: x=0.265000 y=0.690000, B: x=0.150000 y=0.060000, White point: x=0.312700 y=0.329000* X; p* `0 `* c" x
Mastering display luminance              : min: 0.0000 cd/m2, max: 1000.0000 cd/m23 F" e% S& s, X$ k& v

9 r8 D2 I' p0 q; u: kAudio #1
' A  y6 {6 v% Q7 a- V$ O2 d" Z& rID                                       : 2; }; x6 X+ ~# y, q+ Q8 @
Format                                   : DTS
" p0 i. L. [, E7 F  S  [& h* A, aFormat/Info                              : Digital Theater Systems! k' p  c  [- D2 v2 N8 n1 P
Format profile                           : X / MA / Core; l0 ~; ?( [: `3 X2 }4 i
Codec ID                                 : A_DTS; Y( R8 X' p9 ]7 U" C
Duration                                 : 1 h 32 min
3 o& ?" L7 \! \/ B( ^1 q" bBit rate mode                            : Variable / Variable / Constant
; t* T, S  D5 M# j( ~. b. V# i5 Y# V7 VBit rate                                 : 5 212 kb/s / 5 212 kb/s / 1 509 kb/s
1 ^$ N; A- i& p9 o# u1 u* o" T" p7 SChannel(s)                               : Object Based / 8 channels / 6 channels) _4 i# @" }$ C  o
Channel positions                        : Object Based / Front: L C R, Side: L R, Back: L R, LFE / Front: L C R, Side: L R, LFE, @$ i9 t4 D/ k8 s9 v* F
Sampling rate                            :  / 48.0 kHz / 48.0 kHz
2 M* z: {- {! C) X" QFrame rate                               : 93.750 FPS (512 SPF); j9 p4 {: d* r! D
Bit depth                                :  / 24 bits / 24 bits
" u! [  w) _  P/ p" f6 tCompression mode                         :  / Lossless / Lossy1 t$ T% E+ u9 q
Stream size                              : 3.36GB (7%)) X  ?) J7 [# @. x0 _, R
Title                                    : Dracula.Untold.2014.2160p.BluRaycd.REMUX.HEVC.DTS-HD.MA.7.1-FGT
4 ]: j% B* x9 l( NLanguage                                 : English
. I& _. T  S3 X8 z- J0 y& x% I- x, NDefault                                  : Yes+ L/ H/ j3 M' o, @, D) c
Forced                                   : No
5 H( N: \0 o' X8 b* Z
/ F  }2 k7 \/ OAudio #2' c3 ]) U# ~/ F5 A8 j, O. f3 C" @
ID                                       : 3
; X: G$ Q0 @" g8 a  MFormat                                   : DTS4 D% J8 |: ^2 L3 }! V+ g( z
Format/Info                              : Digital Theater Systems
6 m( d+ d5 E+ rCodec ID                                 : A_DTS& L* u8 D, a: H7 x0 k! g) ^# D
Duration                                 : 1 h 32 min
% T- x- W2 _( g9 H2 gBit rate mode                            : Constant
) ~4 a( T" Y' LBit rate                                 : 768 kb/s3 L" C' G( i1 D; ]5 v- g
Channel(s)                               : 6 channels) i: Q9 Z4 S- C- L
Channel positions                        : Front: L C R, Side: L R, LFE0 I% J0 _$ f& Y, {% \6 C5 ]7 A8 w
Sampling rate                            : 48.0 kHz
; y0 i: h+ z' D1 GFrame rate                               : 93.750 FPS (512 SPF)
% l# C- n. s& o/ YBit depth                                : 24 bits; V# r! C. Z9 F: o- l- `8 P4 N3 f
Compression mode                         : Lossy3 t) F0 g1 J6 y% w* t7 B
Stream size                              : 507 MiB (1%)
: f# L0 ^% ^: L% BTitle                                    : Dracula.Untold.2014.2160p.BluRaycd.REMUX.HEVC.DTS-HD.MA.7.1-FGT  H  x1 `* U) L" S
Language                                 : Spanish
2 F# y2 l5 m& t. u* \Default                                  : No! a$ [, w, x! {' }1 a4 k7 d
Forced                                   : No
( J5 O! s" V# O1 Z0 H
# S3 `+ j3 z8 s8 @1 w& y: c$ ~& \0 nAudio #36 X! Z# U* W, G& E1 }% K) i' T
ID                                       : 4
! k2 M6 E4 G1 b! [' pFormat                                   : DTS
1 M/ g" G' P- {5 i4 |4 lFormat/Info                              : Digital Theater Systems
6 c5 j- v. U4 o; ?7 f. d! bCodec ID                                 : A_DTS, A, A1 R: J2 U3 B0 g+ r5 A
Duration                                 : 1 h 32 min2 O6 u, a/ S+ h1 d& Z# ]
Bit rate mode                            : Constant1 s4 c4 U( Q& R, z2 O+ F
Bit rate                                 : 768 kb/s8 m# M: `# ~3 N8 a) J4 `5 ^
Channel(s)                               : 6 channels$ V3 }9 ]; m& I3 U/ }0 i6 ]
Channel positions                        : Front: L C R, Side: L R, LFE
) d$ I0 b2 L& |  K0 d0 l! ?  f; bSampling rate                            : 48.0 kHz
  H3 g/ x! G  }Frame rate                               : 93.750 FPS (512 SPF)6 i' \; t$ n; V5 Z
Bit depth                                : 24 bits2 R* v# Y8 M6 }/ q% Z! h" G2 ]
Compression mode                         : Lossy% J3 u3 h/ x) k$ ~7 D
Stream size                              : 507 MiB (1%)
* ^8 q3 i  p- j; _4 MTitle                                    : Dracula.Untold.2014.2160p.BluRaycd.REMUX.HEVC.DTS-HD.MA.7.1-FGT. m8 r  y2 A7 A  p8 J7 R; _; I" {" b6 V
Language                                 : French: r$ Y, c! b, Z* }
Default                                  : No- g% n& ~6 C6 h* W
Forced                                   : No4 L! {$ L4 X6 l  L
; Z/ K' s4 l5 V! o" E6 {# S# e
Audio #48 X2 ^& i9 H/ j, ~$ t; E  t2 {
ID                                       : 5
0 E3 F, \( w) r8 YFormat                                   : AC-3$ P4 }% ?, b$ }0 q
Format/Info                              : Audio Coding 3
5 ^( H( p( I! r% FCodec ID                                 : A_AC3
; v) w& z3 _/ L9 M( S# yDuration                                 : 1 h 32 min9 v- ?) Z) j3 ~2 v) U, |
Bit rate mode                            : Constant  d1 W: n/ n: X8 q% N& `" h, }1 [) D$ N
Bit rate                                 : 192 kb/s
2 x$ ^) `3 e+ S0 s6 T- e1 NChannel(s)                               : 2 channels; w. E$ D7 a! b& p9 Q6 o
Channel positions                        : Front: L R0 B/ n' |: c( ?( B1 h$ i9 Y
Sampling rate                            : 48.0 kHz
8 l$ k. t* ^  {Frame rate                               : 31.250 FPS (1536 SPF); \3 W' i) ^  f7 t6 U' p' v3 f3 Z
Bit depth                                : 16 bits; K/ H% Q% {6 {" ?
Compression mode                         : Lossy& X) k+ D) P& B
Delay relative to video                  : 24 ms5 x% r4 e& F0 ~7 u- T+ a
Stream size                              : 127 MiB (0%)
7 Z8 s: E# M. OTitle                                    : Dracula.Untold.2014.2160p.BluRaycd.REMUX.HEVC.DTS-HD.MA.7.1-FGT
- ]( ~7 z5 x6 YLanguage                                 : English
* I2 ?) z. q: x: pService kind                             : Complete Main- ~$ {) H% v5 j9 [( b; }3 R
Default                                  : No/ A; c0 [" u  }
Forced                                   : No
6 N) |. Q4 y  E) r7 k; @/ F! u) _" z! N" K' M% f% |
Text #14 G/ F. s+ s/ ~1 `( h' ^# r
ID                                       : 6" M6 W- P' n' P! J) j: {
Format                                   : PGS# R/ g' ^3 t# ?! n
Muxing mode                              : zlib
5 @1 V& P3 X" @( n% q& oCodec ID                                 : S_HDMV/PGS& A6 \# J" s: T7 M9 \, G
Codec ID/Info                            : Picture based subtitle format used on BDs/HD-DVDs
+ W# o+ ^) ^8 w: ]8 C* p- C1 ]Duration                                 : 1 h 24 min
" X5 w: q5 R1 qBit rate                                 : 25.7 kb/s
# K% b7 l9 e' d* H9 VCount of elements                        : 1897
! H6 U0 H: w0 w: s, z- M* L" R) LStream size                              : 15.4 MiB (0%)
" f, `, S4 e& Z8 Y, ?- cTitle                                    : English-PGS+ ^' f4 a9 R+ X, a  [
Language                                 : English
4 R! z3 D8 X( J- ^# L4 y- lDefault                                  : Yes
, ]( [, W3 V2 U+ f- f8 XForced                                   : No7 v, B8 N, [' F; O/ h3 E

- S. g! Z; Z. G  u- b" A# E3 N2 ^1 XText #2* l  B* E' j' D' Q7 ]; e# o2 V0 Z7 F
ID                                       : 7/ M+ |4 D) ]( f6 }7 j
Format                                   : PGS& e9 X2 l( s9 r, d$ `+ ~6 n# m! x
Muxing mode                              : zlib
7 o3 n' O; X6 s4 O" uCodec ID                                 : S_HDMV/PGS
9 L3 r5 z8 A! g( ?+ qCodec ID/Info                            : Picture based subtitle format used on BDs/HD-DVDs% y: H5 v* G- T$ q) r6 P
Duration                                 : 1 h 24 min( c4 p5 [$ E& Y) P$ j& I( l
Bit rate                                 : 20.3 kb/s
. ^; o$ m' l) PCount of elements                        : 14788 A* G: ~8 ?9 D+ Y7 v# C7 f4 A
Stream size                              : 12.2 MiB (0%)
' I8 b  z3 O) I8 YTitle                                    : Spanish-PGS
# R- Y. C* B0 w$ B* p7 S; @3 mLanguage                                 : Spanish! ], U! d3 Q/ f& m
Default                                  : No
+ V$ p! p" h, _8 [Forced                                   : No
7 ?. E) |& h  H8 l0 f
! g+ ~' }7 U8 P8 rText #3
, x' p! G. W! t9 u1 m8 A. tID                                       : 8
8 w; B% v: _8 [Format                                   : PGS
2 F0 w0 Q' k) m. o" IMuxing mode                              : zlib
/ z% e8 v0 A7 S* J2 K7 d1 ACodec ID                                 : S_HDMV/PGS7 ]" ?0 y" z. v) Z! |
Codec ID/Info                            : Picture based subtitle format used on BDs/HD-DVDs
9 G, p: y- R4 ~. U$ m: N5 d( aDuration                                 : 1 h 24 min
( I$ G2 f4 O, C! HBit rate                                 : 21.2 kb/s
$ I, T9 d/ T/ o5 ]Count of elements                        : 1404' n0 j5 }7 v# r: _% v5 O
Stream size                              : 12.7 MiB (0%); v! d- u" Q% X/ ^: b4 w8 u0 f
Title                                    : French-PGS+ r  x+ v8 @/ A
Language                                 : French
2 R* v: m, D7 S1 ADefault                                  : No$ r, y; Q6 @% f- V7 t8 _  a
Forced                                   : No7 I4 ?4 F, S5 c

) E3 q/ W- x  B8 \. |: ^( S  s+ I3 EText #4
# J7 O" f0 M/ l/ {/ }& N# o# Z2 ]ID                                       : 9
1 w, Y! q% t- |Format                                   : PGS6 I" j3 `. J; k( A0 d8 q2 Y, D
Muxing mode                              : zlib
0 j. E% {$ X7 SCodec ID                                 : S_HDMV/PGS5 ^  ~% u0 A- c- y
Codec ID/Info                            : Picture based subtitle format used on BDs/HD-DVDs' g  `) f/ m% s
Duration                                 : 12 min 20 s
. {5 J$ h7 e, w+ {Bit rate                                 : 2 521 b/s
  T+ y' i0 S/ z. h- G- r6 D$ OCount of elements                        : 22
* q* k. n* X  t# Q. ZStream size                              : 228 KiB (0%)' O. [# P/ i8 a
Title                                    : Spanish-FORCED-PGS. \: [2 y5 z6 ~( x. H
Language                                 : Spanish
! O& d; C8 a7 Q' z# g' dDefault                                  : No
  I" {  J3 J7 N' G; DForced                                   : No
/ A  N) e' }( \( E2 a7 w$ k( m' J+ I# V( u% p: Q, m0 V, z' \
Text #5$ h- S$ a/ F  I( K% @4 C$ L6 v
ID                                       : 10
4 F: N( M) ?" }% {9 r* H# l7 p8 cFormat                                   : PGS
6 D  p8 m& p! o: w& KMuxing mode                              : zlib
( R4 h! x: [% eCodec ID                                 : S_HDMV/PGS
" I' b) D" p2 \! E* l# mCodec ID/Info                            : Picture based subtitle format used on BDs/HD-DVDs1 O: e, t2 o! A' o+ b1 o( Z
Duration                                 : 12 min 19 s
3 J4 e( e& S% J9 u0 q" jBit rate                                 : 2 766 b/s
& ]0 [5 N7 Y7 {+ `' eCount of elements                        : 22
/ W% ~: O. C2 }, DStream size                              : 250 KiB (0%)
2 s( s% F4 ?; o6 ^- z: d2 ~Title                                    : French-FORCED-PGS& v' X4 O8 d, x/ i/ K6 k2 e
Language                                 : French
' S' ?% ?4 K0 v6 q. S$ VDefault                                  : No8 P' u/ \* S1 ^' k& M
Forced                                   : No7 p$ j! Z7 s7 y0 M6 p  d. E

. ~! _6 T, n9 w0 p+ CMenu
, i8 B# S! f! G: @, n. j$ |% ]00:00:00.000                             : en:Chapter 1" z! I0 Q9 _  s$ m) S$ |
00:04:08.289                             : en:Chapter 2
2 F1 @- _+ E1 j/ `6 i( d0 F" n00:07:21.566                             : en:Chapter 3/ c2 z/ Q+ \- j6 b
00:11:33.818                             : en:Chapter 4) c) I; k# r6 S
00:16:31.699                             : en:Chapter 5
6 e5 d% D* y* Y5 q% w: m( G( R00:22:54.664                             : en:Chapter 6
/ v5 }9 v; r" S00:30:24.447                             : en:Chapter 7* U6 S& l. {4 H! Q6 L
00:34:17.764                             : en:Chapter 8
6 N( Z; C* V2 O  C' I; b9 }00:38:58.044                             : en:Chapter 9
% y' ^/ B3 x3 ~00:43:01.370                             : en:Chapter 10
' p' b$ V$ Q: d4 C" N1 x00:47:04.738                             : en:Chapter 11% ~  P" M/ h& v  ~; ~+ m0 \. ?5 }' B7 h
00:53:17.736                             : en:Chapter 12
1 K# R" E/ I, P% J7 Z00:57:40.832                             : en:Chapter 13
6 L2 g; C( d: E; d4 v3 s9 h0 H01:00:48.311                             : en:Chapter 14
& f, r: M; g: c; D2 m: y01:04:31.033                             : en:Chapter 15
6 m" h! z4 M- {  t2 F$ B01:09:13.190                             : en:Chapter 16
4 t: F; ?3 p1 k1 ~7 S01:12:48.614                             : en:Chapter 17
, k7 {2 a* Z" o1 l5 a01:17:12.878                             : en:Chapter 18
2 k; J: G9 I) _* u/ Z% w4 q01:21:53.658                             : en:Chapter 19
2 m$ [+ q) I8 d! k/ S. ?& N01:25:03.556                             : en:Chapter 20
% V0 K' x9 B  S. W1 R  G4 v
游客,查看本帖隐藏内容请回复 | 加入VIP贵宾组可免积分免回复下载 立即了解 | 还不是会员:点击获取邀请码 Invitation Code

560

主题

1817

帖子

1万

积分

VIP advanced

金币
1471 枚
体力
4122 点

公主勋章卓越贡献勋章

21cn 发表于 2020-7-5 00:50:30 | 显示全部楼层
啥也不说了,楼主就是给力!$ O2 u+ r' Z5 e' b
The decisive Replies sink is I get the sinking feeling great sense of accomplishment!- _5 @& _3 h) r# C" S( ^

0

主题

94

帖子

559

积分

Sponsor

金币
3 枚
体力
373 点
XN15 发表于 2020-7-5 09:26:03 | 显示全部楼层
德古拉元年/德古拉秘辛 [4K REMUX无损版]

39

主题

1217

帖子

4338

积分

Sponsor

金币
231 枚
体力
1632 点
lanpanshuma 发表于 2020-7-5 18:25:01 | 显示全部楼层
楼主发贴辛苦了,I*老*虎*U!; O4 a% w0 o' Q1 u" w
Thank you for sharing such a good resource polite reply, very sorry for myself!, @+ u/ X: ], e* c
该会员没有 ...

0

主题

410

帖子

1612

积分

Sponsor

金币
0 枚
体力
814 点
QQ
neilwang1982 发表于 2020-7-10 01:03:24 | 显示全部楼层
感谢分享资源!

0

主题

410

帖子

1612

积分

Sponsor

金币
0 枚
体力
814 点
QQ
neilwang1982 发表于 2020-7-11 17:42:28 | 显示全部楼层
精彩好片,感谢分享

0

主题

271

帖子

851

积分

Sponsor

金币
9 枚
体力
335 点
QQ
squall212sj 发表于 2020-7-13 15:06:09 | 显示全部楼层

% I) [# k$ c9 X5 ^3 ]楼主发贴辛苦了
非常舒服

本版积分规则

小黑屋|Archiver|蓝光电影资源网

GMT+8, 2020-8-9 13:05

快速回复 返回顶部 返回列表