BluRayCD Forum

 找回密码
 立即注册【分享大片】

QQ登录

只需一步,快速开始

查看: 9|回复: 0
收起左侧

[喜剧爱情] 事物的摆动 The Swing of Things 2020 720p BluRaycd x264-YOL0W 4.63GB

[复制链接]

3719

主题

4088

帖子

3万

积分

Post Share

金币
6770 枚
体力
6143 点

卓越贡献勋章

mvods 发表于 2020-7-11 22:44:25 | 显示全部楼层 |阅读模式
) f; D& v! H+ U

* v- P4 y* n0 F' A◎译  名 事物的摆动
% c5 M4 F! ?4 Y◎片  名 The Swing of Things
4 @- D6 s& s& s. i3 T& f4 K7 o* D◎年  代 2020: c3 F2 j8 d/ a# ?4 o' u; Y# x( S- D
◎产  地 美国9 R. y* s5 y* y1 h& e9 E
◎类  别 喜剧/动作
# S( M) I" R8 h( `$ H: S3 `. C6 e◎语  言 英语, c- m" ^$ ~  _4 S
◎上映日期 2020-07-14(美国)# e/ Y; ^3 z* _) \$ w; z
◎IMDb评分  2.9/10 from 241 users# u; @1 `' e0 Z- p! m
◎IMDb链接  https://www.imdb.com/title/tt6833470/8 o9 L: f3 S2 {6 W" A2 R% G
◎豆瓣评分 0/10 from 0 users
% h7 ~  O, `  k3 S) G  x◎豆瓣链接 https://movie.douban.com/subject/34996581/
# f  p9 I, D+ {% b◎片  长 1 h 33 min% `% f1 B0 x, P3 Y9 J4 |
◎导  演 Matt Shapira4 ^+ B0 h* p8 J: n  C% Y8 r
◎编  剧 Christopher Hewitson - m/ Q" k+ h6 ?6 n
       Justin Jones * J( x, Z8 y* ?$ K& l5 G0 v: Z. G
       Patrick McErlean
2 M  P& }0 U; M0 x: x1 F4 p       史考特·穆伦 Scotty Mullen; Y7 A+ e' J  K" f
◎主  演 阿黛莱德·凯恩 Adelaide Kane
% p8 x2 g6 Y; C3 p, P       卢克·威尔逊 Luke Wilson
# S5 D1 G+ k' f# N       考德·欧威尔斯特利特 Chord Overstreet
+ x  F" F/ Y4 S, ]& {7 g       马特·麦考伊 Matt McCoy
; @: Y* l9 e. _. d+ g4 g  y0 |       琳达·珀儿 Linda Purl' H8 R# H' D0 ^+ W9 t+ t. v( [
       多特-玛丽·琼斯 Dot-Marie Jones7 g6 Y5 |+ v% [; B2 u3 Z
       乔恩·拉威茨 Jon Lovitz8 A4 _2 K+ P, k0 M4 I& H
       奥利弗·库珀 Oliver Cooper& x- m3 J0 |# c$ h) o
       卡罗琳·赫尼塞 Carolyn Hennesy9 L' @+ a/ J5 L% l; v0 K' W; w
       奥莉维亚·库尔普 Olivia Culpo
% T' e& s! I( x       莱斯莉·斯特拉顿 Leslie Stratton
' T, G0 Y( ], y6 y! k5 j       埃里克·迈克尔·科尔 Eric Michael Cole
7 q! Q0 X* j* V9 R/ S6 b       E·E·贝尔 E.E. Bell2 C0 f6 q, p1 v  K  H/ ^' V6 [
       Natalia Janoszek; u+ c  F+ C+ {( X1 Y; M- n$ ^
       Maria Breese
  Z& Y7 l$ @' x" ^& X       Joshua Uduma
: F, J# J+ ]8 K       亚历山大·维舍尔鲍默 Aleksander Vayshelboym3 J& r9 O) f) _4 f2 i
       King Orba
4 D! Q6 t# O+ E       Boni Mata
  z1 ]' @2 ^7 A* j  ]( A$ ?       Hayley Amber Smith! O& l% O: e2 S. ^1 w* _# V
       Paul Piercy7 W+ i" R( y! j9 g) s/ X* O
       Lola Sandra
( M% C; y  E8 E  z6 |* c0 ^  `7 R5 H2 e6 q8 v
◎标  签 美国0 y1 R7 Z( `1 q, o! k2 M
9 s: C! z2 `9 d- |
◎简  介  
  A7 O, t8 X! V; C3 ]: W9 p; T: M' i  a; I5 {
  一个新郎不小心在牙买加的一个swingers度假胜地预定了他的目的地婚礼和蜜月。5 M% {0 Y: m7 A' X7 G  |; G- |
  A groom-to-be accidentally books his destination wedding and honeymoon at a swingers resort in Jamaica.
6 e; s4 I9 Q+ }, s9 a, k: d
Video$ t8 R3 k8 W* n
ID                                       : 1! v# Y; y0 E$ X
Format                                   : AVC
5 @; _. {5 x: q" XFormat/Info                              : Advanced Video Codec
" H8 P; G/ P2 B, G2 O& EFormat profile                           : High@L4.19 Z! b6 p2 H6 m
Format settings                          : CABAC / 8 Ref Frames7 b3 M1 Y" G3 r/ `# h; K
Format settings, CABAC                   : Yes0 n7 p4 T, V, g4 G) R
Format settings, Reference frames        : 8 frames
8 p( s, @/ U: A) Q* k8 b: @Codec ID                                 : V_MPEG4/ISO/AVC, M( F8 ?9 J5 a+ [. T2 u
Duration                                 : 1 h 33 min
/ f, J" n3 T, p( T: m" K( E+ d+ {Bit rate                                 : 6 375 kb/s; n  P& S2 ]+ ^, m
Width                                    : 1 280 pixels
8 n. e9 x( U5 O- ^- @Height                                   : 536 pixels3 O# F% l4 _; b+ ]4 ?& G$ q
Display aspect ratio                     : 2.40:1
* U" s% t+ N# c0 c; N  w0 p9 mFrame rate mode                          : Constant, K  z! b/ s1 B% N
Frame rate                               : 23.976 (24000/1001/37687) FPS+ B3 o8 {  W! N
Color space                              : YUV
: Q0 j& I- G0 a: t' w2 \" UChroma subsampling                       : 4:2:0- Y' {# e( Q( }& H0 X( p, S
Bit depth                                : 8 bits8 {4 y( p( H$ K) {. R3 `
Scan type                                : Progressive: m7 k( C+ m  L, z/ C- e
Bits/(Pixel*Frame)                       : 0.388
  ]7 ~4 e' r# u- Z- \, g; ^' Q7 rStream size                              : 4.16 GiB (90%)
  l9 k9 S* \% l4 F1 v) \& ^Writing library                          : x264 core 160 r3007 235ce612 }+ v2 E6 ^" p/ q' R
Encoding settings                        : cabac=1 / ref=8 / deblock=1:-3:-3 / analyse=0x3:0x133 / me=umh / subme=9 / psy=1 / psy_rd=1.00:0.00 / mixed_ref=1 / me_range=24 / chroma_me=1 / trellis=2 / 8x8dct=1 / cqm=0 / deadzone=21,11 / fast_pskip=0 / chroma_qp_offset=-2 / threads=17 / lookahead_threads=1 / sliced_threads=0 / nr=0 / decimate=1 / interlaced=0 / bluray_compat=0 / constrained_intra=0 / bframes=3 / b_pyramid=2 / b_adapt=2 / b_bias=0 / direct=3 / weightb=1 / open_gop=0 / weightp=2 / keyint=250 / keyint_min=23 / scenecut=40 / intra_refresh=0 / rc=crf / mbtree=0 / crf=15.0 / qcomp=0.60 / qpmin=0 / qpmax=69 / qpstep=4 / ip_ratio=1.40 / pb_ratio=1.30 / aq=3:0.80$ c$ a, Y8 J' N: K' a# P+ U+ V( o
Default                                  : Yes
# N* F. B& h5 ?Forced                                   : No
5 j% e2 h7 Z! t1 X$ ~Color range                              : Limited
' z5 v5 P# `- e/ }Matrix coefficients                      : BT.709$ [* g2 M% `; ^
Audio
3 c2 ^' ^& ~: |6 s# k) oID                                       : 2/ T, E' p4 m  Q& @/ G( m" U, m
Format                                   : AC-3) X2 C$ o5 B9 o* m
Format/Info                              : Audio Coding 3
( D$ h: \- y5 N" h1 YCommercial name                          : Dolby Digital, u! }3 |* b: s4 H
Codec ID                                 : A_AC3
* C  U6 [0 H; D. u6 F8 X3 ]) aDuration                                 : 1 h 33 min
; H; x: i! A' M; v) \/ z2 HBit rate mode                            : Constant5 J$ G+ m0 ?0 k* d4 e
Bit rate                                 : 640 kb/s! B  `1 h7 D  c
Channel(s)                               : 6 channels
0 G+ _/ x  c, T! I, s0 b( fChannel layout                           : L R C LFE Ls Rs, ?* ~+ j: ~1 ?0 v9 U/ Z3 e1 s
Sampling rate                            : 48.0 kHz
, T  @5 l+ V  LFrame rate                               : 31.250 FPS (1536 SPF)4 M# `) E* Y3 n% P2 K4 L" J5 O& t
Bit depth                                : 16 bits
" F$ m) I1 t" c+ p2 c2 c$ [" T6 E4 ACompression mode                         : Lossy& N( D( A; [6 U: }6 q) w/ A
Stream size                              : 428 MiB (9%)
& ]5 p8 s2 E4 l# jTitle                                    : English9 \% Q- @( G0 G. B8 d
Language                                 : English3 N! J3 E2 A: A
Service kind                             : Complete Main
) C8 x. z' p8 k4 YDefault                                  : Yes
4 m2 V8 p1 s- YForced                                   : No- F/ e) }+ A4 u! j4 u2 ~' K
Text #1
6 K! P) b6 l/ m# OID                                       : 31 D* n+ E& M3 a2 Y
Format                                   : UTF-8, h' _/ O" m  y. q
Codec ID                                 : S_TEXT/UTF8; e4 i/ O% E, E% l& A
Codec ID/Info                            : UTF-8 Plain Text
, w( Z  [' a5 gDuration                                 : 34 min 7 s
" H- J& m, S# X+ Z( dBit rate                                 : 2 b/s& K2 R3 ]! H+ v: R- [
Count of elements                        : 15  @; L7 K) c3 `- T* T; t: V8 \
Stream size                              : 583 Bytes (0%)
. t4 x$ M5 _, _$ k& DTitle                                    : English Forced
3 Y& I, w* g, u' |/ r+ eLanguage                                 : English
8 P4 Q- E% k- h+ s' H  NDefault                                  : Yes
$ B5 D2 P! f  T1 _3 ]Forced                                   : Yes
5 A5 V* j, e, X, AText #2
3 N. G* p, c& H* r* \$ N# bID                                       : 4
3 t3 y& E4 i% j+ ]! @/ OFormat                                   : PGS
1 M9 K* V, X: _+ x- BMuxing mode                              : zlib. G8 e3 z- C( q9 v
Codec ID                                 : S_HDMV/PGS1 ~; ?+ \* f1 M. M
Codec ID/Info                            : Picture based subtitle format used on BDs/HD-DVDs
9 Z& b* h" Z, C  Q- U' V  C  eDuration                                 : 1 h 32 min" h" w+ |3 q" ]4 v0 m8 [
Bit rate                                 : 47.9 kb/s
4 g1 q5 Q9 T: J3 YCount of elements                        : 3074. l6 U6 c, r% J, W
Stream size                              : 31.6 MiB (1%)
7 P: {! K+ P2 j/ T0 i+ wLanguage                                 : English
3 |1 a( c  s1 e6 GDefault                                  : No
) |: x# z6 y* i% I" FForced                                   : No' v4 x1 @* o8 ^
Text #3
$ d1 A4 M! D; E9 KID                                       : 5
* E( k4 `, q/ ]# u  P/ RFormat                                   : PGS
( U0 D& H! Z+ S7 sMuxing mode                              : zlib
5 L; q/ `% t9 H' _9 @0 W& GCodec ID                                 : S_HDMV/PGS4 o8 E( U  y0 T7 K! Q  y0 v- n
Codec ID/Info                            : Picture based subtitle format used on BDs/HD-DVDs
2 N& T1 f2 a- b$ w( MDuration                                 : 1 h 31 min
5 V1 o, w+ I4 b1 s, e9 M0 HBit rate                                 : 40.2 kb/s" k0 b7 R* W9 H5 d0 g
Count of elements                        : 2652
# R1 f, A7 J+ r% |Stream size                              : 26.4 MiB (1%)
+ \- C" a! l3 JLanguage                                 : Spanish! V4 j5 ^7 j" R% }
Default                                  : No/ i& E7 t3 F/ ]5 C# \  b% Z
Forced                                   : No
, O2 t; A9 _- o3 lText #4
3 j: ?, R; p6 f9 Z0 j. @% DID                                       : 6
* B: t% f# c  H  d& r# zFormat                                   : PGS" t8 @) y8 L; s, W, `
Muxing mode                              : zlib0 |. {' u: ~6 {2 z+ D2 C
Codec ID                                 : S_HDMV/PGS8 \+ k% i  A2 Y7 \3 \$ Q
Codec ID/Info                            : Picture based subtitle format used on BDs/HD-DVDs. M; W; n* G6 C( S
Duration                                 : 1 h 31 min7 F4 Y4 a5 f6 _# J9 `% ^
Bit rate                                 : 37.3 kb/s
7 W1 m2 f0 _8 W  G' lCount of elements                        : 2694
" E/ P/ e) b- |Stream size                              : 24.5 MiB (1%)
# V, k* ^/ g7 X& wLanguage                                 : French* D' k! {& Z5 E! a' M. G* P4 }4 L
Default                                  : No
) B5 T" ?; ?! q6 e7 ^Forced                                   : No
! B: V" `) a! H! hText #5
9 F, M" U6 |/ b: C" W2 @5 j9 hID                                       : 7. u8 i' |" d7 G3 H: o4 O$ M
Format                                   : PGS
. m% Z8 w0 D8 R/ o( |2 hMuxing mode                              : zlib
3 E# Y  e' P9 cCodec ID                                 : S_HDMV/PGS
1 S) x7 R' Y+ H' P- OCodec ID/Info                            : Picture based subtitle format used on BDs/HD-DVDs
5 a1 s" F5 q5 t0 e. y$ \/ B3 fDuration                                 : 1 h 31 min
5 _( [% p! Z* ^6 S' j, \2 vBit rate                                 : 37.9 kb/s5 u+ T8 E. d4 ?# {7 e* t/ N
Count of elements                        : 2725
( V2 ]# l! d0 F2 [% gStream size                              : 24.9 MiB (1%)
% {& R5 ~! u& }# V8 tLanguage                                 : Portuguese
+ G0 K8 F3 N- d+ MDefault                                  : No
- a9 S& d. E# ^3 ^Forced                                   : No
: w0 @7 \( L, K% fText #6
; e9 [* u  T" ~  G: Q" k' J' Q) eID                                       : 8
5 p" M' K( P4 A: p4 Y7 s* E) ^Format                                   : PGS
; T2 o+ @: c# Q+ |Muxing mode                              : zlib! Z0 a7 d$ `) ?% `  D, r% Y" u
Codec ID                                 : S_HDMV/PGS# x7 k" u; c. b6 K
Codec ID/Info                            : Picture based subtitle format used on BDs/HD-DVDs
* ?" ]! `" j- Y' k9 \2 y" H' z4 x0 qDuration                                 : 34 min 7 s
4 ?2 g; N' D! _+ r# `5 K+ t( HBit rate                                 : 1 247 b/s
5 X1 |" `$ |- u1 c3 T8 o8 sCount of elements                        : 304 o2 \+ a( c2 R; L
Stream size                              : 312 KiB (0%)6 y1 l% ^2 p% f1 o/ b* @) }' V( i: g
Language                                 : English
" B9 [  w  e  g+ ]% s- rDefault                                  : No
/ ]8 I  h) N( K( {. SForced                                   : No$ ~7 j. ~/ r# W# L. G$ V+ J
Menu
+ q, [2 e" r! j00:00:00.000                             : en:Chapter 01
( E2 P3 j, u  X' r1 D00:05:36.086                             : en:Chapter 025 c! U, m9 e& ^# y
00:09:36.493                             : en:Chapter 03
9 J  w/ h2 ~; [& R0 y5 c7 v00:15:25.883                             : en:Chapter 04* p# _; b7 e, Z) ^. q6 R8 D; j
00:20:19.093                             : en:Chapter 05; C, t  t2 j' C1 j
00:26:51.819                             : en:Chapter 06& C4 V" c8 z" O1 Z, _
00:32:20.981                             : en:Chapter 07
+ U# |2 x  f5 M& W2 _00:39:52.223                             : en:Chapter 08, \  e: x& H' i# w
00:45:29.226                             : en:Chapter 09
/ J9 }, b  L/ ~6 b3 F5 y3 R, l* l: x00:51:11.443                             : en:Chapter 102 x% l# c1 t' K7 b
00:55:40.712                             : en:Chapter 11& W# m9 Q3 F! K7 e' G2 ~5 a0 E& }( i
01:02:24.741                             : en:Chapter 12
( P& I& [  p) a01:08:54.172                             : en:Chapter 13
" T2 l7 b: E* R3 i% E6 f, x: H0 O01:15:10.256                             : en:Chapter 14
3 a+ N% `. B* e* w1 T( U) ]01:20:46.300                             : en:Chapter 15: x% m- Z/ K$ {0 b3 P$ S) J
01:27:58.773                             : en:Chapter 16
) X& J2 h1 T( B& y5 |8 ?
# I& M1 E' o5 W, O' sThe.Swing.of.Things.2020.720p.BluRayCD.x264-YOL0W3 e* C. V1 f# a& B6 L

# e, G( O' E6 g* a: L. ADate........: 2020/07/02- R  w% a, k; W# w
Source......: BluRay6 M  \$ E! k( x
Runtime.....: 01:33:25.664+ D) O1 t% A7 B. l2 ]
Video.......: x264 @ CRF 15
6 J4 C( Q, ?& L5 S  j3 l. K' yResolution..: 1280x536 2.40:12 ~" ]& r* t2 |$ i2 q
Bitrate.....: 6375 Kb/s. y- B7 r1 A% Z4 o! @- f3 s' F0 p
FPS.........: 23.9767 ^) W# U# n# R; a
Source......: 25105 Kb/s3 S: x1 z0 V- S2 k" n3 I
Audio.......: English AC3 5.1 640 kb/s
- r2 [8 f1 X- F. ~; w* b- HSubtitles...: English Spanish French Portuguese: E! o  ~1 [$ r  K! e: U/ E* l
Size........: 4745 MB, J( V2 V' y) y! D  n: T; Z% h
Link........: https://www.imdb.com/title/tt6833470/
& C! k: J$ h* }* ?) r: L+ UNote........:
! F% o2 M& E8 u- B8 O8 n1 @
游客,查看本帖隐藏内容请回复 | 加入VIP贵宾组可免积分免回复下载 立即了解 | 还不是会员:点击获取邀请码 Invitation Code

本版积分规则

小黑屋|Archiver|蓝光电影资源网

GMT+8, 2020-8-7 17:57

快速回复 返回顶部 返回列表