BluRayCD Forum

 找回密码
 立即注册【分享大片】

QQ登录

只需一步,快速开始

查看: 12|回复: 0
收起左侧

[经典影片] 杀死比尔1/追杀比尔/标杀令 [内封中字] Kill Bill Volume 1 2003 1080p BluRaycd x264 DTS-HD 5.1-DDR 10.58GB & 8.97GB

[复制链接]

3719

主题

4088

帖子

3万

积分

Post Share

金币
6770 枚
体力
6143 点

卓越贡献勋章

mvods 发表于 2020-7-12 15:00:49 | 显示全部楼层 |阅读模式
+ n$ D- n6 f1 @3 J/ C; Y

/ G9 ^6 A  a( A2 w◎译  名 杀死比尔/追杀比尔/标杀令/杀死比尔:第一卷
% o. u: F) \" L- _◎片  名 Kill Bill: Vol. 1
1 `0 J2 C! _5 b( s8 I% q$ n( h◎年  代 20037 ?1 I; ~# Y9 h) T5 c! B
◎国  家 美国& f! X/ n1 d& u0 [% \7 N9 t* m
◎类  别 动作/惊悚/犯罪: U% l4 \* N1 A. O4 j- B; r
◎语  言 英语/日语/法语7 m; }0 x; Y2 T( n0 R$ ~
◎上映日期 2003-09-29(好莱坞首映)/2003-10-10(美国)
6 |4 W2 U% p  E& J◎IMDb评分  8.1/10 from 970,870 users
  l1 i; ^: d2 s' G" W◎IMDb链接  https://www.imdb.com/title/tt0266697/
! {/ q7 j5 u: ~' X◎豆瓣评分 8.3/10 from 358,833 users
( g: d+ b6 K, \9 c" W◎豆瓣链接 https://movie.douban.com/subject/1291580/# [# F0 g7 m; |5 z/ x; @% a
◎片  长 1 h 50 min/ m" k9 F% |6 Z8 _
◎导  演 昆汀·塔伦蒂诺 Quentin Tarantino
# f% e- s6 O3 f3 ^◎编  剧 昆汀·塔伦蒂诺 Quentin Tarantino
1 h! `# T& S8 h- I4 W       乌玛·瑟曼 Uma Thurman
, z: Q: q2 f/ [5 d. p* ?0 F◎主  演 乌玛·瑟曼 Uma Thurman6 e$ F, Y& D, p: E
       刘玉玲 Lucy Liu
8 P7 B7 w: Q, w- t- K* l7 [0 J       薇薇卡·福克斯 Vivica A. Fox6 A" j+ |" X9 F) F6 c! h$ J2 Q5 e
       达丽尔·汉纳 Daryl Hannah6 u) ?) ]' b% R" d- A
       大卫·卡拉丁 David Carradine8 ]. |& E; e' b7 X7 W" f9 w4 g
       迈克尔·马德森 Michael Madsen6 x# n9 L1 C+ [5 P, Q; [# P+ j2 c8 E
       朱莉·德赖弗斯 Julie Dreyfus
* G0 ^3 j0 h% @7 @3 b       栗山千明 Chiaki Kuriyama: ?' [5 B9 l5 w" u; Q
       千叶真一 Sonny Chiba- \5 n' ]% z2 g: x" c
       刘家辉 Chia Hui Liu9 p1 E! c1 ?- d; z
       迈克尔·帕克斯 Michael Parks
, Y1 M  R) M  {9 }* W5 o; l       迈克尔·鲍文 Michael Bowen
  o# }) R/ X8 T9 K+ v/ y) a0 _; Z       国村隼 Jun Kunimura
2 W$ {! `, u2 L: v) h* p       大叶健二 Kenji Ohba
9 `( h  p0 V: y) {1 x  `       风祭由纪 Yuki Kazamatsuri, a% k' S! m6 `; g
/ s. y7 V5 }6 E' \# w' O0 U6 D
◎简  介 2 q! e% I6 j' J

* Z4 v2 ^0 k+ s5 v  这是一部令人眼花缭乱,绝对能带给您感官刺激的动作电影。一个新娘(乌玛?瑟曼Uma Thurman饰)在自己的婚礼上遭到了暗杀,婚礼瞬间变成了一片狼籍的红色。幸运的是,新娘并没有就此消失,而是在四年后苏醒过来,并且接受了高强度的各种各样的武术训练,开始踏上了自己的复仇之路,在世界各地寻找给自己带来灾难的人。当然,她也遇到了许多阻碍。日本杀手(刘玉玲饰)就是其中之一。1 V: O- G1 e7 N6 Y$ u
- y# s7 t0 Y: B0 h" v
  这场红色的复仇之路究竟伸向何处,又有多曲折呢?* ^5 H7 _3 m7 H
+ F6 _+ E. k3 U$ _9 C" z1 N
  After awakening from a four-year coma, a former assassin wreaks vengeance on the team of assassins who betrayed her.
3 i5 p$ c1 t: G, D- [. }% J" t
Video; A& g# p* Q; Q5 a
ID                                       : 1$ H* C( }5 d' y* z: B- M
Format                                   : AVC2 m5 T0 k6 @* c: `& s7 m
Format/Info                              : Advanced Video Codec
. [6 c1 F* A: s9 qFormat profile                           : High@L4.1
( E6 [% B* O3 A6 J9 {1 ]1 ~Format settings, CABAC                   : Yes$ z3 r5 }" f' ^. J
Format settings, ReFrames                : 5 frames
/ ?3 a& m& t, [; v! CCodec ID                                 : V_MPEG4/ISO/AVC
: k5 w4 J9 z7 N% L8 FDuration                                 : 1 h 50 min
6 H2 \5 r' U* I; k- m, K6 nBit rate                                 : 10.2 Mb/s* k$ \3 q1 |& L0 k: L
Width                                    : 1 920 pixels
3 {6 L  B& ?; y7 v" e0 A3 xHeight                                   : 800 pixels9 w1 H! F5 m$ g8 _; U% W* Y
Display aspect ratio                     : 2.40:1
9 @6 k4 T( m6 _/ s3 q4 mFrame rate mode                          : Constant
+ @4 O) A) X" v' b' q4 Q$ ?: _4 jFrame rate                               : 23.976 (24000/1001/37687) FPS% t+ N" g3 L8 G+ i
Color space                              : YUV
5 r, `% K% h, ]; NChroma subsampling                       : 4:2:0
1 Y6 S3 C3 s1 w# m& HBit depth                                : 8 bits5 B# c9 I+ b2 X& X7 Z0 ]
Scan type                                : Progressive. ]8 s! D, b$ l4 w3 v
Bits/(Pixel*Frame)                       : 0.278
" M/ }, H. O9 Z& l) @3 e* mStream size                              : 7.92GB (88%)$ |* L6 l  X- D# F4 \1 e& ~2 M
Writing library                          : x264 core 148 r2665 a01e339. v3 y/ ?+ h9 U1 r& |. j0 {
Encoding settings                        : cabac=1 / ref=5 / deblock=1:-3:-3 / analyse=0x3:0x133 / me=umh / subme=10 / psy=1 / psy_rd=1.00:0.25 / mixed_ref=1 / me_range=24 / chroma_me=1 / trellis=2 / 8x8dct=1 / cqm=0 / deadzone=21,11 / fast_pskip=1 / chroma_qp_offset=-4 / threads=24 / lookahead_threads=4 / sliced_threads=0 / nr=0 / decimate=1 / interlaced=0 / bluray_compat=0 / constrained_intra=0 / bframes=8 / b_pyramid=2 / b_adapt=2 / b_bias=0 / direct=3 / weightb=1 / open_gop=0 / weightp=2 / keyint=240 / keyint_min=24 / scenecut=40 / intra_refresh=0 / rc_lookahead=60 / rc=crf / mbtree=1 / crf=18.0 / qcomp=0.60 / qpmin=0 / qpmax=69 / qpstep=4 / ip_ratio=1.40 / aq=1:0.50' B7 g6 ~+ Q2 Y- I0 m
Default                                  : Yes
! |6 b% q$ }% f8 SForced                                   : No
" a9 ?5 p% W1 e' ^5 F2 ?+ d
) b& P1 ?+ Z% tAudio$ ~% o" p& L, _5 ]* g+ W/ _
ID                                       : 2' n1 `0 ^; p- M; u/ D0 b3 Q; ?4 @
Format                                   : FLAC! p; F. W# p1 [( m6 w! ]# \
Format/Info                              : Free Lossless Audio Codec
( d8 D4 |9 C+ YCodec ID                                 : A_FLAC& y: X1 b: N2 i7 v2 l; F! n
Duration                                 : 1 h 50 min. Q, [9 ]% {) \" f- A2 @
Bit rate mode                            : Variable
9 ]1 G3 |2 A( b% i0 h' {Bit rate                                 : 1 331 kb/s
8 F! g. i3 r  v) }  U0 r9 j# @Channel(s)                               : 6 channels: s8 X( b2 u8 G5 A1 B/ R7 L! C# D
Channel positions                        : Front: L C R, Side: L R, LFE! S! q7 V4 e  o8 s* {3 B3 T; j8 l! N2 n
Sampling rate                            : 48.0 kHz" r! J- S( y% Y$ s( f+ e. D
Frame rate                               : 11.719 FPS (4096 spf)
$ F" N, P% T* e7 ^2 Y# rBit depth                                : 16 bits
# H; E1 f* L2 P) VStream size                              : 1.03GB (11%)
4 K5 S0 o" x6 S, S4 yWriting library                          : libFLAC 1.2.1 (UTC 2007-09-17)' _0 V3 [) F  L6 U! d4 ]. r2 I
Language                                 : English6 c" a: F4 s1 a3 v1 C
Default                                  : Yes
& s9 O  Q9 n- ]- n9 T2 ~# QForced                                   : No/ [( N+ o& A' f" U8 Q
+ U+ y& b' x2 Z8 N+ B
Text #11 c( P/ A6 F# {- N0 p/ Z( x) b7 G
ID                                       : 36 e7 |9 e9 U0 N4 O, Z1 H5 E) J
Format                                   : UTF-8
3 v1 a4 T+ f+ F) nCodec ID                                 : S_TEXT/UTF8
: w' c8 Q% M- aCodec ID/Info                            : UTF-8 Plain Text
, H9 _, G+ f2 X, U- F# GDuration                                 : 1 h 27 min
6 A; m  A3 ?. Z. B: {Bit rate                                 : 7 b/s0 J' p0 C# U/ k
Count of elements                        : 160
. a" q& ?- k  r/ AStream size                              : 4.63 KiB (0%)) f4 l3 v! a; k* y; m, ?! W
Title                                    : Forced
) O: T; Q. A8 @# q2 r$ W) b0 m' aLanguage                                 : English
) H" }( b# X" ]( J" M0 YDefault                                  : Yes2 T' _$ W* x9 L7 m  N+ u
Forced                                   : No: a5 O( r, k- I0 C

3 e/ Q7 [  y, e1 p4 ]# |8 GText #2
! a! }' Q" I) o  _7 kID                                       : 4
& g( X" E9 O1 `/ W1 cFormat                                   : UTF-89 r' J) J* o3 w. B7 K" E5 x4 i. S
Codec ID                                 : S_TEXT/UTF8) h2 ~& P+ t8 \, y( @7 F" }1 d5 _
Codec ID/Info                            : UTF-8 Plain Text+ }/ ]5 l( C3 q7 v2 @
Duration                                 : 1 h 41 min
6 I" Q1 v  T6 I+ K' E7 y2 KBit rate                                 : 31 b/s
: W9 ^# R6 h$ C, g3 j, lCount of elements                        : 800; D/ s; N2 [4 Z% u
Stream size                              : 23.4 KiB (0%)! @6 @2 I6 ~' |* {5 Y. Y
Language                                 : English
" k1 @. M# m7 D& F: _/ gDefault                                  : No( Y9 Q5 e9 e6 c1 A) \' k; T
Forced                                   : No
. i# f0 i! y. [: J' N+ D8 Y
* _; z3 e( d; SText #3
+ t" X' _/ U/ `ID                                       : 5- l  S( E* X6 x! x4 ]
Format                                   : UTF-8; T  M5 \, n/ g
Codec ID                                 : S_TEXT/UTF8
+ Q. g, p, K! l; j( h2 iCodec ID/Info                            : UTF-8 Plain Text" l! X. _. Q4 [
Duration                                 : 1 h 42 min) u- y2 C* u  w% V# h9 h4 r
Bit rate                                 : 33 b/s6 b5 C$ E0 A0 K  K
Count of elements                        : 869( o/ U( {9 E9 ?4 @8 x: s/ H
Stream size                              : 24.8 KiB (0%)
; }$ x; k# P. ?6 {$ _Title                                    : SDH* ?0 d: k1 g8 }
Language                                 : English" n0 o  ]/ B& V2 D
Default                                  : No
, v8 U+ ~6 V2 e/ z, gForced                                   : No8 _! R, ~) b1 l2 ~4 e! O8 H. M" e" M

7 \4 E* e2 J* KText #4
% F) n% n4 U( [+ s3 @* uID                                       : 6
# [& v, g# ?" a  H+ u% Z6 w& i4 TFormat                                   : PGS
  h3 n$ u" F9 W- lMuxing mode                              : zlib) }& L2 W3 T, x+ e5 Z& |7 n
Codec ID                                 : S_HDMV/PGS) E" F+ G+ z) S3 l! Z( V
Codec ID/Info                            : Picture based subtitle format used on BDs/HD-DVDs$ l% l  b/ k# Q/ w* k3 }
Duration                                 : 1 h 27 min5 u) p" @9 H' \
Bit rate                                 : 1 545 b/s
: u( D2 m1 L# Q; V5 t9 nCount of elements                        : 315
$ D  P5 n8 C  F7 f' r* b: kStream size                              : 987 KiB (0%)
- h2 k% u/ y  [) a7 P" T3 a- HTitle                                    : Forced
: P9 D/ M) i! F! DLanguage                                 : English5 k! I" |6 L+ f4 `5 x$ E
Default                                  : No6 `9 b2 k: h) g+ S8 j7 ]6 W! Z+ o
Forced                                   : No
; U. W# q5 \( b; P$ X
3 l' V5 f5 T3 @+ e4 j5 XText #59 c; }, [9 p4 s0 d8 {- [- B* D8 _
ID                                       : 73 L! _) U0 H! e% ~
Format                                   : PGS
9 C. u+ |( F. ^% [( d3 FMuxing mode                              : zlib& R3 U" x- j  y/ k% Z
Codec ID                                 : S_HDMV/PGS& f# t( n! U6 r# N' c7 i3 }- z
Codec ID/Info                            : Picture based subtitle format used on BDs/HD-DVDs
  M9 Q& A( ?, `' d1 Z, f. ADuration                                 : 1 h 42 min
9 x! _9 }+ E/ o- G. S3 ?) sBit rate                                 : 3 995 b/s
. d' @  P( B1 k9 r+ F* y2 {. N5 ACount of elements                        : 1738
3 Z2 }& U6 b5 `2 J- S6 rStream size                              : 2.93 MiB (0%)" B# [2 m) O' H7 t8 u
Title                                    : SDH
; C+ g' u2 d7 _; D$ O* BLanguage                                 : English
' x  x, I: q9 w& {0 PDefault                                  : No
+ ]. J* B3 k$ S$ |& Q8 xForced                                   : No
: G  }' a2 b0 i, I
, Z4 @- {4 g6 B6 j. wText #6
( R) k+ ~% z) k% YID                                       : 8! z* t* p: a1 d( w3 y
Format                                   : PGS
; v& L5 G, \7 o% {! o0 Y& z3 v' `Muxing mode                              : zlib
1 c5 K0 z9 G! p; cCodec ID                                 : S_HDMV/PGS7 O9 l7 @$ C* g- O( G; m5 v$ j4 `* M
Codec ID/Info                            : Picture based subtitle format used on BDs/HD-DVDs
. Q, n' [6 b9 D  ]7 P4 O* |Duration                                 : 1 h 42 min3 S/ E: b& _$ x6 I
Bit rate                                 : 3 353 b/s
4 X8 g8 ^' _/ O/ Q+ r& c- xCount of elements                        : 12288 ?6 i1 p3 t3 e. ]
Stream size                              : 2.46 MiB (0%)( \( o+ }3 R2 m+ }
Language                                 : Spanish# j% Q3 v' I6 u8 S; P3 P2 H  z
Default                                  : No: Y/ z5 Z* j/ h/ k8 I9 t' S! d
Forced                                   : No7 A8 i! j8 `7 W: I" D  b- x

& L: c0 @9 w1 |1 q, B' pText #78 d& m1 C3 ^. M2 w# e
ID                                       : 9. Y6 B5 N, B+ {
Format                                   : PGS
2 K- k8 U) h" j9 Z; J0 R; }' {Muxing mode                              : zlib% c5 ?7 J/ ^- u( A2 {# s5 h5 g
Codec ID                                 : S_HDMV/PGS
; O/ [. J0 y% B( ?& |2 ?9 S# oCodec ID/Info                            : Picture based subtitle format used on BDs/HD-DVDs/ d9 A9 S3 e/ R( }- ?6 L7 P
Duration                                 : 1 h 42 min
7 B* c5 S# M, k% y7 {( ~Bit rate                                 : 2 777 b/s
3 [0 Z6 V9 k; q7 tCount of elements                        : 9335 D. @+ I3 N4 t4 f$ t3 w
Stream size                              : 2.04 MiB (0%)! g7 Q$ H9 M8 M8 X/ z, \
Language                                 : Japanese
) T8 }8 J. ]6 CDefault                                  : No
" M+ u8 F9 j. e3 I$ x2 b. W1 sForced                                   : No; e' d5 c; s% W5 t1 j2 b
9 a' e" ]% {2 R& x
Text #8/ S5 y  R4 T" |9 h, ^
ID                                       : 10
" W: y  C6 B# V; u+ Z6 uFormat                                   : PGS4 _) t3 f6 J, s$ }8 f- [* h0 `
Muxing mode                              : zlib
& O# P$ j3 J* ?! GCodec ID                                 : S_HDMV/PGS
$ N: B2 D" A" s8 M" XCodec ID/Info                            : Picture based subtitle format used on BDs/HD-DVDs
7 p: m6 y0 P2 ]; s6 YDuration                                 : 1 h 42 min7 u' g# w$ n5 r' \2 O
Bit rate                                 : 2 525 b/s' E& ^$ w) [; a0 M5 g" I' `
Count of elements                        : 1244
9 A  {- t" K: y6 g+ ^5 L! LStream size                              : 1.85 MiB (0%)
: a* Q% [, Q! V- E# p# h6 s* `Language                                 : Korean
. g9 w% K* F0 [  CDefault                                  : No3 |; ^' p! _( }+ Y) C
Forced                                   : No; E1 T: X7 E# N3 |- F5 m
" L, i1 v$ `2 x- e
Text #9
: v% _1 ]/ H. Y4 \ID                                       : 11
2 Z( k% q# o# W+ l1 N. x1 _% qFormat                                   : PGS
- |0 ^, y' K) QMuxing mode                              : zlib
) \3 q  e, [; n* c1 a, T0 F# OCodec ID                                 : S_HDMV/PGS
$ |8 K( y6 K/ O( k( k1 qCodec ID/Info                            : Picture based subtitle format used on BDs/HD-DVDs
, D; a5 I: f+ TDuration                                 : 1 h 42 min; G$ Y+ ^# @1 U0 R3 N& {
Bit rate                                 : 3 493 b/s
& W7 C, a# c/ i) P) vCount of elements                        : 1245
0 G7 l9 x0 H: \. ~: [Stream size                              : 2.56 MiB (0%)) }+ k" H9 ^8 x/ ^
Language                                 : Chinese
4 c2 S9 e# }4 T4 p# b" E2 A% WDefault                                  : No
9 F6 @% z. R' R7 B4 yForced                                   : No" g- {( u4 D, b& l* v* q4 @( f

+ T( v6 Q+ T: x8 S" m, A7 s3 }" EText #10
+ i/ V0 i1 o) S. G8 o! g1 o2 HID                                       : 123 O' H7 M7 u# F6 k8 U& Y+ u7 O
Format                                   : PGS
$ W3 i8 E7 ~/ vMuxing mode                              : zlib
2 \  s) K3 C( P7 s$ w4 i% M% dCodec ID                                 : S_HDMV/PGS
# G0 o* w  S: {$ U9 jCodec ID/Info                            : Picture based subtitle format used on BDs/HD-DVDs, [& {3 E; f; W- R4 c
Duration                                 : 1 h 41 min; d  i4 C3 q9 R  a" [
Bit rate                                 : 895 b/s2 B& x$ h/ m, u5 U
Count of elements                        : 341
6 S) e4 J) ^1 ~* uStream size                              : 668 KiB (0%)) ?' \4 x$ b+ n9 x$ G* t' H
Language                                 : French
4 q; k$ t2 i6 t2 Q6 v& [. {8 UDefault                                  : No
7 w/ M4 d9 F' xForced                                   : No
" }9 ]& V) \" P* U7 T6 a" i) X$ {
! X: z' e" q( A. `; f* {Menu
! F3 a  c9 C1 q0 j  l; m! Y6 z00:00:00.000                             : en:00:00:00.000" m- O- q# j/ D6 D7 d
00:02:27.856                             : en:00:02:27.856
9 W) u: r4 @1 F, q! i00:05:08.141                             : en:00:05:08.141
9 \- B: B* G+ r/ K00:09:50.215                             : en:00:09:50.215
& e6 u' C4 j/ E2 O  v00:16:08.593                             : en:00:16:08.5938 R. l; M" P# _) s+ h& X
00:19:52.024                             : en:00:19:52.024
+ G1 |/ P/ R+ a1 g) y& ]00:25:12.136                             : en:00:25:12.136
$ M' r4 t$ z2 v; K5 ^: W( N00:32:19.062                             : en:00:32:19.062, p' z& m8 \, F
00:35:57.655                             : en:00:35:57.655
8 s3 S6 q1 j! k5 y& |00:45:02.408                             : en:00:45:02.408- P$ H  u8 l. y  H
00:50:30.861                             : en:00:50:30.861
$ i+ W) b1 z0 U+ p6 Y9 j1 O00:58:39.724                             : en:00:58:39.724
- [4 t9 w6 [7 v01:04:35.121                             : en:01:04:35.1218 i# l2 l& j$ k$ N2 v9 H
01:13:12.221                             : en:01:13:12.221+ E$ d0 v/ J% Q7 b" L: x
01:21:39.436                             : en:01:21:39.436
- u7 h8 x+ A+ m# t  l01:30:05.733                             : en:01:30:05.733
" R, l4 _) H7 y4 Z+ y6 X01:38:37.078                             : en:01:38:37.078* `3 q" }7 n9 |6 l
01:41:46.100                             : en:01:41:46.100( q/ x( G8 Z! {0 Q: y! k
01:43:19.401                             : en:01:43:19.401
SPECS
! `9 C: r: \* @4 l! I4 h# o6 b
. o+ F5 k1 F* D) dSource: BluRayCD
3 D) I! Q8 U' w$ \5 v8 a# k
5 c4 l  L. ^, }" F$ D( ]' WFormat : Matroska
3 H6 p0 A2 i& H% t9 ~. P% iFile size : 10.5 GiB
- t) R6 d  D' l6 W. EDuration : 1 h 50 min
2 p3 n5 |! U$ W/ TOverall bit rate : 13.6 Mb/s
" C) V$ {3 E. B" S' @# ~3 Y1 _$ @- u" V! W, J/ D) t4 k# Y7 G
Video3 O7 R  c7 ?* R% G0 Y5 X
Format : AVC! k& |! n! ?0 |4 |4 ~) k
Format/Info : Advanced Video Codec
) Y/ Y& |3 M4 w5 A9 F6 F* ?Format profile : High@L4.1$ ^7 u' _& ^8 j
Format settings, CABAC : Yes+ d0 Z; Y% G1 t; e
Format settings, ReFrames : 5 frames) |# j. g1 ?. i9 j( M
Codec ID : V_MPEG4/ISO/AVC; R6 j" i0 g  }! b: c& @% r
Duration : 1 h 50 min
+ F, ?; _# K: d) C  C5 ~Bit rate : 10 000 kb/s
& {3 J1 k5 `- K$ y& h7 ?6 Q3 `& }Width : 1 920 pixels( m$ Y  z# K6 b1 }7 b& O- P
Height : 800 pixels5 G# t9 o/ S6 g) D4 f
Display aspect ratio : 2.40:1# ], r; V- x$ w5 s6 j# r9 }
Frame rate mode : Constant  B1 Z: c4 K6 H/ C0 K8 y9 ~% F
Frame rate : 23.976 (24000/1001) FPS: |# s0 h4 F6 r6 @0 m7 w. R$ J6 H
Color space : YUV/ J& R* v( r6 e( ?& ~5 z1 U$ U  r1 ~8 q, d" Q
Chroma subsampling : 4:2:0' f: g6 F8 y6 D1 c6 T
Bit depth : 8 bits
7 l! Q5 `" y" e" m: _) l2 K* }0 `) fScan type : Progressive
9 h! }# r7 ]! z/ p1 J" d9 H8 bBits/(Pixel*Frame) : 0.272
9 f5 R$ }+ h7 q6 a( IStream size : 7.72 GiB (73%)9 d( {" S" ?+ ^# Y7 m2 t
Default : Yes, Z. [! s0 N- q) W( @+ e) `- Y0 z1 v
Forced : No
+ D* e. L: q. J* r) yColor range : Limited9 |, ~7 ^; u8 n4 i3 r
Color primaries : BT.7091 i! V5 M% r, x! r# O) D, N, z
Transfer characteristics : BT.709
4 Y  ?9 }, Z5 R2 L3 d$ ]Matrix coefficients : BT.709
+ W- `) K' t+ N% F5 O# |5 k% Z+ g* U7 z8 ?1 ]1 ~/ N
Audio #1: E' z9 O& n8 Q, w/ R
Format : DTS
) j0 d, P$ ?! V  ~8 E. D( N: oFormat/Info : Digital Theater Systems
" W% e# n; p, w/ [7 jFormat profile : MA / Core* T5 f3 F' a% T7 x
Mode : 16
8 r5 r& D9 a; f9 D' M& @Format settings, Endianness : Big5 i" q' j3 x: T- i4 E2 V( O* T' `
Codec ID : A_DTS
: U# l! ]# z% B6 }8 bDuration : 1 h 50 min1 W9 |  N6 G! d* x+ ]
Bit rate mode : Variable / Constant% r# @# a9 p  |0 x
Bit rate : 3 637 kb/s / 1 509 kb/s( m: B9 D. U" S. J+ ^
Channel(s) : 6 channels
" O6 r7 k" O& \Channel positions : Front: L C R, Side: L R, LFE
% a; O2 ]2 g2 |, Y% x$ FSampling rate : 48.0 kHz
, y- U$ {9 \/ ^$ l3 rFrame rate : 93.750 FPS (512 spf)9 B. V. R& D" z+ c4 V; L0 S
Bit depth : 24 bits
2 S( W) Q* W& a5 v1 M2 p( ~/ q8 ]Compression mode : Lossless / Lossy
& B6 J# ?7 g( `& fStream size : 2.81 GiB (27%)0 n7 X. _; E8 w$ @" d  |
Language : English: `3 l$ c3 G  v( ~
Default : Yes# ]/ g/ M2 s& p0 G4 j3 ^, T
Forced : No/ f- k5 B3 m" J* e
Chapters : YES
1 F% D! A6 C# y2 C* {SAMPLE Included
" g; L+ ~7 ^" e1 O8 O- S5 k
游客,查看本帖隐藏内容请回复 | 加入VIP贵宾组可免积分免回复下载 立即了解 | 还不是会员:点击获取邀请码 Invitation Code

本版积分规则

小黑屋|Archiver|蓝光电影资源网

GMT+8, 2020-8-7 16:46

快速回复 返回顶部 返回列表