BluRayCD Forum

 找回密码
 立即注册【分享大片】

QQ登录

只需一步,快速开始

查看: 58|回复: 5
收起左侧

[2160P极清] 敢死队3/浴血任务3 [4K HDR高码版] The Expendables 3 2014 2160p UHD BluRaycd HEVC 10 HDR Atmos 7.1-DDR 25.72GB

[复制链接]

9433

主题

9845

帖子

9万

积分

Super moderators

金币
344 枚
体力
45553 点

最高荣誉勋章

24xs 发表于 2020-7-16 04:23:10 | 显示全部楼层 |阅读模式
  X2 {1 O  v# Z+ m0 H) R& x
1 v, @$ T+ o4 P9 f
◎片  名 The Expendables 3
" J) c$ A1 s3 }9 c1 I% X9 ~◎译  名 敢死队3/浴血任务3(台)/轰天猛将3(港)7 X# @" G7 `( D  {9 Q1 f7 }- C
◎年  代 2014
* M& D6 I& m9 u0 h5 w+ C" i2 l◎产  地 美国/法国
9 ~9 |! W- l2 I! p$ |( ^5 R◎类  别 动作/惊悚/冒险
: F* C6 \* x, ^; q◎语  言 英语
- b+ E0 K2 h1 G◎上映日期 2014-09-01(中国大陆)/2014-08-04(伦敦首映)/2014-08-15(美国). n, F+ `6 |5 R6 `5 Y# r2 `/ O
◎IMDb评分  6.1/10 from 165,071 users: S: s$ a( ]- }. H. r4 t
◎IMDb链接  https://www.imdb.com/title/tt2333784/  d. }& Z+ T- f( E+ G, o& C
◎豆瓣评分 6.8/10 from 104,529 users" H" z  }- W7 {0 v" A: `! V6 K
◎豆瓣链接 https://movie.douban.com/subject/11610281/6 x* f+ Z8 O$ n4 A, m9 Q
◎片  长 2 h 6 min1 l- u8 H$ ^/ C) x, S. z
◎导  演 帕特里克·休斯 Patrick Hughes
5 E# V0 W2 B) }' \" [◎编  剧 西尔维斯特·史泰龙 Sylvester Stallone
, ~& e! ~5 W& U       克赖顿·罗森博格 Creighton Rothenberger
- p) Y/ \9 F, k; V1 v5 ~/ e$ ^9 o8 J       凯特琳·贝内迪克特 Katrin Benedikt
* s6 n: Z- f" v' x+ m2 r6 h       戴夫·卡拉汉姆 Dave Callaham
/ o; O9 C- M' f, M3 y9 J◎主  演 西尔维斯特·史泰龙 Sylvester Stallone: d1 ~+ k2 l; G; \1 J5 V
       杰森·斯坦森 Jason Statham
8 }5 `. m6 e4 ^4 M       阿诺·施瓦辛格 Arnold Schwarzenegger
. I* m2 H; E' X5 k# s$ P% o! `       杜夫·龙格尔 Dolph Lundgren7 o3 g1 G" n* ]% x
       韦斯利·斯奈普斯 Wesley Snipes
1 x" W7 |4 u3 S       梅尔·吉布森 Mel Gibson
6 r6 U4 |. B/ ^! M       兰迪·库卓 Randy Couture
+ l& Y3 t* N  h6 l       哈里森·福特 Harrison Ford
# p' c+ n5 p- Z' E" G8 F- X       凯尔希·格兰莫 Kelsey Grammer) x- t; ?. K8 L. G8 E# x
       安东尼奥·班德拉斯 Antonio Banderas/ X" J9 d% c1 {! S3 O
       维克托·奥尔蒂斯 Victor Ortiz5 T# w2 H, ?, r7 t
       龙达·鲁西 Ronda Rousey
. {5 n2 s' F; H! z) |       凯南·鲁兹 Kellan Lutz9 y( k7 ^3 C$ l
       李连杰 Jet Li
0 y' z) v$ e* c5 f0 u       伊凡·科斯塔迪诺夫 Ivan Kostadinov
( c9 s" o$ e3 |! D# x/ t) U- }       泰瑞·克鲁斯 Terry Crews
! ]( z# }1 f+ a. l
4 G% ^8 x: m/ Q◎简  介   + P; \5 `& x, r- e+ x

. ]: C, P7 h3 j6 E1 l  影片开场,巴尼·罗斯(西尔维斯特·史泰龙 Sylvester Stallone 饰)带领敢死队的老伙计李(杰森·斯坦森 Jason Statham 饰)、贡纳(杜夫·龙格尔 Dolph Lundgren 饰)等人驾驶直升机劫持火车,救出了被囚禁的用刀高手医生(韦斯利·斯奈普斯 Wesley Snipes 饰)。经过短暂的休整,他们奔赴索马里潜入某倒卖军火组织的老巢中执行任务,谁知巴尼发现该组织老大竟然是当年本该死去的敢死队战友康拉德·斯通班克(梅尔·吉布森 Mel Gibson 饰)。一番激烈的交火过后,斯通班克成功逃脱,而敢死队方面则损失惨重。- }0 |  Q3 i" V) _
7 [8 z4 ^' R& X' a
  此役过后,不仅军方和敢死队藏着一股怒火,连斯通班克也被彻底激怒,最强的硬汉迎来生死对决……5 J4 Z- a: F/ p9 w6 D
# k& D; Z' m- J+ f  T
  Barney augments his team with new blood for a personal battle: to take down Conrad Stonebanks, the Expendables co-founder and notorious arms trader who is hell bent on wiping out Barney and every single one of his associates.  S2 R2 K& L& b; m
  1. 2160p 4K UltraHD BluRay Rip - _5 h8 V' ]. K5 t4 _% V' R
  2. HEVC 10 Bits HDR BT2020
    ' B- ^0 j; a- c  A$ r$ w
  3. English Dolby ATMOS 7.1 Audio ) t8 i  D' d  ^
  4. English Subs+SDH
    ! B  L* `2 {8 b( ?% z/ C; o
  5. SCREENSHOTS
    - k. h6 l2 W6 H8 {
  6. " n0 x* a  n! s* o' K% @
  7. SPECS 2 g7 O1 B' c! F9 `; t9 k/ T# g

  8. 9 D: p. x6 V& o# p" H5 x/ c' C. Q
  9. Source : 4K UHD BluRay @ UHDClub (Thanks). g3 x/ Z  q& k9 u8 n
  10. Format : Matroska3 S, Q7 u% C, d0 v- a
  11. File size : 25.6 GiB1 I  Q9 V1 U: D1 I' p  a5 e# J
  12. Duration : 2 h 6 min9 q  A7 w" r2 H: k+ x$ T" k/ B- [
  13. Overall bit rate mode : Variable' f, _2 I7 N7 H- n: t
  14. Overall bit rate : 28.9 Mb/s
    , v% Y4 R% h# A  ^6 ^  `9 {/ l
  15. 3 N6 j5 v4 \7 q
  16. Video% N6 T- F* M+ {# L+ g
  17. Format : HEVC7 h3 u/ @2 f# [' b
  18. Format profile : Main 10@L5@Main* s# @7 A6 {  r! ^( d. j" K
  19. Bit rate : 23.1 Mb/s
    : ]$ Q1 ^  s# p9 S5 u% m" u
  20. Width : 3 840 pixels- {1 h6 v" P! F1 @7 ~2 @. U
  21. Height : 1 600 pixels
    ! f$ S9 |+ T% o
  22. Display aspect ratio : 2.40:19 k+ i% Y: q1 `6 q
  23. Frame rate : 23.976 (24000/1001) FPS  b6 N0 O  x4 I
  24. Bit depth : 10 bits# K1 e4 F/ D; b
  25. Stream size : 20.3 GiB (80%)
    , Z' O, K! `; a1 C: Y% V2 r4 I, n
  26. Color primaries : BT.20205 J, E/ G+ ]3 N8 r  v6 E
  27. Transfer characteristics : SMPTE ST 2084
    5 c( f  f8 f% o/ N# e( ]
  28. Matrix coefficients : BT.2020 non-constant
    2 E0 [# m& t  b4 k4 T, t3 @" w
  29. Mastering display color primaries : R: x=0.680000 y=0.320000, G: x=0.265000 y=0.690000, B: x=0.150000 y=0.060000, White point: x=0.312700 y=0.3290005 U- l8 G9 C( \
  30. Mastering display luminance : min: 0.0050 cd/m2, max: 4000.0000 cd/m2
    / [. g/ f0 G$ G+ X9 h
  31. Maximum Content Light Level : 1000 cd/m2
    ! C4 d* V; d: n
  32. Maximum Frame-Average Light Level : 400 cd/m2
    : K  s' v; M1 d$ N

  33. 2 B* W8 a3 N7 k6 r6 X  N
  34. Audio #1
    0 o' X" b( A( J; Z* X
  35. Format : Atmos / TrueHD
    ( n! R: C8 U) ?; k  d' d
  36. Bit rate : 5 198 kb/s / 7 467 kb/s/ l2 Q2 e- o3 s# q
  37. Channel(s) : 8 channels6 [; `2 `# l) s' ]' Y- J
  38. Stream size : 4.59 GiB (18%)" m0 m( t4 |6 R# [( o
  39. Language : English
    ; j. V! i; r  g
  40. / N8 l# I# K5 i
  41. Audio #21 S. [+ J6 Y, f* j) Z$ k
  42. Format : AC-3
    8 |" y% m: g+ z+ S# s( Y9 \
  43. Bit rate mode : Constant- _2 L- R* ?1 B# y1 t
  44. Bit rate : 640 kb/s$ }7 X5 x$ F* J& b
  45. Channel(s) : 6 channels
    ' ?1 S% l# c/ M' O& t5 f+ ]$ \
  46. Bit depth : 16 bits
    8 q5 O9 t8 Q6 K4 M" F+ k* p" P% U
  47. Stream size : 564 MiB (1%)' T6 n! c3 b: H1 O& k
  48. Language : French% O1 m! Q/ c! G8 `

  49. 4 N6 r: d* d6 e: Y
  50. Chapters : YES
复制代码
& L3 i1 X6 {. t  i$ G
游客,查看本帖隐藏内容请回复 | 加入VIP贵宾组可免积分免回复下载 立即了解 | 还不是会员:点击获取邀请码 Invitation Code
下载截图: 02.jpg

120

主题

285

帖子

1648

积分

Sponsor

金币
418 枚
体力
644 点
QQ
zhangwenbin 发表于 2020-7-16 08:28:56 | 显示全部楼层
" f+ V9 E( U0 c8 N
[2160P极清] 敢死队3/浴血任务3 [4K HDR高码版] The Expendables 3 2014 2160p UHD BluRaycd HEVC 10 HDR Atmos 7.1-DDR 25.72GB
蓝光论坛里 ...

39

主题

1217

帖子

4338

积分

Sponsor

金币
231 枚
体力
1632 点
lanpanshuma 发表于 2020-7-16 08:53:43 | 显示全部楼层
楼主更新真及时啊
该会员没有 ...

2

主题

676

帖子

2907

积分

Sponsor

金币
597 枚
体力
1033 点
tto138 发表于 2020-7-16 19:37:54 | 显示全部楼层
这么好的帖子不回对不起自己!7 d) D9 T( R, _1 V8 \$ w
要想蓝光电影论坛发展好,资源多,就靠你我他!To the development of Blu-ray movies forum, resources and more depend on you and me!
# Y* ~% ?6 ]$ C( M* S8 J1 O3 t8 i

560

主题

1817

帖子

1万

积分

VIP advanced

金币
1471 枚
体力
4122 点

公主勋章卓越贡献勋章

21cn 发表于 2020-7-16 21:18:43 | 显示全部楼层
啥也不说了,楼主就是给力!
. j" G/ M" h( K$ w6 a$ @In fact, I have always felt that the landlord of good taste! Ha ha!
& r8 P4 S+ G: [/ H5 e+ f- W

12

主题

1236

帖子

6621

积分

Sponsor

金币
862 枚
体力
3299 点
QQ
shiji1973 发表于 4 天前 | 显示全部楼层
感谢分享精彩电影

本版积分规则

小黑屋|Archiver|蓝光电影资源网

GMT+8, 2020-8-9 14:04

快速回复 返回顶部 返回列表