BluRayCD Forum

 找回密码
 立即注册【分享大片】

QQ登录

只需一步,快速开始

查看: 61|回复: 5
收起左侧

[蓝光原盘] 莫斯科陷落2/末日异战 [REMUX无损版] Attraction 2 Invasion 2020 RUSSIAN 1080p BluRaycd REMUX AVC DTS-HD MA 5.1-FGT 39.62GB

[复制链接]

4421

主题

4587

帖子

5万

积分

Post Share

金币
8323 枚
体力
16432 点

卓越贡献勋章

黄金嫖客 发表于 2020-7-17 21:55:12 | 显示全部楼层 |阅读模式
With the fall of the alien ship Julia's life changed, now three years later mankind is about to experience new encounter.
( _8 K6 u) W8 j( r0 W2 S- Y9 {; O5 D+ s: p1 O+ @8 M
01.jpg 3 _) I& F0 d6 x: z4 D+ |
' Y2 i( Y3 _# A7 l- `
◎译  名 莫斯科陷落2/末日异战(台)( K7 H, {9 Y# O; B0 V( v6 [
◎片  名 Вторжение / Притяжение 2 / Vtorzheniye / Invasion / Attraction 2: Invasion
3 {% I* b, H& U◎年  代 2020( ~2 k1 w, S3 [) l& ^& p
◎产  地 俄罗斯- n: l$ G3 n% ?, b; ^
◎类  别 科幻/灾难
+ H; j) t! K  X& ?+ A4 k: q) A4 O◎语  言 俄语
9 j; u; [4 r+ i4 r. K9 Z6 m! E◎上映日期 2020-01-01(俄罗斯)
* \% j3 |" Y5 d9 f$ {◎IMDb评分  5.5/10 from 1,822 users
# m8 c) D2 v( z8 F5 O◎IMDb链接  https://www.imdb.com/title/tt8060328/( ^2 Z7 A& T, F5 m4 |  J' n
◎豆瓣评分 5.7/10 from 1,692 users7 J) r) @5 s7 A
◎豆瓣链接 https://movie.douban.com/subject/30242270/
( e1 b1 v0 u" }# s) ^0 j◎文件格式 x264 + DTS 7 v& U: _1 b; m" o+ b/ [( F$ a4 U9 V7 \
◎视频尺寸 1920 x 1080
$ v$ B. J" p4 X* x0 s◎文件大小 1DVD 39.62 GiB) g6 J' j, t2 ~! g6 y
◎片  长 2 h 13 min
0 ?5 |6 @, P" J+ d◎导  演 费奥多尔·邦达尔丘克 Fyodor Bondarchuk+ a6 G+ v+ \& _1 V3 Y* Q
◎编  剧 奥列格·马洛维奇克 Oleg Malovichko
4 ]# z' |. L& d# i4 o       安德烈·佐洛塔廖夫 Andrey Zolotarev
4 I7 k+ h# Y7 @4 ]1 }$ E◎主  演 伊琳娜·斯达申鲍姆 Irina Starshenbaum0 f: c! F! D+ R
       林奈·穆罕默托夫 Rinal Mukhametov% j" ?) ^9 K. ?' k& n, ~
       亚历山大·佩特罗夫 Alexander Petrov
; H: I7 I6 K- y, N       尤利斯·鲍里索夫 Yuriy Borisov+ U. v0 `" K: K. H/ ]
       谢尔盖·加尔马什 Sergey Garmash4 \  c9 Q  [, @4 w
       欧列格·缅希科夫 Oleg Menshikov
7 ]' t9 k; r: \$ q( S9 S. ]) S) U
1 ?4 i& M1 M+ R) m/ o$ U) P◎标  签 科幻 | 俄罗斯 | 灾难 | 科幻片 | 莫斯科陷落2入侵 | 俄罗斯电影 | 2020 | 莫斯科" \7 R8 w2 `2 X% L

; Z" Y* Z* ]5 ~& O4 l( p◎简  介  
3 p$ j2 r" l& @7 x. Y1 Y: c! K0 c/ I5 ?7 F  |; D# D
  自从一艘外星飞船在莫斯科切尔塔诺夫坠落以来已经过去了3年,普通女孩朱莉娅在接触到外星技术之后,成为国防部秘密实验室的研究对象。在研究过程中,朱莉娅表现出不同寻常的能力。隐藏在其中的力量不仅吸引了人类的注意,而且对宇宙的规模构成了威胁。; L+ M+ D% \* |. @" w  v' Q
; Q: W2 g' h$ ]" k, L1 k* j4 f! A
  Invasion is an upcoming Russian science fiction film directed by Fyodor Bondarchuk. The action of the film unfolds after the events described in Attraction (2017). After the fall of the alien ship, it took three years. The catastrophe turned the girl's life from Chertanovo and forever changed our view of the universe. It seems that this was the biggest test for all of us. But mankind does not yet know that very soon he will have to experience a new meeting.: ]/ m" u$ ?) N9 n5 k

7 x- b6 s! g9 I# z) A5 F
Video
0 I: P" u6 f4 e1 E; VID                                       : 1
! |2 n4 d  ?0 o$ Q! ?8 n0 kID in the original source medium         : 4113 (0x1011)$ t' ^' A3 G) g1 C
Format                                   : AVC+ i- t+ u# m9 p* d! q3 z1 A
Format/Info                              : Advanced Video Codec
) H; D$ \% J0 A0 A# V, }% f) |! @Format profile                           : High@L4.1
" X+ i" f7 r9 g) c1 XFormat settings                          : CABAC / 4 Ref Frames4 _( ^/ l4 p: L
Format settings, CABAC                   : Yes
; Y& y9 h& i' g2 W: j: ZFormat settings, Reference frames        : 4 frames3 z# w" |4 G2 Q. f+ [
Codec ID                                 : V_MPEG4/ISO/AVC
& \, c+ V5 E# [3 O6 |! D; V$ c+ K0 z, jDuration                                 : 2 h 13 min
; H0 t; H5 y$ vBit rate mode                            : Variable
, [" b3 L5 ^' v1 k: Q) ~! h  }Bit rate                                 : 34.7 Mb/s+ m3 }! p) Y7 A+ R0 s6 y. c# g! K
Maximum bit rate                         : 36.0 Mb/s
0 O' O. N8 K  w4 KWidth                                    : 1 920 pixels
- _% ^$ s5 G4 ?Height                                   : 1 080 pixels
; }- f4 y. [0 e( o" f% O5 z% {Display aspect ratio                     : 16:9
( [5 E. n: }1 I- E3 O2 L+ |Frame rate mode                          : Constant+ N" h% H3 g* Y# N. H( {3 |, d
Frame rate                               : 23.976 (24000/1001/37687) FPS# I! M6 R5 F1 @+ ~$ W
Color space                              : YUV/ C- H  s7 ?, D8 u2 o. r6 I6 l3 k
Chroma subsampling                       : 4:2:0
% K- v* F( F: Y. lBit depth                                : 8 bits9 F8 ^! ]6 o: ?1 n8 v, f8 ~
Scan type                                : Progressive
. d, p6 e( m0 zBits/(Pixel*Frame)                       : 0.698) f! J3 N. d2 G2 n0 I) z
Stream size                              : 32.3 GiB (82%)5 @7 b: O" X6 `! X5 g3 l
Title                                    : Attraction.2.Invasion.2020.RUSSIAN.1080p.BluRayCD.REMUX.AVC.DTS-HD.MA.5.1-FGT
2 B7 c3 _) A5 ?6 V% {( y& mLanguage                                 : English
( W0 z) p7 k, c& ~2 l. S1 uDefault                                  : No
7 G; F9 g5 Q% rForced                                   : No
+ K2 g' d# W3 f: \, X2 qOriginal source medium                   : Blu-ray  z% r$ O+ a2 \# V5 T. d
+ `* u7 F( B% u/ V
Audio #1
" O9 g' p2 t# n' lID                                       : 2. {: U4 m+ ?) ]( [/ |
ID in the original source medium         : 4353 (0x1101)' J9 h+ D  l4 F6 }7 X9 C
Format                                   : DTS XLL4 H; Y; x( x, U: }$ L- W3 M3 p  u
Format/Info                              : Digital Theater Systems
& ^) ?& @  I" Q- k( ^9 N+ hCommercial name                          : DTS-HD Master Audio" o. j, T% C6 _- |; c/ B% T: j+ ?" p4 g
Codec ID                                 : A_DTS
* x  e/ U5 h9 d' v0 \# F" HDuration                                 : 2 h 13 min2 n" z% d. _8 v$ n" U
Bit rate mode                            : Variable7 ?0 n/ s8 O  R3 X+ ?" }$ H
Bit rate                                 : 3 989 kb/s
! q- r5 {6 f7 ^Channel(s)                               : 6 channels2 k2 s' }8 u+ S( z2 F
Channel layout                           : C L R Ls Rs LFE% a/ n  p# b5 F  P
Sampling rate                            : 48.0 kHz
, A! \% s; b0 h! D! k; L2 o0 jFrame rate                               : 93.750 FPS (512 SPF)
/ x' t- {) U- ~% |( Q  L6 t* d' ^Bit depth                                : 24 bits0 f- A! e& s4 X2 M
Compression mode                         : Lossless6 ~( f& {9 V5 W! U( R, }
Stream size                              : 3.72 GiB (9%)( D& y3 g1 d, d' N9 u
Title                                    : Attraction.2.Invasion.2020.RUSSIAN.1080p.BluRaycd.REMUX.AVC.DTS-HD.MA.5.1-FGT
) V7 X3 T6 W+ h: tLanguage                                 : Russian9 ?1 C. @) n3 U- D& m
Default                                  : Yes
! Y# I$ K$ z# pForced                                   : No
' P/ F( \4 r8 \) e" }8 i1 j  r+ GOriginal source medium                   : Blu-ray
& N) X/ M' i( s( C, e+ Q- o5 f8 V4 `3 b, h$ Q) H' U
Audio #2
. N4 M* V8 V; H, T& yID                                       : 3
& b! `/ N( J/ Q2 |. o/ Q" O1 aID in the original source medium         : 4352 (0x1100)
4 W2 B- q2 P1 ~* y9 ^8 g; E) @' ?! iFormat                                   : DTS XLL
. c- s4 i  y9 E6 ~. N" UFormat/Info                              : Digital Theater Systems
# x7 g5 l2 K$ o& HCommercial name                          : DTS-HD Master Audio
7 I' l: w$ v7 d& V3 ?: @Codec ID                                 : A_DTS
% R% i! i* ]7 H8 P4 _Duration                                 : 2 h 13 min  G( h; M3 J& q) E* C/ R
Bit rate mode                            : Variable; U0 V) B/ J3 S, I
Bit rate                                 : 3 770 kb/s8 D  y+ s" s' h8 D* P# V4 n: n
Channel(s)                               : 6 channels1 ~$ G& U% b, y. l8 O
Channel layout                           : C L R Ls Rs LFE; p6 q  Q* Y+ \: j+ H3 C8 h
Sampling rate                            : 48.0 kHz
% L5 i0 M2 F) s8 W4 i/ _( nFrame rate                               : 93.750 FPS (512 SPF)# U  r2 f+ [8 z  D
Bit depth                                : 24 bits8 E5 b6 K$ N7 C
Compression mode                         : Lossless9 m( b3 h( w3 I* n3 X# y/ X
Stream size                              : 3.51 GiB (9%)( {0 ]4 P4 U7 a% e& Z5 N# O
Title                                    : Attraction.2.Invasion.2020.RUSSIAN.1080p.BluRaycd.REMUX.AVC.DTS-HD.MA.5.1-FGT
9 X. d1 n* a6 z% w2 w. I/ E  nLanguage                                 : English
& k+ u$ A8 F& \" p: E0 U8 ]& SDefault                                  : No8 c+ `1 ]; c+ }& R
Forced                                   : No
. V3 y- n) {' E/ P- [Original source medium                   : Blu-ray  X. Q8 K  Y3 c" g

# B* O/ i8 V( I, q. ~Text #1
4 t# y8 {; |! I$ h; C2 u& aID                                       : 4' h" J/ T  Q# r) Z8 H
Format                                   : UTF-8& a% V6 T# U& y' U7 S% h4 T: Z
Codec ID                                 : S_TEXT/UTF8/ t1 o. {8 y1 O6 G% N7 c! K
Codec ID/Info                            : UTF-8 Plain Text
+ s) x5 e! O1 _* i1 ]Duration                                 : 1 h 57 min
0 N+ b8 h. S) x9 g6 r1 P0 j2 vBit rate                                 : 51 b/s0 L- ?1 C( d& Q% S9 e
Count of elements                        : 1346
! c' @! k. U$ W0 n; MStream size                              : 44.3 KiB (0%)
1 |( T3 C0 S" D# u7 {- L: }Title                                    : English-FOR-RUSSIAN-SRT9 a/ N. L' U" L2 K6 t; t
Language                                 : English
' c9 H6 X8 L1 }- Z3 ?Default                                  : Yes
$ G4 [4 t0 M0 J  z+ B) D$ @- dForced                                   : No$ Q% e* Q$ D) P" e! T- ]

! w4 Z6 x9 j- W$ @9 UText #2
( R. W3 z; d* t6 ]ID                                       : 5
6 m- U4 ]6 A3 C# aFormat                                   : UTF-8
6 m! ?8 p9 g0 \& \+ e4 i1 r% sCodec ID                                 : S_TEXT/UTF87 T: z5 l0 e9 D1 _# `4 Q
Codec ID/Info                            : UTF-8 Plain Text6 @, h' R3 W- ]
Duration                                 : 1 h 41 min0 k2 d$ y7 F) A4 B8 r# w
Bit rate                                 : 0 b/s+ b  Z# T) J- O
Count of elements                        : 23
+ a/ y0 |) I; U6 g  WStream size                              : 561 Bytes (0%)
0 `9 f' O- L; A, o& VTitle                                    : English-FOR-ENGLISH.DUB-SRT
  R+ C( p0 s+ @! @& y4 l" L2 [3 kLanguage                                 : English% g1 s1 U. S. g6 t
Default                                  : No
9 _6 m; }- d" ^& I/ \3 e0 ~Forced                                   : No
% @( P& F) Y8 n* ~6 ^$ w, k  D1 H' F& ?( O& R: a
Text #3
$ m2 p( c- E, `3 f8 kID                                       : 6( O) i5 y- j5 H1 J9 k3 n, d
ID in the original source medium         : 4608 (0x1200)
" ^( p1 D9 j% T6 x6 s" |Format                                   : PGS
1 a9 Z; A- s$ u8 KMuxing mode                              : zlib$ Q: u8 K1 x% B4 H4 z
Codec ID                                 : S_HDMV/PGS
4 y3 [; X0 M7 s! q: t2 WCodec ID/Info                            : Picture based subtitle format used on BDs/HD-DVDs/ A+ \8 ]% F/ w
Duration                                 : 1 h 41 min
3 d* p2 ^* k& q3 g) E  @# c: zBit rate                                 : 528 b/s
# W  S$ h( R! r5 ~! u3 t4 r8 gCount of elements                        : 46( ^, g* t1 u" C! y
Stream size                              : 392 KiB (0%)
+ z+ R; w$ s6 `, }% x- E$ yTitle                                    : English-FOR-ENGLISH.DUB-PGS
) c3 [9 g0 E+ kLanguage                                 : English
# k9 H: k7 M. `5 I$ vDefault                                  : No
& d( s  k" N5 Y0 {Forced                                   : No8 U" c" ]- j7 U3 f' |# C8 L
Original source medium                   : Blu-ray8 t& p# h; m( s- r( [
3 ]: u# G8 p& L: l
Text #47 j6 A8 |2 W$ s* L$ e& Q
ID                                       : 7
/ O4 K$ T9 Y; s; X( ]; F- `ID in the original source medium         : 4609 (0x1201), _+ ~  I/ j* \
Format                                   : PGS
! ?! [+ C2 x, q7 I; w* K7 JMuxing mode                              : zlib2 `$ q( \% R5 i$ t1 u- ~
Codec ID                                 : S_HDMV/PGS, N; f$ c, z* a! I8 q* L' s' H0 R( v
Codec ID/Info                            : Picture based subtitle format used on BDs/HD-DVDs6 K5 J9 S4 m2 B: L- x+ G
Duration                                 : 1 h 58 min
, V3 j# ]9 ~- H, ?5 {; rBit rate                                 : 38.2 kb/s3 [& c  u- v+ A, ~: M0 s7 j& z) b
Count of elements                        : 3210
. S$ M6 s' ]; S, @4 E" C3 ]Stream size                              : 32.4 MiB (0%)0 B9 {/ y" B1 y* A
Title                                    : English-FOR-RUSSIAN-PGS
; T% D4 W* `, ~  I/ k: tLanguage                                 : English
: H2 T& k1 a  b2 UDefault                                  : No
7 ]8 u$ C2 ~' x. E+ ~" FForced                                   : No
' X. A. y# v. \) hOriginal source medium                   : Blu-ray
2 I( A8 w6 u- h* l, i" A6 @$ \" J4 U7 w8 n8 H
Text #5
- I0 a2 ~5 `9 T# v, h: lID                                       : 8
$ p0 W7 s  Z7 p4 e9 [2 s6 ^ID in the original source medium         : 4610 (0x1202)
4 g4 ~$ g3 K* o! f( C4 OFormat                                   : PGS
% Z& M; ?8 R+ E% N) T* a% }" UMuxing mode                              : zlib
6 `: Q7 V, a' D2 NCodec ID                                 : S_HDMV/PGS, z0 }- q/ q7 J' G7 n' B
Codec ID/Info                            : Picture based subtitle format used on BDs/HD-DVDs7 U/ q" [) _6 P/ A. k
Duration                                 : 1 h 57 min: u# ~9 z6 _  A( L4 B& {
Bit rate                                 : 30.7 kb/s2 B7 ]0 x- X% ]4 J7 I' k
Count of elements                        : 26925 u% L9 }( j4 s
Stream size                              : 25.8 MiB (0%). [, y  c8 P; c- j1 i- J
Title                                    : English-PGS# p0 h: t8 |, b; [7 e
Language                                 : English
+ e1 X& f3 Q8 I1 {% B+ y: A/ n; k4 wDefault                                  : No( N9 O' y  R4 }* f
Forced                                   : No
4 D  e$ O8 g3 U/ j/ mOriginal source medium                   : Blu-ray3 a" t1 o% u3 X& Q
1 T7 z2 e# w; {6 \9 O. O$ t
Menu
+ B+ p. m" S3 {2 t0 l% Y5 N00:00:00.000                             : en:Chapter 01" X4 \7 _! r4 v5 S  o, I3 W1 S- v
00:07:12.515                             : en:Chapter 02
8 v- b; A. R$ l, E; |00:15:45.110                             : en:Chapter 03* @8 D# a9 w# h8 m4 f
00:22:50.369                             : en:Chapter 048 D2 b- I  e3 J6 T$ o
00:29:36.274                             : en:Chapter 05
$ M4 ~6 g* E; e2 y) Z00:38:16.585                             : en:Chapter 06
2 q8 z* I/ I6 m9 \) D8 c; |00:48:11.805                             : en:Chapter 07
8 r: W" v, z9 c+ {00:55:30.994                             : en:Chapter 08
. M3 }# h! X( `) k9 X6 c, Z$ `01:03:02.278                             : en:Chapter 090 @& |" _; f2 N
01:12:52.826                             : en:Chapter 10
5 z& d8 m6 k5 x, A01:19:55.832                             : en:Chapter 11) ]. |0 C* ?9 ?4 h! h$ n2 B7 o
01:28:00.066                             : en:Chapter 12
7 Z6 j" {( w$ o) O, h7 |: i# X01:36:07.845                             : en:Chapter 13, E2 @" [+ ^4 ?6 S
01:41:54.817                             : en:Chapter 14/ u; G* y, j* ]
01:51:54.749                             : en:Chapter 15  K: O3 l0 `* O7 @7 @. w
01:59:26.868                             : en:Chapter 16
" G, S8 H1 x* z& B6 ~7 D02:13:26.456                             : en:Chapter 17

8 o- [6 ?! F1 k5 z
游客,查看本帖隐藏内容请回复 | 加入VIP贵宾组可免积分免回复下载 立即了解 | 还不是会员:点击获取邀请码 Invitation Code

39

主题

1217

帖子

4338

积分

Sponsor

金币
231 枚
体力
1632 点
lanpanshuma 发表于 2020-7-17 22:44:41 | 显示全部楼层
啥也不说了,楼主就是给力!9 i% m5 n5 D6 b' c( l3 Z
Bluraycd.com movie updates really fast, also did not release issued, whether you believe it or not, anyway, I believed!
该会员没有 ...

560

主题

1817

帖子

1万

积分

VIP advanced

金币
1471 枚
体力
4122 点

公主勋章卓越贡献勋章

21cn 发表于 2020-7-18 05:19:20 | 显示全部楼层
Bluraycd又有新电影发布了,激动中……!. ~' G! I5 u( u
Blu-ray Film Forum is now my home!
; z7 P2 p1 h" S% ^7 l, [; s0 t4 p

2

主题

676

帖子

2907

积分

Sponsor

金币
597 枚
体力
1033 点
tto138 发表于 2020-7-21 20:16:38 | 显示全部楼层
啥也不说了,楼主就是给力!
! |# n1 I' m0 S3 m+ ~$ C3 I/ i至少是现在,我一天没有访问蓝光电影论坛就不爽!At least now, my day did not visit the Blu-ray Film Forum on unhappy!: R# ?/ ?# G( A

0

主题

90

帖子

565

积分

Sponsor

金币
0 枚
体力
379 点
zuiqingfeng 发表于 4 天前 | 显示全部楼层
这么好的帖子不回对不起自己!& c, Q, ]7 [. L/ Y: B0 v
Bluraycd.com movie updates really fast, also did not release issued, whether you believe it or not, anyway, I believed!

0

主题

335

帖子

1675

积分

Sponsor

金币
4 枚
体力
1034 点
QQ
七喜 发表于 昨天 21:53 | 显示全部楼层
每天都来蓝光论坛看看,我爱蓝光电影。9 R, k7 b! c3 `4 ?, A( h
Bluraycd.com movie updates really fast, also did not release issued, whether you believe it or not, anyway, I believed!

本版积分规则

小黑屋|Archiver|蓝光电影资源网

GMT+8, 2020-8-9 14:09

快速回复 返回顶部 返回列表