BluRayCD Forum

 找回密码
 立即注册【分享大片】

QQ登录

只需一步,快速开始

查看: 93|回复: 4
收起左侧

[蓝光原盘] 征途 [REMUX无损版] Warpath 2020 1080p BluRaycd REMUX AVC DTS-HD MA 5.1-FGT 21.10GB

[复制链接]

7839

主题

8033

帖子

6万

积分

Forum Moderator

金币
10755 枚
体力
9761 点

卓越贡献勋章

24小时 发表于 2020-7-26 21:51:12 | 显示全部楼层 |阅读模式
! B( l2 y# A0 a
& a! {; C2 d' g6 y
◎译  名 征途) G+ @  S* e: B$ l9 V1 Q+ d; P' }
◎片  名 Warpath8 V+ r' c( e* d. L/ e
◎年  代 20206 Z$ D% |6 x: b) Y
◎产  地 美国
) t* V) U. @; P' e9 F+ E2 g◎类  别 西部# E+ u; G/ r) _: j& `) w1 f9 `
◎语  言 英语
$ E0 f9 v1 U* r8 {* J◎上映日期 2020-06-23(美国)# z7 S& ?: |. [2 e
◎IMDb评分  3.2/10 from 53 users7 f( z5 U* m$ v3 \' \! c
◎IMDb链接  https://www.imdb.com/title/tt8676846/5 E, l( |3 [8 \* Q7 S4 J/ ]
◎豆瓣评分 0/10 from 0 users
) `& i4 q# @* z  }" R◎豆瓣链接 https://movie.douban.com/subject/35116834/! e  h1 R9 ~9 D4 p- \9 T  F& g
◎文件格式 x264 + DTS* G' D, P' }6 g6 ~/ H3 D
◎视频尺寸 1920 x 1080
) U* S( |0 n" b- Y+ U◎文件大小 1DVD 21.17 GiB
' E' g5 b( F3 R+ o# l◎片  长 1 h 29 min4 M/ Y$ K4 X+ f
◎导  演 Josh Becker# U4 @3 r9 S2 P) J$ ?
◎编  剧 Josh Becker* ]: p, b6 r' A7 Z6 w3 L- S3 {' x
◎主  演 索姆-马修斯 Thom Mathews/ Y5 w6 L9 p* @' _( C# U
       Andrew Dawe-Collins- |. b/ _. G. L: I
       Tyler Harding) |; K( ^7 G& N- j: J% P% a
       Sasha Higgins
1 v! o5 M4 V4 C" n       Matt Fling
$ {7 g0 L' x+ C3 K5 W: p       Joey Catalano
3 s0 n( c" K. L) S0 E       Aaron Matthew Atkisson
6 I. g. B) A. ^) N% i       William S. McIntire
' ^; U/ X7 C  m# {& O1 A  G& ^! y       Michael Haase
% ?* F' f: ]6 ~5 y9 o9 X       Sylwia Adamusik+ m4 f1 Q* C: q3 x; y* m) F' q
       Brian Kasgorgis6 J1 u7 A  F, y8 b- q$ m6 U
       Susan Reno. y, N, W/ }5 t/ a
       Tessa Hawkes) \4 Z. L8 {2 h4 z. F8 P8 w6 U# m- }
       Didrik Davis
8 C1 w: Q4 n* x       Shawn Jones
- x8 g# M' a/ l# v5 V9 H! m! u5 ?+ I& d7 n. q/ Z( u+ Z7 m
◎简  介  8 {4 Y( N" k6 f, T5 f9 J, i
7 W. C+ D5 N; v1 i; ^6 o  S
  爱丽丝和一个无情的赏金猎人一起向西旅行,寻找她失踪的丈夫。; b8 `, D: T* }% K5 D' `
  Alice travels west along with a ruthless bounty hunter in search of her lost husband.5 f  q/ J, i0 W$ h
Video0 }5 _0 z( w6 l) j. h7 m* w
ID                                       : 1
1 R, N6 |3 l6 |& G& i4 eID in the original source medium         : 4113 (0x1011)  A) ^4 {0 L" `0 p: l/ i) R; b7 s8 O
Format                                   : AVC
7 O8 q& J3 m6 h' d. ~" RFormat/Info                              : Advanced Video Codec: l4 u: J% X& t9 T% G& e  _- n
Format profile                           : High@L4.1
( i) J. a0 H1 i, S+ e  |4 f% dFormat settings                          : CABAC / 4 Ref Frames
# i' Y3 ?9 Q6 u: L6 YFormat settings, CABAC                   : Yes3 [9 p: }6 m6 `
Format settings, Reference frames        : 4 frames6 U0 Q5 o3 Q' d* ?3 E
Codec ID                                 : V_MPEG4/ISO/AVC. y+ c5 W$ a3 p9 }* W
Duration                                 : 1 h 29 min2 |2 Y$ @, v# S! V3 [
Bit rate mode                            : Variable
* t6 a  o& Z, k! e/ UBit rate                                 : 29.0 Mb/s
$ |6 `) H8 B1 m% y' _- LMaximum bit rate                         : 35.0 Mb/s7 h1 m% N: Q& Z8 Q" v1 j0 ^
Width                                    : 1 920 pixels
9 k" ~: c6 Y) q" s9 ^Height                                   : 1 080 pixels6 C0 b, j. r- ?6 E
Display aspect ratio                     : 16:9
% J; o/ i7 N8 o7 v7 PFrame rate mode                          : Constant
7 Z# M! C5 v4 V0 q2 cFrame rate                               : 23.976 (24000/1001/37687) FPS
) }5 z3 v# t; B0 b* H1 l! bColor space                              : YUV. T1 j  k- w5 A: Y& ]& v# T
Chroma subsampling                       : 4:2:0* r  \7 x5 }: S; Q* x7 p& e& j
Bit depth                                : 8 bits# l2 }& n+ K/ r( g+ L; j
Scan type                                : Progressive
9 i: F# g7 ^  V. @: o9 [Bits/(Pixel*Frame)                       : 0.584. t! B  O9 g# \
Stream size                              : 18.2 GiB (86%)) Y, y( ]0 _7 Z$ X
Title                                    : Warpath.2020.1080p.BluRayCD.REMUX.AVC.DTS-HD.MA.5.1-FGT$ G* C0 ?; l: X  G4 E
Language                                 : English
2 R! Y: e5 M& j2 `2 w- E7 J2 xDefault                                  : No
8 Z! [& q! h: T/ d: eForced                                   : No' d; j8 `: s( q! _% L) q
Color range                              : Limited
/ ^& e& R5 O8 ~, w/ e" X+ D5 q; y7 UColor primaries                          : BT.709
* @8 Z5 W7 |. s8 l* v5 H; C. U; @Transfer characteristics                 : BT.709
+ q* K6 a$ S: w+ L" k# ?Matrix coefficients                      : BT.7094 q4 Z, P' A: e" f( u8 ~+ {/ O) I% N
Original source medium                   : Blu-ray
8 B* g* `+ l- N5 w
! J4 y0 ^/ j3 wAudio! e! @$ J& r! X) b
ID                                       : 2+ V! J( S' ^3 c( Y, P+ ^
ID in the original source medium         : 4352 (0x1100)
* d" R# D% \3 fFormat                                   : DTS XLL9 L7 W4 v9 I9 t+ u) B2 w* y7 @' g
Format/Info                              : Digital Theater Systems; z6 B& o7 h, {9 T
Commercial name                          : DTS-HD Master Audio; ~. s/ \) o6 t& T2 N6 T. X
Codec ID                                 : A_DTS
' F' r# W% b/ v& S" \* {- pDuration                                 : 1 h 29 min% U& z3 G6 T8 a& K, A& C+ g
Bit rate mode                            : Variable
1 W* P; F- s& o& j) N! w* _2 wBit rate                                 : 4 740 kb/s) I  z; ]- _' @
Channel(s)                               : 6 channels
; s& O7 ?* ?  x5 o# O' F. JChannel layout                           : C L R Ls Rs LFE
3 }% D6 [6 O" eSampling rate                            : 48.0 kHz, u  T- F6 \" H$ R4 y2 l3 }/ {
Frame rate                               : 93.750 FPS (512 SPF)
0 U4 p7 J9 L* I  P) R9 _. VBit depth                                : 24 bits4 L! e6 z; c; |, Q: `) p
Compression mode                         : Lossless
8 n& g# F9 ]! l. K7 k" kStream size                              : 2.97 GiB (14%)
2 k! q% S" E* j& E7 [0 ZTitle                                    : Warpath.2020.1080p.BluRaycd.REMUX.AVC.DTS-HD.MA.5.1-FGT
8 j* m- i7 ?% C& c" L% u. [- {& jLanguage                                 : English
8 X2 V2 ?" g& A: V8 B1 cDefault                                  : Yes2 ]1 T, Q( O4 q7 J0 L! A* e9 g
Forced                                   : No# r% a& t# d1 ~- L( H5 d
Original source medium                   : Blu-ray1 q( \" {$ F/ p2 W" x

& f/ K5 `6 J' F- K" f" Y: yText #1
( @7 C; M$ }* M# G* j( J& l: `ID                                       : 3
# F! ?+ n/ |# ?0 hFormat                                   : UTF-8/ W  {2 j- t& @* y. F4 E; m
Codec ID                                 : S_TEXT/UTF8
: @9 F' C6 k& \( G( ~. ]% h. K$ Z: hCodec ID/Info                            : UTF-8 Plain Text
  l  `/ Y' T6 x& P2 g5 f1 n4 pDuration                                 : 1 h 23 min
' n* s7 [- q0 dBit rate                                 : 51 b/s' v& ~8 E0 b+ m2 H
Count of elements                        : 11051 }! ^  d; w0 U7 c3 ]* N' T
Stream size                              : 31.7 KiB (0%)! u/ u4 e( K9 A# Z+ {6 p" _- _
Title                                    : English-SRT  P8 K# H: @$ b" {) [! T
Language                                 : English: ^% L* w4 U+ Z6 y
Default                                  : Yes" Z5 @2 T- U# `% V! T% _( m
Forced                                   : No7 n% i- {) j2 d7 {# |( _: j2 m4 X
% g4 _( _7 z( M5 I
Text #27 D7 _* \* @. c' p+ _6 i
ID                                       : 4: W2 E% L$ i% E' C
ID in the original source medium         : 4608 (0x1200)# {9 N0 ~$ y# P6 [' P8 ]# Q
Format                                   : PGS
8 V1 u! U4 n' B% w, T  ^Muxing mode                              : zlib
, G& M' v# ^3 e# i: ^9 ACodec ID                                 : S_HDMV/PGS
" N, t9 U' r' S" U8 C) u* a1 _2 {Codec ID/Info                            : Picture based subtitle format used on BDs/HD-DVDs
3 E2 T# k5 K3 M3 J. KDuration                                 : 1 h 26 min; m* S7 n; p6 R5 ^: J
Bit rate                                 : 32.7 kb/s
0 ^, e) v2 K( |/ x( oCount of elements                        : 2574
5 m8 i" e! |2 B, G$ `. M* _Stream size                              : 20.2 MiB (0%)
8 _* V" H7 @% p( ITitle                                    : English-PGS. _: w( i9 w, k* E. Z
Language                                 : English
7 C6 [# a( Z* I; q4 M, kDefault                                  : No! ~5 R$ N& K4 M/ J1 |
Forced                                   : No$ \  J/ V. e& H2 |- _2 J
Original source medium                   : Blu-ray
! g5 v& f' R7 q- {  M8 a0 S: f: y* z+ Y0 l! z7 n: J
Menu
# Y% A) q5 o# R# z$ p00:00:00.000                             : en:Chapter 01( T; M5 x( \: L* F
00:10:06.480                             : en:Chapter 02
, d0 d5 H! {& N$ t2 R00:20:13.212                             : en:Chapter 037 E& ~! z2 V) |+ A% Y: y/ q
00:30:04.636                             : en:Chapter 04
7 z( F& }$ P# L8 O: z8 |00:39:42.213                             : en:Chapter 051 t9 C) K1 c4 C3 G4 @! Y- y
00:51:24.122                             : en:Chapter 060 p3 T5 x% j$ k) j1 a
01:01:25.973                             : en:Chapter 07# b' }/ t- Q; u1 L# l
01:11:22.069                             : en:Chapter 08
  ~  u) b9 `; C4 H: g01:21:45.984                             : en:Chapter 09
* _5 S1 h+ E. w+ `* L$ k# o& U01:25:11.689                             : en:Chapter 10

# R3 D( J6 h7 O; a( o
游客,查看本帖隐藏内容请回复 | 加入VIP贵宾组可免积分免回复下载 了解详情 | 还不是会员:点击获取邀请码 Invitation Code

67

主题

1708

帖子

6370

积分

Sponsor

金币
508 枚
体力
2353 点
lanpanshuma 发表于 2020-7-27 07:25:17 | 显示全部楼层
每天都来蓝光论坛看看,我爱蓝光电影。& _" {6 e* L; U- s3 E9 ]& z0 L
bluraycd forum, a lot of Blu-ray movies!
. I  @6 ~+ P, w% y. C- g
该会员没有 ...

0

主题

429

帖子

1748

积分

Sponsor

金币
3 枚
体力
908 点
QQ
neilwang1982 发表于 2020-7-31 20:27:21 | 显示全部楼层
感谢分享资源

0

主题

97

帖子

644

积分

Sponsor

金币
4 枚
体力
440 点
zuiqingfeng 发表于 2020-8-5 19:15:29 | 显示全部楼层
啥也不说了,楼主就是给力!
6 f& Z/ p1 ]" v( T祝愿蓝光社区越办越好!I wish Blu-ray communities better and better!
- m1 O6 S; R. }0 e* y; ]

21

主题

1393

帖子

7452

积分

Sponsor

金币
1016 枚
体力
3675 点
QQ
shiji1973 发表于 2020-8-21 09:38:20 | 显示全部楼层
感谢分享精彩电影

本版积分规则

小黑屋|Archiver|蓝光电影资源网

GMT+8, 2020-12-2 15:19

快速回复 返回顶部 返回列表