BluRayCD Forum

 找回密码
 立即注册【分享大片】

QQ登录

只需一步,快速开始

查看: 126|回复: 9
收起左侧

[蓝光原盘] 前哨/前哨基地 [REMUX无损版] The Outpost 2020 1080p BluRaycd REMUX AVC DTS-HD MA 5.1-FGT 29.95GB

[复制链接]

7777

主题

7971

帖子

6万

积分

Forum Moderator

金币
10563 枚
体力
9607 点

卓越贡献勋章

24小时 发表于 2020-8-16 20:31:06 | 显示全部楼层 |阅读模式
A small team of U.S. soldiers battle against hundreds of Taliban fighters in Afghanistan.0 g" @2 ^. \, q3 E
1 \5 Z. Y  I+ c4 y/ S, S" G

: v$ s- a) K' X" X- J/ I: n9 ~5 i, \. p9 X% E8 c
◎译  名 前哨/72小时前哨救援(台)/前哨基地
- n- u7 p2 K& d1 ]8 K/ v4 e: }◎片  名 The Outpost5 y7 q  [# |3 u5 o, O
◎年  代 2020
5 Z6 p/ P6 s) l◎产  地 保加利亚/美国, i1 M. l) W! M, D- c$ k
◎类  别 剧情/历史/战争& A2 h/ M& b8 ]) ]+ I- G
◎语  言 英语
# \" k0 d$ @* u& m; L& C" k! e◎上映日期 2020-07-03(美国)
% ^! s; S4 u4 \) _" ~5 x◎IMDb评分  6.7/10 from 8,400 users% @8 y% D- L! B4 g0 Y/ Q
◎IMDb链接  https://www.imdb.com/title/tt3833480/
# g# U4 ~  F- c* O5 X# q8 ]' i◎豆瓣评分 7.1/10 from 9,766 users
5 S' ^0 ~% Q% V. E$ T* c$ E6 J( t" `2 ~6 u◎豆瓣链接 https://movie.douban.com/subject/30212622/
+ O% h" i0 e: l) w7 p◎文件格式 x264 + DTS
! r! H% B$ s( ]. H4 r2 k◎视频尺寸 1920 x 1080* H1 P0 m# `3 L- }& n& M
◎文件大小 1DVD 29.95 GiB
( |. H/ A7 C8 O; m- x◎片  长 2 h 3 min
' v3 n* {- W0 U/ W! J# o  \◎导  演 罗德·拉里 Rod Lurie& B3 }# _* J7 b* `% y+ d
◎编  剧 埃瑞克·约翰逊 Eric Johnson
, d, m1 g4 l' I* B2 a- k7 m' o       保罗·塔马西 Paul Tamasy " e& z) y" H* ?8 m+ M
       杰克·塔伯 Jake Tapper
. q9 A! b2 h, x3 C# U/ [) c◎主  演 斯科特·伊斯特伍德 Scott Eastwood" f2 Y6 b4 w+ Y
       奥兰多·布鲁姆 Orlando Bloom& ^7 q+ U. \( F; {% X
       卡赖伯·兰德里·琼斯 Caleb Landry Jones7 K& O+ W7 B* K# X! [, w
       雅各布·西皮奥 Jacob Scipio/ D$ q9 T# t: n- h
       杰克·凯西 Jack Kesy
2 A- n4 E6 p3 P9 P- g       米洛·吉布森 Milo Gibson
! X* x5 A$ J6 W7 t6 \       阿历克斯·阿诺 Alexander Arnold# z8 e9 ?# ?) ^) t% ]# c2 f
       塞莱娜·辛顿 Celina Sinden
( N& f% O9 z# `7 n( g3 |. ]       泰勒·约翰·史密斯 Taylor John Smith
/ W$ _/ m* v% p' R$ X  k$ ~3 _       科里·哈德里克 Cory Hardrict4 Q1 v/ u: N* K
       巴比·洛克伍德 Bobby Lockwood
3 C- \2 n* \) x+ W       威尔·阿滕伯勒 Will Attenborough
% F( T$ L) w9 G' x5 V7 b       法希姆·法兹利 Fahim Fazli4 {; R. s7 q' T; d8 L2 }
       詹姆斯·贾格尔 James Jagger
+ }% P! w8 R  @       科瓦米·帕特森 Kwame Patterson
' ~  M1 f: [( N5 }5 h6 |) f       阿尔菲·斯图尔特 Alfie Stewart
; ?2 T8 w: V. B) ]2 V2 B% B1 H8 |* z" L
◎标  签 战争 | 阿富汗战争 | 真实事件改编 | 美国 | 2020 | 美国电影 | 电影 | 剧情
2 R. [; [) ?5 ~; g% ^, N# q4 U! Q9 h) i# K. J) ~& V7 I' M1 A9 S
◎简  介  / E' s# g0 A- [' L6 c" H. g

  G$ B9 U5 |2 B" _  斯科特·伊斯特伍德、卡赖伯·兰德里·琼斯、奥兰多·布鲁姆将主演Millennium Media打造的阿富汗战争题材影片[前哨](The Outpost,暂译)。罗德·拉里执导影片,影片则根据CNN记者Jake Tapper著作改编。影片故事将围绕53名美国士兵的真实故事展开,这些士兵与阿富汗东北部约400名敌方武装分子拉开持久的作战。他们所建造的前哨基地位于巴基斯坦边境仅14英里处的三处陡峭山脉底部。基地则面临塔利班恐怖分子的袭击。而驻扎在那里的士兵则面临着巨大威胁。片中斯科特·伊斯特伍德扮演克林特·罗马沙军士,卡赖伯·兰德里·琼斯扮演专业军士Ty Michael Carter,布鲁姆扮演的Benjamin D. Keating在阿富汗战争中不幸丧生。该片预计将在今年8月展开拍摄,影片也将在戛纳电影节寻找买家。9 O$ K) i2 f( B" m  a+ `

% a0 S; z* O5 f  A small team of U.S. soldiers battle against hundreds of Taliban fighters in Afghanistan.$ x: B  c- Q3 P) p* B
Video
, p6 j: M0 k  ^# YID                                       : 1  G. E0 Q6 F9 ?" y( }; t2 h$ L
ID in the original source medium         : 4113 (0x1011)( C+ i9 L, Y( v3 |# g  L* D; \
Format                                   : AVC
0 U& Y/ b8 x6 Q; u2 d5 X* d( D/ KFormat/Info                              : Advanced Video Codec
! f. J  v. z7 ?7 Z' X% c# VFormat profile                           : High@L4.13 A! E& g7 i+ R: @  o2 K
Format settings                          : CABAC / 4 Ref Frames
; c  P. d- m: q1 o0 V7 SFormat settings, CABAC                   : Yes
; o+ @1 \% ?6 H. V( QFormat settings, Reference frames        : 4 frames+ r: f4 g1 a0 T8 g( Q" [! ]4 G
Format settings, GOP                     : M=3, N=12
2 P. X0 F) U* VCodec ID                                 : V_MPEG4/ISO/AVC5 [! h' I8 d+ H4 }0 T: X/ G) ?
Duration                                 : 2 h 3 min
# Q! [0 v5 m9 O; TBit rate mode                            : Variable
- ^# d: W: D8 ?$ m  MBit rate                                 : 30.9 Mb/s5 g4 g: v. D# @# o. W
Maximum bit rate                         : 35.1 Mb/s
4 w) W8 W6 Z2 o' R. `8 Z; h4 Z' v" aWidth                                    : 1 920 pixels9 K9 ]) E& _; H4 u/ l
Height                                   : 1 080 pixels
4 x2 j- F* [0 KDisplay aspect ratio                     : 16:9
1 p4 M4 n) T* k! QFrame rate mode                          : Constant
( C8 I5 c8 g9 Z/ iFrame rate                               : 23.976 (24000/1001/37687) FPS, m! ?) U) y8 ?1 M
Standard                                 : NTSC4 L  u/ N. W2 _9 J
Color space                              : YUV
- L5 E( J7 {6 ^* L3 ^# e2 ^Chroma subsampling                       : 4:2:03 T, t1 e1 y0 g% c
Bit depth                                : 8 bits, x# A3 [) c- [( q& G
Scan type                                : Progressive
! x, h+ P# z; }' f# B& sBits/(Pixel*Frame)                       : 0.622; d- ]" h! ], Z: [" |+ ]
Stream size                              : 26.6 GiB (89%)
7 T7 F7 g/ g& Q8 v  \0 XTitle                                    : The.Outpost.2020.1080p.BluRayCD.REMUX.AVC.DTS-HD.MA.5.1-FGT& n& Z6 K; m. B0 j' F6 u: t, L
Language                                 : English
3 n. q3 K" s% J, QDefault                                  : No/ v* o" ~0 {% V9 w6 a! x/ ?0 n5 e- O
Forced                                   : No
6 U. k3 @0 y0 }& D, _+ nColor range                              : Limited
; ?5 L) w  e6 e  H7 s3 O. G' r: _$ n2 qColor primaries                          : BT.709
+ A7 G5 G+ Z( M+ xTransfer characteristics                 : BT.709+ B' ?! @1 `, A" N. t! n0 f
Matrix coefficients                      : BT.709, D; k+ y: l- B2 a1 d3 b6 D0 y
Original source medium                   : Blu-ray
- k0 e7 F  C2 z. q0 k/ ^# d: }0 M& p& t  m* Q: n& B2 y" T' r  s
Audio #10 \* b# R7 e5 `2 u; \# Z3 d0 f
ID                                       : 2- ~( }& N3 p0 N0 }7 H0 b
ID in the original source medium         : 4352 (0x1100)5 |% t; d3 @9 S5 j$ i
Format                                   : DTS XLL
  t" _* `2 v2 e, X6 nFormat/Info                              : Digital Theater Systems
4 s, S; n- O$ K5 S$ iCommercial name                          : DTS-HD Master Audio
$ A0 A# H5 j5 E( p, O, ICodec ID                                 : A_DTS! m& h& A; J2 `% v) Y
Duration                                 : 2 h 3 min: h, H* {" c1 g. P- C* L
Bit rate mode                            : Variable
, A$ x/ t0 }  E% O3 C' w7 a7 Y$ TBit rate                                 : 2 139 kb/s5 z; E- ?/ g. O9 f+ I
Channel(s)                               : 6 channels
3 W  m7 c5 Y5 B: Z  E9 N% N2 {! y/ YChannel layout                           : C L R Ls Rs LFE3 ^+ H* Q  G" @( J" D+ \" l( U
Sampling rate                            : 48.0 kHz1 ~8 h/ Y# A8 T  s; n/ m* O" Y
Frame rate                               : 93.750 FPS (512 SPF)* z+ L( G* S4 r3 W! b2 d
Bit depth                                : 16 bits, s, W9 q, `0 B" J4 D; [# S- `
Compression mode                         : Lossless
7 V1 l! v" S6 x8 C- b) f2 z' WStream size                              : 1.84 GiB (6%)0 v6 q# o& V0 ?# w; c: u
Title                                    : The.Outpost.2020.1080p.BluRaycd.REMUX.AVC.DTS-HD.MA.5.1-FGT. A1 w( W% k- p" c6 E4 Z/ y& E! M# j
Language                                 : English, ^* L; H( A3 z, [2 x
Default                                  : Yes: d, [% S7 Z" T9 }6 D+ N3 d
Forced                                   : No3 X1 X0 |" Z& Z# T1 e
Original source medium                   : Blu-ray* S7 n- |/ V; _7 J% X# [- y
# H% |2 d5 {% j9 g0 V2 `6 {
Audio #2
3 \( Z  b6 m, F% {$ sID                                       : 3
8 _* p, u+ N5 T& m2 T3 A# CID in the original source medium         : 4353 (0x1101)8 q, _  b. y/ ~* e# N
Format                                   : PCM/ W) d, z, A3 T6 E
Format settings                          : Little / Signed
5 ?; Q! V+ ~+ s* iCodec ID                                 : A_PCM/INT/LIT
, l+ q" q, o+ k# J+ s# d' uDuration                                 : 2 h 3 min5 X' S4 X' [$ z- C. w' B8 F# W
Bit rate mode                            : Constant$ H2 Q* `6 d  e! c4 J, ]2 f* R3 L
Bit rate                                 : 1 536 kb/s
& U7 T( n% d2 I3 t0 I1 nChannel(s)                               : 2 channels6 X3 d  H8 ^5 h
Sampling rate                            : 48.0 kHz$ W- A- ^9 g+ e$ ?8 w
Frame rate                               : 30.000 FPS (1600 SPF)
. A0 }0 c1 D1 Z" Y: g+ hBit depth                                : 16 bits' t5 z8 ]# K$ G, H( J$ _
Stream size                              : 1.32 GiB (4%)3 Q& d7 w% f& W7 W2 Y8 J& F1 p
Title                                    : The.Outpost.2020.1080p.BluRaycd.REMUX.AVC.DTS-HD.MA.5.1-FGT6 T6 v' X5 y" z3 G
Language                                 : English9 j3 W: Y* P/ ~# R9 a
Default                                  : No
2 s2 A* `- {4 i$ gForced                                   : No. @& ]$ S7 J& H7 `% y
Original source medium                   : Blu-ray
( t) d4 K5 ?+ s, R. ]/ Z1 j- f6 u  D8 \9 S+ R; S0 f
Audio #3# Y8 e; C; I* }1 n* w# a3 F
ID                                       : 47 D$ c' c) K) Q9 v, ^; j
ID in the original source medium         : 4354 (0x1102)
7 K+ H+ W8 O4 W" t, JFormat                                   : AC-3. ~4 P8 h% i' p7 p* E9 V) _# f
Format/Info                              : Audio Coding 3
8 H) E2 o3 X9 j4 H, q) ^Commercial name                          : Dolby Digital
" w$ N# N. a" b4 n5 tCodec ID                                 : A_AC3) N; D2 g1 Q6 i5 k% p# c, \
Duration                                 : 2 h 3 min1 V. @3 q& I0 {4 h4 @
Bit rate mode                            : Constant- [( s4 V) l+ ]
Bit rate                                 : 192 kb/s
' L: J( h- x0 G* j, g8 |Channel(s)                               : 2 channels
8 m0 Y5 T4 t9 z1 z2 O% B1 d2 [4 v: qChannel layout                           : L R. K# f* T6 ^7 ]. v9 ]6 k
Sampling rate                            : 48.0 kHz# K% Q  Q5 C- l% e8 F1 B
Frame rate                               : 31.250 FPS (1536 SPF)+ D! U3 R. e3 Z% x1 |, }
Bit depth                                : 16 bits% e8 q( ]& b  N) Z) P$ Z# E
Compression mode                         : Lossy
4 Q: y* S- k, W+ W1 `Stream size                              : 169 MiB (1%)
, `; Z8 m+ K( r5 g( ^  mTitle                                    : The.Outpost.2020.1080p.BluRaycd.REMUX.AVC.DTS-HD.MA.5.1-FGT. c2 G2 |, Q7 a+ N! V6 t. V
Language                                 : English
1 q& L. B' e/ i6 ^  R3 `3 dService kind                             : Complete Main
4 Y, K7 R4 V0 g0 M, ~" D9 ODefault                                  : No. z, ]$ I% i( P! D  H, a: ~% E
Forced                                   : No
. X$ P4 b) i' T5 m, pOriginal source medium                   : Blu-ray
' j6 O! X! G+ y) D( I- |4 H
% u; R7 Y8 c' q: C+ TText #1
' C7 u; e; G' |9 H/ m2 u2 j8 {ID                                       : 5
1 R1 Q6 ^  B2 L. T0 Z- lFormat                                   : UTF-8
# v1 i% g7 G: L1 J% o% J" R6 zCodec ID                                 : S_TEXT/UTF8/ a/ n0 W! b* j8 b) \5 U+ Z7 Y
Codec ID/Info                            : UTF-8 Plain Text
# G7 C4 e7 }. E% xDuration                                 : 2 h 1 min- r/ R% l) Z- k0 k
Bit rate                                 : 78 b/s; A% }6 W& k) R9 O1 d- D  _
Count of elements                        : 28050 f! a" [2 Z7 i- K) R) g7 q! B
Stream size                              : 69.8 KiB (0%)
+ |4 O7 k, H, J' L- GTitle                                    : English-SRT7 A6 P  m% R( N) x1 R
Language                                 : English
) _6 [' F) X1 t0 g+ H( _9 bDefault                                  : Yes! ?1 s% h9 h$ `9 L7 l
Forced                                   : No
- B. e% \) N; l0 Z3 G1 e+ n% j: w0 i: o% c: }" U* h" ]4 V
Text #2! N' ^; Y' ^8 s4 l  m! X  `  k
ID                                       : 6  ^- x; z7 }7 x2 Y( F" P( A% ~) f
ID in the original source medium         : 4608 (0x1200)( R+ x$ ]" o( e
Format                                   : PGS
+ W- l! q3 N1 R0 mMuxing mode                              : zlib
0 w/ P/ ], v  f3 h; A9 L: M) ]Codec ID                                 : S_HDMV/PGS
' _' J% q3 a! Q, MCodec ID/Info                            : Picture based subtitle format used on BDs/HD-DVDs
! Y/ T- {+ m9 u5 q3 |Duration                                 : 2 h 1 min
2 {2 e. ^: u% w3 I3 |. H% I% \. a* i. sBit rate                                 : 31.7 kb/s/ U9 w& c8 u- r8 m) V- X
Count of elements                        : 3362. `5 ^. k$ b6 y  ?
Stream size                              : 27.7 MiB (0%)
( _: |; I; s$ N2 z# t. U; L' l# BTitle                                    : English-PGS
% I/ `  {9 b$ W  K) \2 m2 aLanguage                                 : English
3 s# q' w, L% K% p& @! K! xDefault                                  : No
) v3 t. x  q+ b' W% [  f! M' N' aForced                                   : No
2 P, R2 s0 ^; COriginal source medium                   : Blu-ray# [9 S6 Q7 _* }7 P0 O7 n3 V

! H# N' F2 K6 `5 \" m9 h  OMenu
8 U' \+ o  X# Y" I$ L  _- E00:00:00.000                             : en:Chapter 01
0 i, V- s0 y3 D) L3 K% Q00:10:37.553                             : en:Chapter 02
9 v" p* K1 L# y3 {2 }# e) w' J00:15:19.043                             : en:Chapter 03% N" F6 Q% Q8 s9 Q
00:24:02.607                             : en:Chapter 042 y7 v* z. z6 O' A* Y$ R' t& T
00:32:55.181                             : en:Chapter 05* [  {5 [4 F+ }6 L6 i% Y% e
00:41:55.888                             : en:Chapter 06
( ?0 B( R; q' X/ }# P00:47:04.071                             : en:Chapter 07
: N4 h' {( o; f; |# h8 T- i00:55:30.869                             : en:Chapter 08
* W8 _8 I) f# V( R3 T+ V: }$ D01:03:51.369                             : en:Chapter 09$ a- D' D" x+ k) ^
01:12:43.859                             : en:Chapter 103 s' b. k/ q2 |0 o
01:19:51.411                             : en:Chapter 116 E6 u" g& c6 q" _' Y8 [
01:29:15.016                             : en:Chapter 12, _" b; R6 z& j7 e% G$ {  O$ P- N
01:35:39.400                             : en:Chapter 13
9 {) J3 @3 u5 e01:42:09.998                             : en:Chapter 148 \5 r6 v$ H  Q- I
01:45:05.924                             : en:Chapter 15
: V% Y5 D4 B6 U& x0 e& a8 d01:54:08.383                             : en:Chapter 16
% c- p4 ~+ N; a& b/ |. R! I
游客,查看本帖隐藏内容请回复 | 加入VIP贵宾组可免积分免回复下载 了解详情 | 还不是会员:点击获取邀请码 Invitation Code

64

主题

1499

帖子

5461

积分

Sponsor

金币
300 枚
体力
2071 点
lanpanshuma 发表于 2020-8-17 09:59:00 | 显示全部楼层
Bluraycd又有新电影发布了,激动中……!
) c) M- C7 ?  {1 V0 z4 }& PI love your Blu-ray movies Forum!8 v6 R# n. e/ }/ b" l: K  [
该会员没有 ...

601

主题

1995

帖子

1万

积分

VIP advanced

金币
1747 枚
体力
4542 点

公主勋章卓越贡献勋章

21cn 发表于 2020-8-17 18:57:46 | 显示全部楼层
啥也不说了,楼主就是给力!  T7 X) V6 {: C1 k3 K8 ~) k* q4 C5 W
Bluraycd.com movie updates really fast, also did not release issued, whether you believe it or not, anyway, I believed!

0

主题

92

帖子

609

积分

Sponsor

金币
2 枚
体力
417 点
zuiqingfeng 发表于 2020-8-25 19:57:34 | 显示全部楼层
啥也不说了,楼主就是给力!* `3 a( o9 t  B/ [0 y
Not see, I am a novice, the inadequacies of the first Please bear with me!
* F0 w$ m4 p: P  }

12

主题

188

帖子

958

积分

Sponsor

金币
75 枚
体力
449 点
wyyo 发表于 2020-8-31 08:41:46 | 显示全部楼层
膜拜神人,后来者请保持队列……!
3 M1 g- J, U9 A1 H0 h9 s4 C3 d' s% cBlu-ray Film Forum: I will always support you!9 i2 a! A2 d+ p

0

主题

191

帖子

644

积分

Sponsor

金币
25 枚
体力
281 点
060701300 发表于 2020-9-5 11:36:58 | 显示全部楼层
谢谢楼主分享

0

主题

191

帖子

644

积分

Sponsor

金币
25 枚
体力
281 点
060701300 发表于 2020-9-5 11:38:35 | 显示全部楼层
谢谢楼主分享

0

主题

488

帖子

2252

积分

Sponsor

金币
4 枚
体力
1305 点
QQ
七喜 发表于 2020-9-13 00:31:07 | 显示全部楼层
楼主发贴辛苦了,I*老*虎*U!
2 }* C7 j# u9 g+ C8 E& N  c要想蓝光电影论坛发展好,资源多,就靠你我他!To the development of Blu-ray movies forum, resources and more depend on you and me!' |: {) d$ E- G! B  c! ^7 {

0

主题

366

帖子

1881

积分

Sponsor

金币
20 枚
体力
1187 点
QQ
sunday_119 发表于 2020-9-19 18:29:03 | 显示全部楼层
每天都来蓝光论坛看看,我爱蓝光电影。
7 Y; K& o3 c- y3 XBluraycd.com movie updates really fast, also did not release issued, whether you believe it or not, anyway, I believed!

本版积分规则

小黑屋|Archiver|蓝光电影资源网

GMT+8, 2020-10-26 15:14

快速回复 返回顶部 返回列表