BluRayCD Forum

 找回密码
 立即注册【分享大片】

QQ登录

只需一步,快速开始

查看: 58|回复: 2
收起左侧

[蓝光原盘] 史泰登岛国王 [REMUX无损版] The King of Staten Island 2020 1080p BluRaycd REMUX AVC DTS-HD MA TrueHD 7.1 Atmos-FGT 37.48GB

[复制链接]

7746

主题

7940

帖子

6万

积分

Forum Moderator

金币
10463 枚
体力
9527 点

卓越贡献勋章

24小时 发表于 2020-8-19 22:25:38 | 显示全部楼层 |阅读模式
A semi-autobiographical comedy-drama about Pete Davidson growing up in Staten Island, including losing his father during 9/11 and entering the world of stand up comedy.3 p, F+ e( x! t7 }9 J9 K* j6 j' Q
" [" U. B( m( a+ ~2 D
01.jpg
, p* c: S! q- ^% _- X& a. K& D) ]9 h- ]% U/ r0 U
◎译  名 史泰登岛国王/史丹顿岛之王
8 h0 }- T$ B$ f0 s  h◎片  名 The King of Staten Island / Staten Island
4 B. E% f  A, S9 o- ]% ^- U8 k6 g+ {◎年  代 2020+ Y: g; K+ r8 M/ `8 f, a; \6 B
◎产  地 美国
. Z, z; c& b# j& R9 W◎类  别 剧情/喜剧. b& |! w; i# X1 a  K" f
◎语  言 英语8 Q+ k6 _! X4 q3 R' c+ i
◎上映日期 2020-06-12(美国)
( l0 N8 V: q% G* Q◎IMDb评分  7.1/10 from 19,373 users9 {7 b7 b5 Q9 k. d: e
◎IMDb链接  https://www.imdb.com/title/tt9686708/
: y0 Z, O, Y4 F+ `◎豆瓣评分 7.2/10 from 491 users& c0 M. m6 C: R2 j. g0 h. D
◎豆瓣链接 https://movie.douban.com/subject/33451531/
7 }( ~, P4 _9 p8 W◎文件格式 x264 + DTS + TrueHD $ Y6 n1 W& m4 U& k' L
◎视频尺寸 1920 x 1080! L$ ]5 @8 s% o' G7 }4 o  s$ E
◎文件大小 1DVD 37.48 GiB
8 Z: H: v9 [! u' ^5 J' `0 A◎片  长 2 h 17 min3 T9 h, Q" [' h' x
◎导  演 贾德·阿帕图 Judd Apatow
& `3 g0 r4 s  n+ ]' Y◎编  剧 贾德·阿帕图 Judd Apatow  \. S; i( `1 w  C* u% Y
       皮特·戴维森 Pete Davidson
3 ]# W' P) Y  q  f9 J( W# e+ l4 x       戴夫·西鲁斯 Dave Sirus/ K) k* M4 e, }6 V1 B9 i
◎主  演 皮特·戴维森 Pete Davidson
/ [3 @! ?2 Q. a; P7 S  F0 j* P       玛丽莎·托梅 Marisa Tomei: p4 E/ R) s" V6 {, F9 V# I& Q
       帕梅拉·阿德龙 Pamela Adlon9 \. N  L& ]5 U8 O3 T  O2 M
       机关枪凯利 Machine Gun Kelly( |  o5 q3 o4 G: P  r1 s. d
       蓓尔·波利 Bel Powley
+ Y3 U. Q% _" L& W: R1 a& S       茉德·阿帕图 Maude Apatow8 h2 ^# t/ I  E) N2 M
       莫伊塞斯·阿里亚斯 Moises Arias
7 t' c% e, O1 |. u! o& l       宝琳·查拉梅 Pauline Chalamet& I* Q& L- g1 d& o* R: n& [& f
       琳恩·科普利兹 Lynne Koplitz
; ^! I- k; i, Z9 k9 X       约瑟夫·保罗·肯尼迪 Joseph Paul Kennedy
, j) A0 b. P' s/ x2 z6 j       妮娜·赫尔曼 Nina Hellman" c5 |5 c/ ?1 C' d2 O" v" _* B0 P7 `. g
       杰克·汉布林 Jack Hamblin
4 ]: o0 v4 Q; @4 D* C       凯文·考利甘 Kevin Corrigan
) I7 _* n& N, l4 k& c       卢克·大卫·布鲁姆 Luke David Blumm' g' P6 E5 `. z, f$ \& K- v& m
       比尔·伯尔 Bill Burr
/ i! }# v7 R, P       德里克·盖恩斯 Derek Gaines
8 F1 z/ T' [# n6 n4 S+ C       Rich Vos
! z, }1 s5 [: {: V% P       史蒂夫·布西密 Steve Buscemi7 t5 [* ~4 Y6 G
       吉米·塔特罗 Jimmy Tatro: Y9 a7 v* ~; `1 s3 p2 G  M6 n
       亚历克西斯·蕾·佛伦哲 Alexis Rae Forlenza- ]6 b. t* k1 S0 O. U7 k
       多米尼克·隆巴多兹 Domenick Lombardozzi6 ?; J( }# e5 k$ n; s5 M9 F
       拉斐尔·普里埃 Rafael Poueriet9 S2 N. \3 n6 E( @1 W" w: D- a' f
       帕梅拉·阿德龙 Pamela Adlon+ u/ ^* b, v$ A  B4 W# Y
       卢·威尔逊 Lou Wilson/ ]/ o; ^* M& Z8 ^/ ^+ s5 u8 r* R
       吉米·帕伦博 Jimmy Palumbo( e8 S5 @% N3 n
       加里·古尔曼 Gary Gulman
5 X) o0 S, g$ `' q+ ]/ }: G5 f       安东尼·李·梅迪纳 Anthony Lee Medina7 ?! L2 W3 r' G, ?& R
       亚历山大·詹姆森 Alexander Jameson
! Z/ l4 d8 e. o. m       Paul Virzi
; j1 `2 ~- r# Q- y       瑞娜·郑 Raina Cheng  n: d; ~1 h+ e1 J
       拉斐尔·普里埃 Rafael Poueriet
1 `7 T! B% A( Z% d/ [  i+ N       列尼斯·德洛桑托斯 Leonys Delossantos
1 B# _% A( j+ }$ W5 j6 X( i: y# E( m
◎简  介  
8 N, U7 |2 o( a9 ?5 [$ Y3 k5 S! x7 U; P% T, f
  剧情灵感来自戴维森的真实生活,包括他那在911事件中去世的消防员父亲。主角为二十多岁的男子Scott,他跟妈妈住一起,梦想是当纹身师,但每天除了吸麻和朋友鬼混、暗暗勾搭青梅竹马之外无所事事。而妈妈找的新男友却引发了一系列事件,迫使开始Scott正视自己的人生。! u; c* W0 n+ ]
7 V& G# G# `* q: U! `1 Q8 t' j. s# I- U
  Scott has been a case of arrested development since his firefighter dad died. He spends his days smoking weed and dreaming of being a tattoo artist until events force him to grapple with his grief and take his first steps forward in life.9 v$ r# ~% G1 H4 b+ u% s$ i
Video( ]; f+ R& E2 k, B8 t( r
ID                                       : 1
" |1 n, W. l7 Z- J  C% DID in the original source medium         : 4113 (0x1011)
* x: Y: S- X. w5 [Format                                   : AVC' a9 g& G' G6 V/ m, O* I
Format/Info                              : Advanced Video Codec5 }, E0 g+ g4 u, p
Format profile                           : High@L4.1
' A! F' x$ x7 k% B$ GFormat settings                          : CABAC / 4 Ref Frames* q2 P% P! C6 r7 c" }" K1 T
Format settings, CABAC                   : Yes+ H8 Z: S9 Z* d+ E+ T7 i5 r
Format settings, Reference frames        : 4 frames# n5 D  v2 h4 _* @% @0 p
Codec ID                                 : V_MPEG4/ISO/AVC, ?2 K* l/ Z% \2 g1 e  p
Duration                                 : 2 h 17 min
# ^) m# p9 Y4 M- R# B9 L5 LBit rate mode                            : Variable. A, ?  C4 ], W4 D
Bit rate                                 : 30.6 Mb/s
1 G& r$ V5 m# {9 n0 iMaximum bit rate                         : 37.4 Mb/s* D' V; ~4 J1 u2 L  T4 Z0 _6 n
Width                                    : 1 920 pixels
6 W  g: H0 f! y  ]Height                                   : 1 080 pixels
( v6 k$ y/ p4 K- p- w( B* H# X: {9 }Display aspect ratio                     : 16:93 ?3 B  y, B7 s0 x& |9 F  U
Frame rate mode                          : Constant! Z$ H0 s6 R0 s% K" g$ ^5 E
Frame rate                               : 23.976 (24000/1001/37687) FPS6 |  i; c2 a# @
Color space                              : YUV
. i: [% K" E, gChroma subsampling                       : 4:2:01 @; P; g7 D& r" Q
Bit depth                                : 8 bits
+ }4 M8 A  ]: B; o6 Y: V5 xScan type                                : Progressive
( e7 e8 ~9 p" \% t0 l/ HBits/(Pixel*Frame)                       : 0.616. X1 R; |2 v$ g; V2 v
Stream size                              : 29.4 GiB (78%)
; e' M) @! k8 H3 ~Title                                    : The.King.of.Staten.Island.2020.1080p.BluRayCD.REMUX.AVC.DTS-HD.MA.TrueHD.7.1.Atmos-FGT" t) p3 i& r- Z1 s& }) N
Language                                 : English
" }$ P9 r2 D9 o4 [/ Y; o0 mDefault                                  : No
8 {1 B' o+ f' `% c, _& m/ @; LForced                                   : No
$ t5 d% N( [& _# KOriginal source medium                   : Blu-ray: B8 ~! o# I3 k; G2 q

4 s2 R% N1 p* u6 s2 a! j- PAudio #1
: Z' y* ?3 }) {9 L/ IID                                       : 2
" ~- S# ]( l+ |+ bID in the original source medium         : 4352 (0x1100)
" G1 v1 m) M5 c, jFormat                                   : MLP FBA 16-ch# z, L( c6 B3 S, r3 o* s
Format/Info                              : Meridian Lossless Packing FBA with 16-channel presentation
  H( _9 ^* F' ?+ m1 X; nCommercial name                          : Dolby TrueHD with Dolby Atmos  R2 A4 o# i9 P* F. {2 v
Codec ID                                 : A_TRUEHD
  d8 B" p1 a+ y1 mDuration                                 : 2 h 17 min
1 n2 ]3 W  x% f8 O) C1 qBit rate mode                            : Variable/ X7 c  C5 d4 c' w
Bit rate                                 : 3 558 kb/s
, ~1 H, _5 h! H" jMaximum bit rate                         : 6 633 kb/s0 y+ K6 `" l2 J- d' m& V
Channel(s)                               : 8 channels7 G6 J+ L, B! W; B) f/ C
Channel layout                           : L R C LFE Ls Rs Lb Rb7 k. F/ J+ t. e2 v0 J* ~
Sampling rate                            : 48.0 kHz
/ L; W# L7 g' e5 B' V! v9 i8 aFrame rate                               : 1 200.000 FPS (40 SPF)3 ]$ D7 f0 D3 N9 m4 K2 r
Compression mode                         : Lossless* D+ E! u3 ~4 |
Stream size                              : 3.41 GiB (9%)
4 ]& {% [  D) t6 iTitle                                    : The.King.of.Staten.Island.2020.1080p.BluRaycd.REMUX.AVC.DTS-HD.MA.TrueHD.7.1.Atmos-FGT
& u& X/ x" h/ o' q: N) q7 HLanguage                                 : English0 u" a& O# X& x9 G3 h) s$ U3 B' z
Default                                  : Yes) J; p0 k$ c! C) f
Forced                                   : No
" g  p( T1 f! S. }  T+ ]- eOriginal source medium                   : Blu-ray
2 E0 V7 t1 m: TNumber of dynamic objects                : 116 {/ O8 I5 b1 b
Bed channel count                        : 1 channel0 K& b. c2 c% ]2 D9 z( l1 n
Bed channel configuration                : LFE/ f) P% z3 O* @1 V  N! X3 R

& U4 i: g; }$ h8 }( r/ b! r, {Audio #2
$ w; s( u* Y5 X  f& c8 c# xID                                       : 3
" L  l$ f5 ~( f) s/ JFormat                                   : DTS XLL
: T! Y1 h) N0 E! e# fFormat/Info                              : Digital Theater Systems
; g) z% S' n$ p& O, G8 d1 tCommercial name                          : DTS-HD Master Audio
" J1 Q3 B. q1 q$ o; e/ UCodec ID                                 : A_DTS! ^0 b- z. _! \6 ^  u  f; Z% s2 A
Duration                                 : 2 h 17 min
# t) T' P" _9 O/ M2 C; d. wBit rate mode                            : Variable2 m% N$ \4 R- S9 D" o- n9 E
Bit rate                                 : 3 888 kb/s0 |5 c5 J3 a+ F& d  _) Z" K
Channel(s)                               : 8 channels
, G1 S8 r$ P, B: E1 W2 J% h6 X& gChannel layout                           : C L R LFE Lb Rb Lss Rss6 w: {5 j, G( P
Sampling rate                            : 48.0 kHz  s( m' i" r" w- `; h4 F
Frame rate                               : 93.750 FPS (512 SPF)9 U/ s$ m# u( B
Bit depth                                : 24 bits( C( A8 @+ s3 f6 G% ?
Compression mode                         : Lossless
: ]- X  [! b0 a/ L. UStream size                              : 3.73 GiB (10%)
- E& [. ~( @1 y3 ]! q8 f  PTitle                                    : The.King.of.Staten.Island.2020.1080p.BluRaycd.REMUX.AVC.DTS-HD.MA.TrueHD.7.1.Atmos-FGT/ k0 o6 Q! d8 g5 ~
Language                                 : English
+ g% M' b0 Y# `  _$ v7 @1 f# N' y: aDefault                                  : No, ~6 r; e/ O# s) n
Forced                                   : No9 p- w7 i1 Y6 P; v

0 g7 d" V$ o; N2 Q$ r( q, b- ~+ `Audio #3( e0 K3 e" k2 T" g' l
ID                                       : 4# J' ?  T9 l0 q4 p8 E* `7 V/ A
ID in the original source medium         : 4352 (0x1100)
1 W! `6 ]  n3 o2 J4 @1 A4 sFormat                                   : AC-3
, H3 }  f5 m3 O/ ]+ IFormat/Info                              : Audio Coding 3
2 J) z" H3 q2 B: }+ @, tCommercial name                          : Dolby Digital
- j8 `9 ~% m) @Codec ID                                 : A_AC3
5 V% s0 z6 N- q) H3 p- o. B" eDuration                                 : 2 h 17 min
8 W) g) R* K! JBit rate mode                            : Constant
& s, Z& o: D: uBit rate                                 : 448 kb/s
6 P6 H5 C- P& w. ]1 EChannel(s)                               : 6 channels  }, F5 x/ A# g% A1 g
Channel layout                           : L R C LFE Ls Rs
! p! b6 Z& |2 Y  SSampling rate                            : 48.0 kHz
" z) B6 t( v6 m' K# r7 {Frame rate                               : 31.250 FPS (1536 SPF)& k% U# h& j8 b: E7 r4 x, h6 q  \5 H
Compression mode                         : Lossy% m. k3 U& Q3 s5 U" ^4 x9 h+ j
Stream size                              : 440 MiB (1%)+ P5 a1 n' H: r- q) C
Title                                    : The.King.of.Staten.Island.2020.1080p.BluRaycd.REMUX.AVC.DTS-HD.MA.TrueHD.7.1.Atmos-FGT* O) [5 z+ V- C
Language                                 : English
5 M* g/ b4 D5 s4 yService kind                             : Complete Main. b" `2 Q5 e, E& A9 o+ `
Default                                  : No
* X# ~& M) Y3 x/ U# ~6 bForced                                   : No
; D  Z8 T9 n+ P2 K& \- Z" t5 `- SOriginal source medium                   : Blu-ray% l, q$ {& O4 W0 w, {# A1 B, n

3 o: k9 N6 m' `$ I& C( O/ Y3 D+ lAudio #4( I1 @4 j7 C6 K6 s
ID                                       : 5. }; v( C1 e* @) h5 U
ID in the original source medium         : 4353 (0x1101)
4 l; K7 p5 }( y) C" a1 ]/ |" }) XFormat                                   : AC-3
) K7 x4 T  C) d+ g8 l" g1 t4 [, hFormat/Info                              : Audio Coding 3, B6 J) {9 z' U- z' \' z
Commercial name                          : Dolby Digital5 P4 b0 b; j' u% F8 f" U% z
Codec ID                                 : A_AC3
7 q* P8 V9 `7 [Duration                                 : 2 h 17 min, i/ {+ g. g" H
Bit rate mode                            : Constant
5 V7 G7 g  p) G. r# B3 d3 kBit rate                                 : 192 kb/s4 `, e2 \1 v: {
Channel(s)                               : 2 channels  Q7 f& z9 ~; e6 x, p5 _, R( A* E
Channel layout                           : L R) U+ w( s0 _2 O" g, n2 C0 |
Sampling rate                            : 48.0 kHz# n5 z9 ?9 v+ O
Frame rate                               : 31.250 FPS (1536 SPF): \; A! F' n, N6 `7 ?! t9 t1 `
Compression mode                         : Lossy! V$ m6 l( b! @
Stream size                              : 188 MiB (0%)
. k8 `* F% L- N* O! VTitle                                    : The.King.of.Staten.Island.2020.1080p.BluRaycd.REMUX.AVC.DTS-HD.MA.TrueHD.7.1.Atmos-FGT# h& m! m/ x/ J' F7 p
Language                                 : English1 Q5 L0 R# g  ~4 y  f
Service kind                             : Complete Main3 [( R; M. m% J$ X! B
Default                                  : No! K2 G' O4 V" E. S: T
Forced                                   : No
7 u! c, A* o2 ?4 ?; r0 fOriginal source medium                   : Blu-ray
. O0 g9 [) j& F' E3 `  s: q$ ~1 I$ `) C
Audio #5
! {+ h! ~* b" XID                                       : 6/ t+ H" p4 ^8 g  p3 y  P
ID in the original source medium         : 4354 (0x1102), \- U! C) R( Q0 j8 g/ ?# t8 C
Format                                   : AC-3
) p9 q  m0 v! A1 SFormat/Info                              : Audio Coding 3: V( \9 y* K1 D
Commercial name                          : Dolby Digital! c6 I. U2 T5 e# r2 g/ D; y, P7 n
Codec ID                                 : A_AC3
0 _4 N- ]& W& ADuration                                 : 2 h 17 min
7 L: t0 L9 Z" e! HBit rate mode                            : Constant
- A, g1 i# {. c9 @# Q2 H, @5 tBit rate                                 : 192 kb/s" k9 a. a4 X* l9 K2 b! d+ r
Channel(s)                               : 2 channels
# }8 l# u+ L4 m" h, |Channel layout                           : L R+ @( o6 R, J) D. o
Sampling rate                            : 48.0 kHz
: s( P1 g9 W" I! GFrame rate                               : 31.250 FPS (1536 SPF)
, `2 x0 P  C/ uCompression mode                         : Lossy
( X6 E/ H3 O# T9 T8 ?- Q' _Stream size                              : 188 MiB (0%)
% m* X# e- Q/ S! Y( DTitle                                    : The.King.of.Staten.Island.2020.1080p.BluRaycd.REMUX.AVC.DTS-HD.MA.TrueHD.7.1.Atmos-FGT/ B% @- Y7 P5 x- R
Language                                 : English5 r6 z( A  ?* U3 t
Service kind                             : Complete Main
' e9 h' w% u% h! H" R7 rDefault                                  : No- C% W; w% x- W# {3 X! I
Forced                                   : No
5 z3 z. y. |  f4 ?  o% h) |1 yOriginal source medium                   : Blu-ray" Y! P$ R. v# o1 c1 q
$ C9 C: i( ]4 {& C1 {
Text #11 g8 v6 }0 w$ c, \3 h1 @% i
ID                                       : 73 `' H: p$ U0 c& A- m6 n8 H
Format                                   : UTF-8# A' k$ k& |" ^* W  D  B
Codec ID                                 : S_TEXT/UTF8
! \! C% `: W$ T: w5 gCodec ID/Info                            : UTF-8 Plain Text) w$ [0 R9 a6 [9 N# S/ Y+ M& q$ {5 O
Duration                                 : 2 h 10 min1 F7 c4 L9 K- H7 G0 X: y, x
Bit rate                                 : 106 b/s$ Q$ {; v" u/ F0 V1 [3 K
Count of elements                        : 2701
: s$ c! w1 `1 R7 tStream size                              : 102 KiB (0%)
" T  S! [. N; h" [% bTitle                                    : English-SRT6 A, Y. _; s* C& K+ q( k) F
Language                                 : English. ?1 q- G. T, B3 y% F) p
Default                                  : Yes( v! H/ M0 ^+ G* k
Forced                                   : No
0 L  _+ B+ O0 _3 x; X
; H" d0 V: K1 C: }+ NText #2: F# l/ J, J6 e# B
ID                                       : 8
$ O, s5 N6 g% b! SID in the original source medium         : 4608 (0x1200)* o* ^2 B$ x) {
Format                                   : PGS' U3 w2 ]9 w/ C: W- B/ E* K1 K) p
Muxing mode                              : zlib3 ~2 i% i) C$ U5 g9 T' M8 b2 I3 n% X
Codec ID                                 : S_HDMV/PGS
  m+ c4 J: k# y! _" u+ W# U7 e5 `Codec ID/Info                            : Picture based subtitle format used on BDs/HD-DVDs
  i. u2 j9 q- ]) aDuration                                 : 2 h 12 min
* j; S3 W2 Y. D# l$ PBit rate                                 : 73.0 kb/s
. H8 w. M0 B* Z7 s' Y- _Count of elements                        : 5590
& r/ N7 W7 x5 \5 Q) H& w6 ?( xStream size                              : 69.4 MiB (0%)
) P& s4 L. Z# k& M  T8 cTitle                                    : English-PGS
  T# s) P! `& j- ^Language                                 : English
* Q9 f7 Z# R' P3 m; g; xDefault                                  : No( _6 v6 N: H( U
Forced                                   : No
  O8 o, |0 K9 f+ b6 b1 X/ f, vOriginal source medium                   : Blu-ray
, J* e& u2 T. y3 A; D  }) J
+ q6 r3 H. I3 `' ^9 WText #3! _( [1 Y6 \$ S( K- d- a
ID                                       : 9
( i& u" Z( b; S. jID in the original source medium         : 4609 (0x1201)6 I! l: d9 m" \, u5 D
Format                                   : PGS/ k3 P# T# F2 s# y
Muxing mode                              : zlib/ g* _# D5 n  v, L+ x4 T; J$ o! x
Codec ID                                 : S_HDMV/PGS
" ]# x. R* x& ]2 `Codec ID/Info                            : Picture based subtitle format used on BDs/HD-DVDs
! X. u% L' d- j1 nDuration                                 : 2 h 15 min$ `7 ?9 V& Z( y5 J( U
Bit rate                                 : 61.5 kb/s8 F; n# u6 ]( i/ G2 j! P; r
Count of elements                        : 5196
* u+ P" _# [7 Y( y* U5 TStream size                              : 59.7 MiB (0%)# D7 y5 O1 ~. E5 d8 c
Title                                    : Spanish-PGS) b' H' X7 ]$ C3 M5 g& [
Language                                 : Spanish
- N' B/ c" Q2 L) q8 m! o7 MDefault                                  : No
/ ~( q6 C% h( eForced                                   : No
9 p+ F# ~: p7 S$ AOriginal source medium                   : Blu-ray2 S2 c; r/ q2 C5 t& ?& @5 X& S

- K- |9 a- ?; l3 zText #4
# N" u3 W1 @  l2 I3 n9 dID                                       : 10
' s# l$ C3 J- @2 pID in the original source medium         : 4610 (0x1202)
* Q4 o; Z8 S- c5 ~: K: v2 cFormat                                   : PGS, l( J. z" U; }: ~+ j! T$ z
Muxing mode                              : zlib
8 W# O$ U6 L% P/ C2 b) eCodec ID                                 : S_HDMV/PGS0 M4 g. c* k9 ?
Codec ID/Info                            : Picture based subtitle format used on BDs/HD-DVDs
, U; J. c5 |5 ~" dDuration                                 : 2 h 15 min! o; C9 E5 q( {2 P1 k
Bit rate                                 : 64.7 kb/s
7 [7 R$ d8 V+ t3 pCount of elements                        : 5176
8 T( \: F& A5 z! m+ T1 M, xStream size                              : 62.9 MiB (0%)" J6 I% ^6 F7 f% M5 H$ Z4 Y( v
Title                                    : French-PGS' Z' o7 K+ _9 T
Language                                 : French
# K. R8 C! `5 M7 J3 F1 r2 kDefault                                  : No
* D$ x6 x" z* ], J# Q3 r5 tForced                                   : No
: n3 z2 ?9 `& M6 x2 POriginal source medium                   : Blu-ray
  C2 \9 O3 Y1 B" y7 |( F% H% J, Q
Menu* b; ]) I7 X; p4 ?& w' g
00:00:00.000                             : en:Chapter 01; c/ h0 n0 ?" B. D6 t
00:07:59.770                             : en:Chapter 02  @* R, o3 X0 Z/ b0 f
00:15:21.795                             : en:Chapter 03
4 e+ Y- y% U5 o. e& i9 y3 L( l5 t00:21:31.665                             : en:Chapter 04$ R. M" b; f; j9 u8 p
00:30:29.953                             : en:Chapter 05$ [3 T- K" P+ g0 _
00:35:49.772                             : en:Chapter 06
1 o5 D$ V. o7 j6 Y0 v00:43:32.276                             : en:Chapter 07
! ?7 ~' n& i. E00:51:07.439                             : en:Chapter 08
" s. B% ~9 p6 \3 U' g! j00:58:17.452                             : en:Chapter 09
; j0 F; o4 {; L, @01:06:46.669                             : en:Chapter 108 @1 |! b- t+ l
01:11:39.920                             : en:Chapter 11/ _7 f8 A5 `# n
01:16:35.924                             : en:Chapter 12
/ b3 Y0 @; w5 a8 u01:21:36.933                             : en:Chapter 13
8 S* v9 j3 W$ U$ a$ B01:29:12.096                             : en:Chapter 14
6 K8 m: J1 D2 V01:34:21.864                             : en:Chapter 153 x9 n+ v4 r2 B5 R3 ?8 G& W3 P
01:41:33.295                             : en:Chapter 16
! Z% \9 j- O( s6 {3 }" r3 P01:46:17.245                             : en:Chapter 17' Q7 _( w0 |& I1 A
01:56:30.233                             : en:Chapter 18
+ K3 [. ^, b/ X. j5 _4 ~02:04:11.026                             : en:Chapter 195 E5 S- `+ x% L- E+ M- X
02:11:48.859                             : en:Chapter 20

6 m( p0 Q# \( ?* ]! b1 q: K
游客,查看本帖隐藏内容请回复 | 加入VIP贵宾组可免积分免回复下载 了解详情 | 还不是会员:点击获取邀请码 Invitation Code

56

主题

1370

帖子

4931

积分

Sponsor

金币
224 枚
体力
1882 点
lanpanshuma 发表于 2020-8-27 17:48:24 | 显示全部楼层
看了LZ的帖子,我只想说一句很好很强大!""
& @! T- T3 q$ J, Q5 L6 W; Q$ K: m) tIn fact, I have always felt that the landlord of good taste! Ha ha!6 m! I" }; b3 K2 S8 E7 T1 S) Z' S
该会员没有 ...

0

主题

191

帖子

644

积分

Sponsor

金币
25 枚
体力
281 点
060701300 发表于 2020-9-5 11:42:25 | 显示全部楼层
谢谢楼主分享

本版积分规则

小黑屋|Archiver|蓝光电影资源网

GMT+8, 2020-9-22 01:51

快速回复 返回顶部 返回列表