BluRayCD Forum

 找回密码
 立即注册【分享大片】

QQ登录

只需一步,快速开始

查看: 107|回复: 3
收起左侧

[4K极清电影] 星际传奇/黑煞天魔 [4K REMUX导剪版] Pitch Black 2000 DC 2160p BluRaycd REMUX HEVC DTS-HD MA 5.1-FGT 56.76GB

[复制链接]

4491

主题

4663

帖子

6万

积分

Post Share

金币
8525 枚
体力
16644 点

卓越贡献勋章

黄金嫖客 发表于 2020-8-21 03:20:59 | 显示全部楼层 |阅读模式
A commercial transport ship and its crew are marooned on a planet full of bloodthirsty creatures that only come out to feast at night. But then, they learn that a month-long eclipse is about to occur.
0 B# r, q) {, F2 M# @
/ S. p6 c/ z1 L5 r! Y 01.jpg , x- ^  Q. @4 \( e3 g% e1 u2 V
. H9 V5 W* s2 L. c
◎译  名 星际传奇/黑煞天魔 /漆黑一片
# N  [$ l5 }6 [◎片  名 Pitch Black / The Chronicles of Riddick: Pitch Black6 e" L* p" Z7 ~2 U  ~1 Z3 J1 ?" t
◎年  代 2000
& [7 O9 U0 w1 @% B; l8 r9 F( }◎产  地 美国
! ~/ T% _. |/ J. x! U◎类  别 动作/科幻/惊悚, \2 z# R6 W) w4 @3 i- ~, y  x, ~8 M# M
◎语  言 英语/阿拉伯语
& F3 s- j. R. w$ c6 O* M+ H◎上映日期 2000-02-18  Z3 ]+ a6 q0 I8 h9 [
◎IMDb评分  7.1/10 from 222,322 users
7 I% n4 E( y2 T! C◎IMDb链接  https://www.imdb.com/title/tt0134847/+ _3 U& l8 w5 C. Q" H
◎豆瓣评分 7.2/10 from 24,873 users1 d  {- u% O+ p
◎豆瓣链接 https://movie.douban.com/subject/1296459/$ _7 ~7 z/ L1 W& W/ [( d
◎文件格式 x265 + DTS
" M( z6 _  l/ V+ s' c1 r◎视频尺寸 3840 x 2160
* ]5 |% n3 Z6 t4 C◎文件大小 1DVD 56.76 GiB" b# x, @8 U# P' v
◎片  长 1 h 51 min6 n6 x8 f$ z0 A1 d
◎导  演 大卫·杜西 David Twohy' A& n; z! P: q% t$ m
◎编  剧 吉姆·维特 Jim Wheat- }# H* F- m( R+ I: T$ P
       肯·维特 Ken Wheat
6 d% d5 {* G' X8 J& n       大卫·杜西 David Twohy8 m2 d/ ^! }- c$ g% g  M& V2 a2 X- G  K
◎主  演 范·迪塞尔 Vin Diesel
, a4 H7 M6 G% p% h4 W       拉达·米切尔 Radha Mitchell
7 o' D6 U6 v0 B" Y% }       科尔·豪瑟 Cole Hauser
8 k& j, I! ^7 r+ l1 H: X, ?       凯斯·大卫 Keith David# b1 n2 Z. y7 e0 n& j  E
       刘易斯·菲茨-杰拉德 Lewis Fitz-Gerald3 ]% |7 B+ r  K0 c7 C

. T2 N5 [" G$ G7 x◎标  签 科幻 | 美国 | 动作 | 惊悚 | 文·迪塞尔 | 星际传奇 | 2000 | 美国电影
- v9 ^9 {" _$ H) L4 o, {4 ~. H+ ?6 Z9 `7 D0 }/ ^
◎简  介  " ^) p& e% c, p) I$ A& p
, ]8 a$ b* \: j; w: S
  在浩瀚的宇宙间,一艘名为猎人号的商用飞船正进行着漫长的旅程。船上搭载着40位乘客,其中包括重刑罪犯理查·雷迪克(Vin Diesel 饰)。当行驶到丹吉尔星系时,突如其来的事故令飞船遭受重创,空气飞速泄漏,最终迫降到一颗炎热而荒凉的星球上。着陆时的巨大冲击力几乎让飞船支离破碎,死伤者众多。幸存者们来到这片陌生的国土,严酷的自然环境考验着每一个人,不同民族不同职业的他们此时必须捐弃前嫌,联合起来。他们不仅要与天空中三个太阳作抗争,还要时刻提防隐藏在黑暗中的危险……
: K: a9 Y8 e0 f. f5 F# N% V  F' M. ^" f9 h  U7 }
  本片荣获2001年澳大利亚摄影师协会年度最佳摄影师和金三角架奖。
3 ^  Z, N% V- T1 l) g" X9 i0 N8 K. b8 ~
  In the not-too-distant future, a docking pilot makes a forced crash-landing of her spacecraft on a distant planet. As the survivors explore the uncomfortably hot planet, they must band together. The planet is eerie, arid, and lifeless. But as the sun sets and the planet plunges into total darkness, other inhabitants emerge -- including a fiendish murderer with a nose for blood.
) E9 o! m4 K2 f3 z  T+ N
9 A3 r. i* Q' a9 Z; S6 q9 `
Video #14 {) V# J9 C5 L% e# z7 J% |
ID                                       : 19 {& n; y, ]" Z. J# `7 [: u
ID in the original source medium         : 4113 (0x1011)
" _: x, v0 ]. ?' yFormat                                   : HEVC1 q" Z: q9 W" ]6 I* D, ?
Format/Info                              : High Efficiency Video Coding+ e  F; l& C# u4 C
Format profile                           : Main 10@L5.1@High7 X; y& r' g: u+ y# H1 o4 u# n
HDR format                               : SMPTE ST 2086, HDR10 compatible
1 G, s, I7 x  x1 g5 q  C$ E# N) [Codec ID                                 : V_MPEGH/ISO/HEVC
, r5 ~. t) S* ?! U" dDuration                                 : 1 h 51 min3 L8 J$ n; J# e7 l
Bit rate                                 : 68.1 Mb/s
) {( U/ A, N! X  [- cWidth                                    : 3 840 pixels7 R+ D& F: w  r! m& P
Height                                   : 2 160 pixels
. l, C) Q: z( _* A, X0 K; iDisplay aspect ratio                     : 16:9# }* j8 f- }8 {8 s. l* F; H
Frame rate mode                          : Constant8 I$ s* o; {. e/ ?$ t& m# L
Frame rate                               : 24.000 FPS
# f4 W* z2 t  s" n7 U7 s9 y  f" |Color space                              : YUV
( ^+ @8 f  }4 Z5 o5 J. {% mChroma subsampling                       : 4:2:0 (Type 2): G- R1 k6 F5 f/ E
Bit depth                                : 10 bits$ J0 C5 I6 y9 E  }- L9 C/ @; K
Bits/(Pixel*Frame)                       : 0.342
/ D+ ?* J4 t* a6 q; T. W1 LStream size                              : 53.1 GiB (94%)
+ k- l+ x0 ?9 t  B, ?" MTitle                                    : Pitch.Black.2000.DC.2160p.BluRayCD.REMUX.HEVC.DTS-HD.MA.5.1-FGT7 ]/ X6 Z- g8 l
Writing library                          : x265 3.3+21-6bb2d88029c2:[Windows][GCC 6.3.0][64 bit] 10bit
! {, f) r) ^5 uEncoding settings                        : cpuid=1111039 / frame-threads=6 / numa-pools=16,16 / wpp / no-pmode / no-pme / no-psnr / no-ssim / log-level=2 / input-csp=1 / input-res=3840x2160 / interlace=0 / total-frames=531 / level-idc=51 / high-tier=1 / uhd-bd=1 / ref=5 / no-allow-non-conformance / repeat-headers / annexb / aud / hrd / info / hash=0 / no-temporal-layers / no-open-gop / min-keyint=1 / keyint=24 / gop-lookahead=0 / bframes=3 / b-adapt=2 / b-pyramid / bframe-bias=0 / rc-lookahead=24 / lookahead-slices=0 / scenecut=40 / hist-scenecut=0 / radl=0 / no-splice / no-intra-refresh / ctu=64 / min-cu-size=8 / rect / amp / max-tu-size=32 / tu-inter-depth=3 / tu-intra-depth=3 / limit-tu=0 / rdoq-level=2 / dynamic-rd=0.00 / no-ssim-rd / signhide / tskip / nr-intra=0 / nr-inter=0 / constrained-intra / no-strong-intra-smoothing / max-merge=5 / limit-refs=0 / no-limit-modes / me=3 / subme=4 / merange=57 / temporal-mvp / no-frame-dup / no-hme / weightp / weightb / no-analyze-src-pics / deblock=-2:-2 / no-sao / no-sao-non-deblock / rd=6 / selective-sao=0 / no-early-skip / rskip / no-fast-intra / no-tskip-fast / cu-lossless / b-intra / no-splitrd-skip / rdpenalty=0 / psy-rd=5.00 / psy-rdoq=50.00 / no-rd-refine / no-lossless / cbqpoffs=0 / crqpoffs=0 / rc=abr / bitrate=68000 / qcomp=0.60 / qpstep=4 / stats-write=1 / stats-read=0 / slow-firstpass / vbv-maxrate=85000 / vbv-bufsize=99000 / vbv-init=0.9 / ipratio=1.40 / pbratio=1.30 / aq-mode=2 / aq-strength=0.80 / no-cutree / zone-count=0 / no-strict-cbr / qg-size=32 / no-rc-grain / qpmax=69 / qpmin=0 / no-const-vbv / sar=1 / overscan=0 / videoformat=5 / range=0 / colorprim=9 / transfer=16 / colormatrix=9 / chromaloc=1 / chromaloc-top=2 / chromaloc-bottom=2 / display-window=0 / master-display=G(8500,39850)B(6550,2300)R(35400,14600)WP(15635,16450)L(10000000,1) / cll=0,0 / min-luma=0 / max-luma=1023 / log2-max-poc-lsb=8 / vui-timing-info / vui-hrd-info / slices=1 / no-opt-qp-pps / no-opt-ref-list-length-pps / no-multi-pass-opt-rps / scenecut-bias=0.05 / hist-threshold=0.01 / no-opt-cu-delta-qp / no-aq-motion / hdr10 / hdr10-opt / no-dhdr10-opt / no-idr-recovery-sei / analysis-reuse-level=0 / analysis-save-reuse-level=0 / analysis-load-reuse-level=0 / scale-factor=0 / refine-intra=0 / refine-inter=0 / refine-mv=1 / refine-ctu-distortion=0 / no-limit-sao / ctu-info=0 / no-lowpass-dct / refine-analysis-type=0 / copy-pic=1 / max-ausize-factor=1.0 / no-dynamic-refine / no-single-sei / no-hevc-aq / no-svt / no-field / qp-adaptation-range=1.00 / no-scenecut-aware-qpconformance-window-offsets / right=0 / bottom=0 / decoder-max-rate=0
" o$ d/ a) R. ?# JLanguage                                 : English* T, T, y8 D- ]. b4 \- X  m
Default                                  : Yes" J8 L& S9 K1 o# r' p& W( W
Forced                                   : No
- Q- P5 m, e# \: VColor range                              : Limited$ D7 o6 h' |; q, _! M8 ~, {
Color primaries                          : BT.2020
9 P) B3 ^/ @, R9 BTransfer characteristics                 : PQ
& C" m! {6 E4 x, TMatrix coefficients                      : BT.2020 non-constant
2 ]) e- r% p' T' m3 IMastering display color primaries        : BT.2020& D7 C; e/ @% s: R3 _6 g0 Q( m
Mastering display luminance              : min: 0.0001 cd/m2, max: 1000 cd/m2
- Q3 C# x7 U& R2 d! ?" IOriginal source medium                   : Blu-ray/ r  o- [& `4 t3 h

; r6 _& k/ O, @" p7 D' ]
# q! B7 K5 \" S7 Q! m$ j9 f9 vVideo #2
" |* z) t0 U) O; o$ j  cID                                       : 28 H( Z- T  r7 l0 U; I
Format                                   : HEVC
  [* T0 u6 v' g. HFormat/Info                              : High Efficiency Video Coding
9 k- a" x4 H4 p) _) p- Y' RFormat profile                           : Main 10@L5.1@High* v, f7 _$ N! B+ |
HDR format                               : SMPTE ST 2086, HDR10 compatible
9 f1 m' |- |7 h! {7 OCodec ID                                 : V_MPEGH/ISO/HEVC: C, `8 Q# V- o% y, z$ {1 h
Duration                                 : 1 h 51 min
1 K$ Y$ M7 J* \Bit rate                                 : 101 kb/s
& h5 g6 i# e8 lWidth                                    : 1 920 pixels1 g* L8 x9 z: y5 U+ h# _
Height                                   : 1 080 pixels: P" E4 z& S/ J7 B7 t
Display aspect ratio                     : 16:9
5 S( S# i- G/ Y; Z$ [0 IFrame rate mode                          : Constant& i' P) S* |9 P$ x+ Y- A& m
Frame rate                               : 24.000 FPS" b/ B- ~' j4 D$ ~! q) Y! b0 F% \: u
Color space                              : YUV
- L5 y/ {3 Z2 W* g$ RChroma subsampling                       : 4:2:0 (Type 2)2 b$ f: N6 E# N9 S! F' T
Bit depth                                : 10 bits
) O* L! E9 G+ f! |" e4 [Bits/(Pixel*Frame)                       : 0.002
8 W( ?0 Z- T: V( n  S4 Y' \7 g6 iStream size                              : 80.7 MiB (0%)
0 l7 [: N7 j! u8 k4 n/ oTitle                                    : Pitch.Black.2000.DC.2160p.BluRaycd.REMUX.HEVC.DTS-HD.MA.5.1-FGT$ O# u* \' J+ s; [1 `8 A) W
Writing library                          : x265 3.3+21-6bb2d88029c2:[Windows][GCC 6.3.0][64 bit] 10bit5 f. t* r  q2 n4 L( C; _
Encoding settings                        : cpuid=1111039 / frame-threads=5 / numa-pools=16,16 / wpp / no-pmode / no-pme / no-psnr / no-ssim / log-level=2 / input-csp=1 / input-res=1920x1080 / interlace=0 / total-frames=531 / level-idc=51 / high-tier=1 / uhd-bd=1 / ref=4 / no-allow-non-conformance / repeat-headers / annexb / aud / hrd / info / hash=0 / no-temporal-layers / no-open-gop / min-keyint=1 / keyint=24 / gop-lookahead=0 / bframes=3 / b-adapt=2 / b-pyramid / bframe-bias=0 / rc-lookahead=24 / lookahead-slices=4 / scenecut=40 / hist-scenecut=0 / radl=0 / no-splice / no-intra-refresh / ctu=64 / min-cu-size=8 / rect / no-amp / max-tu-size=32 / tu-inter-depth=1 / tu-intra-depth=1 / limit-tu=0 / rdoq-level=2 / dynamic-rd=0.00 / no-ssim-rd / signhide / no-tskip / nr-intra=0 / nr-inter=0 / no-constrained-intra / strong-intra-smoothing / max-merge=3 / limit-refs=3 / limit-modes / me=3 / subme=3 / merange=57 / temporal-mvp / no-frame-dup / no-hme / weightp / no-weightb / no-analyze-src-pics / deblock=0:0 / sao / no-sao-non-deblock / rd=4 / selective-sao=4 / no-early-skip / rskip / no-fast-intra / no-tskip-fast / no-cu-lossless / no-b-intra / no-splitrd-skip / rdpenalty=0 / psy-rd=2.00 / psy-rdoq=1.00 / no-rd-refine / no-lossless / cbqpoffs=0 / crqpoffs=0 / rc=cbr / bitrate=500 / qcomp=0.60 / qpstep=4 / stats-write=0 / stats-read=0 / vbv-maxrate=500 / vbv-bufsize=550 / vbv-init=0.9 / ipratio=1.40 / pbratio=1.30 / aq-mode=2 / aq-strength=1.00 / cutree / zone-count=0 / no-strict-cbr / qg-size=32 / no-rc-grain / qpmax=69 / qpmin=0 / no-const-vbv / sar=1 / overscan=0 / videoformat=5 / range=0 / colorprim=9 / transfer=16 / colormatrix=9 / chromaloc=1 / chromaloc-top=2 / chromaloc-bottom=2 / display-window=0 / master-display=G(8500,39850)B(6550,2300)R(35400,14600)WP(15635,16450)L(10000000,1) / cll=0,0 / min-luma=0 / max-luma=1023 / log2-max-poc-lsb=8 / vui-timing-info / vui-hrd-info / slices=1 / no-opt-qp-pps / no-opt-ref-list-length-pps / no-multi-pass-opt-rps / scenecut-bias=0.05 / hist-threshold=0.01 / no-opt-cu-delta-qp / no-aq-motion / hdr10 / hdr10-opt / no-dhdr10-opt / no-idr-recovery-sei / analysis-reuse-level=0 / analysis-save-reuse-level=0 / analysis-load-reuse-level=0 / scale-factor=0 / refine-intra=0 / refine-inter=0 / refine-mv=1 / refine-ctu-distortion=0 / no-limit-sao / ctu-info=0 / no-lowpass-dct / refine-analysis-type=0 / copy-pic=1 / max-ausize-factor=1.0 / no-dynamic-refine / no-single-sei / no-hevc-aq / no-svt / no-field / qp-adaptation-range=1.00 / no-scenecut-aware-qpconformance-window-offsets / right=0 / bottom=0 / decoder-max-rate=0
3 t$ l( c7 I6 CLanguage                                 : English
7 J# p; j/ |( iDefault                                  : No' T/ z( v$ v& u/ K) C6 Q
Forced                                   : No
  u; f2 l2 ?2 |  V" |. qColor range                              : Limited' N6 H  V, h0 c. z& g4 H9 z2 n
Color primaries                          : BT.2020# T( ^- y1 x& @+ \! j" y
Transfer characteristics                 : PQ5 S$ H" n; z5 n' p) `0 `
Matrix coefficients                      : BT.2020 non-constant, P9 G+ W6 ^; w2 i* l
Mastering display color primaries        : BT.2020
" C4 o7 V; {- }Mastering display luminance              : min: 0.0001 cd/m2, max: 1000 cd/m2
- t' {; c1 [, |: M2 G: t
+ g+ L5 a8 u# JAudio #12 v% w4 D1 u% s) }( ^0 `; I
ID                                       : 3
9 v1 C9 b$ H& d; F. ]5 hID in the original source medium         : 4352 (0x1100)# F2 v8 I. n2 D7 x; F! P' J" `7 h& G7 p
Format                                   : DTS XLL
! m  K9 W2 [! X7 ]+ S$ Y7 DFormat/Info                              : Digital Theater Systems/ @) w; Q. j: w. l. {) _4 ]& F
Commercial name                          : DTS-HD Master Audio
8 k$ V5 e+ m9 ]5 wCodec ID                                 : A_DTS( N* U( O* h: O
Duration                                 : 1 h 51 min
5 t  t2 R* E0 pBit rate mode                            : Variable
) T# l0 Y, Y6 s: j! i$ I* J# wBit rate                                 : 4 158 kb/s
* w( K& {1 ?; yChannel(s)                               : 6 channels
' i: I0 H! j6 O& m2 QChannel layout                           : C L R Ls Rs LFE/ B" J& @* i- v0 I& w6 w/ Y# S
Sampling rate                            : 48.0 kHz
8 M) Z5 y( W- I) ^, mFrame rate                               : 93.750 FPS (512 SPF)
5 t( @- m5 D6 X& @2 B- bBit depth                                : 24 bits! |3 b5 r( F4 E
Compression mode                         : Lossless
0 t; Q$ C5 o3 G) V& mStream size                              : 3.25 GiB (6%); M3 C  y3 y6 w: ?. X
Title                                    : Pitch.Black.2000.DC.2160p.BluRaycd.REMUX.HEVC.DTS-HD.MA.5.1-FGT
4 Z3 F% @6 H* q5 V& T2 @Language                                 : English% T# ]4 e; H+ k5 r6 r' k$ W5 K- D
Default                                  : Yes. V. `8 l9 q3 c# ]1 n/ a7 t' H
Forced                                   : No
% \5 `7 @: `$ ?3 qOriginal source medium                   : Blu-ray- N4 h' I" e2 K+ r( V

  P" x. Z- ~' Y. O0 b# wAudio #2
" W6 N0 b7 I* R% F, f! gID                                       : 4
, T, }- A1 e2 H/ l) g% B- _ID in the original source medium         : 4353 (0x1101)4 w$ ?+ e! @7 N4 X
Format                                   : AC-3
) D8 S/ ~4 p+ yFormat/Info                              : Audio Coding 3
7 \; U/ c; N& j2 S0 DCommercial name                          : Dolby Digital
1 ]/ c$ H! s- p) r* T" {Codec ID                                 : A_AC3
6 K2 J& @' `) K  m* e% L# @7 eDuration                                 : 1 h 51 min
0 W8 ?. ?; W" ^2 @) ^Bit rate mode                            : Constant$ s5 S/ _/ i" ]0 v
Bit rate                                 : 192 kb/s: v; w. T6 }% W+ R1 k0 A
Channel(s)                               : 2 channels
! M8 L) @0 j& J4 P4 h5 QChannel layout                           : L R
& U2 x7 e$ t- ~( r; SSampling rate                            : 48.0 kHz
5 d% p2 ^0 c6 ~2 rFrame rate                               : 31.250 FPS (1536 SPF)
: u" J: G1 T8 t8 A+ lCompression mode                         : Lossy" @7 d# z9 o: v$ @0 k
Stream size                              : 153 MiB (0%)( u; A, |& Y+ _/ q  ]: `8 M# O
Title                                    : Pitch.Black.2000.DC.2160p.BluRaycd.REMUX.HEVC.DTS-HD.MA.5.1-FGT' i1 Q: t6 Z- d- x
Language                                 : English
- ^0 `4 f, R$ u. uService kind                             : Complete Main% A: o; J) s$ Z; u& P
Default                                  : No$ b4 a, N* A3 K( [1 c4 F
Forced                                   : No- ?0 ~9 n) K" ~' M; X. `: @
Original source medium                   : Blu-ray
' a' ^- {+ G" ?7 x0 N& ~  v0 S
3 O+ N+ m9 Q# X, ]2 I5 v! cAudio #3
) X; b3 S7 ~! r: i) a1 U- P) N- f7 iID                                       : 5! A. O! O; [% ^. G
ID in the original source medium         : 4354 (0x1102)
7 t; H3 p! q7 U- s- aFormat                                   : AC-3. a) X9 E; O. C- M, w5 G
Format/Info                              : Audio Coding 3
* Y1 i% G3 E- |& mCommercial name                          : Dolby Digital4 E, d2 Q5 a' f, B& \9 n4 N
Codec ID                                 : A_AC3% B, E: j  K5 F7 ~' q2 ]% ]$ J7 r1 A) i
Duration                                 : 1 h 51 min
, i( i. A( E4 z6 q; f: f: Z8 s% }Bit rate mode                            : Constant' {$ U6 g* V1 q7 g2 V% }9 ]0 F
Bit rate                                 : 192 kb/s
- P6 q* ]# |; rChannel(s)                               : 2 channels' Q! I% W( X5 o7 G, @/ t4 |' o
Channel layout                           : L R0 d  e7 w( P' _5 G. F5 V6 ?+ _% X
Sampling rate                            : 48.0 kHz' x6 @( O- r' I) n6 R* @& S% y2 _
Frame rate                               : 31.250 FPS (1536 SPF)2 h7 G& i. `3 `( c( R$ j& k
Compression mode                         : Lossy# |/ O4 N" P0 l. ^
Stream size                              : 153 MiB (0%)
% k& G* B1 i0 d8 mTitle                                    : Pitch.Black.2000.DC.2160p.BluRaycd.REMUX.HEVC.DTS-HD.MA.5.1-FGT, D3 ^8 P+ C( C0 s# S) q, Q6 j+ a' ?$ o
Language                                 : English
6 G1 ]) q' k0 h5 j+ Q2 MService kind                             : Complete Main. @7 A7 f7 h; J, O
Default                                  : No9 o2 P" N( u% t
Forced                                   : No/ }5 \& N/ b0 f$ G# l- F
Original source medium                   : Blu-ray
( {! j; q1 y5 s9 |! l/ T" ~! @3 V8 M$ L1 P4 K! u% J4 K( m& Q0 e, G
Text #1
. ?7 x" G# f9 c: [* p! S* S& U, hID                                       : 6) p$ a5 u2 E3 @) ?% h$ Z
Format                                   : UTF-8
( j  P% z0 Y. t$ p2 ZCodec ID                                 : S_TEXT/UTF8
* y  g# w% j/ L9 [& E: RCodec ID/Info                            : UTF-8 Plain Text
9 k; s: l" k) S3 eDuration                                 : 1 h 44 min
5 F/ E  K7 Y; D- B% ?Bit rate                                 : 37 b/s  q7 {( ?) E! G- J8 ^8 k, ^' ?
Count of elements                        : 9497 T( H( m* g4 B6 h* N6 y
Stream size                              : 29.0 KiB (0%)
+ N9 N0 V( H* a. ITitle                                    : English-SRT
2 |% T8 Q. h, e, ~4 x* [Language                                 : English
% n1 X+ j7 Y7 ?7 N8 g7 lDefault                                  : Yes
7 k8 f# [! s" v8 x( tForced                                   : No/ W9 l. X. i. o0 c

! K1 p4 X2 Q3 {Text #2
5 g/ X6 K9 d  vID                                       : 7
/ y' }8 M' R0 C2 F7 u! E3 jFormat                                   : UTF-89 ^" n9 P- d1 m1 ^
Codec ID                                 : S_TEXT/UTF8$ n+ o( G, f, \
Codec ID/Info                            : UTF-8 Plain Text
, F7 A) R0 {5 v% |" H/ `9 ]Duration                                 : 1 h 44 min0 m$ |" [6 Z& ^1 M& I6 s
Bit rate                                 : 41 b/s$ B/ t* y- s! s1 F7 A, n4 h7 c3 G
Count of elements                        : 1123
! _. M4 X4 I3 F1 S7 W8 C* b7 l$ PStream size                              : 31.8 KiB (0%)( A. R4 T0 J1 l3 p
Title                                    : English-SDH-SRT$ x  M3 a* S: R; ~" U5 `) j7 K
Language                                 : English
. f7 o% E9 N' d7 b! TDefault                                  : No  ^- l2 L% d$ V! Q) {
Forced                                   : No
, j5 C: J$ C3 p- l& V" b0 Q# P
' Y8 b4 Z) R+ I# zText #3
8 X9 i6 C  D7 m0 i# I+ HID                                       : 8# y1 s; j, H. _
ID in the original source medium         : 4768 (0x12A0)- r* X- D4 W( J* M5 \
Format                                   : PGS) a4 F! Z' O. O& f1 K' b$ C# f
Muxing mode                              : zlib  V; `: \: ^% Y: ?& u1 e2 _  n: Q
Codec ID                                 : S_HDMV/PGS+ ]+ i0 _- x4 U- y4 @# O
Codec ID/Info                            : Picture based subtitle format used on BDs/HD-DVDs8 p* S6 g" m% k: e+ z& E/ I" p
Duration                                 : 1 h 44 min3 J# {  S$ _6 _% I
Bit rate                                 : 27.8 kb/s
2 q& Z3 C# L# t/ Y+ c1 A+ w: KCount of elements                        : 2246
' L' S- t. ~* ^: s) X2 RStream size                              : 20.8 MiB (0%): f' \  q8 s6 j5 K7 s/ u( A2 e3 J
Title                                    : English-PGS; e+ F* j; F- ]2 h7 p+ ]
Language                                 : English4 c. {  ?0 l  f, o* s; H
Default                                  : No
7 Y( a3 k6 E; }2 x" a* ~* BForced                                   : No1 i7 N" _- Z" R$ N9 \
Original source medium                   : Blu-ray: W( o' p- v$ n2 M& O

7 o) A5 K; T& k8 {. A& `+ iMenu
" @# k* {0 r# J8 n* L. o4 L' d00:00:00.000                             : en:Chapter 01
6 s" z* G( D; g5 d! G! F00:11:13.500                             : en:Chapter 02  M' h/ D+ O: s4 v
00:18:27.458                             : en:Chapter 035 V4 K0 H/ A/ ~0 G3 c
00:27:09.708                             : en:Chapter 046 L7 Z% P8 e; ?! g! a
00:36:45.416                             : en:Chapter 05
6 n; L4 W3 h1 h  ^00:46:36.458                             : en:Chapter 06( p9 y7 h' ]' d' X/ d$ j
00:56:13.625                             : en:Chapter 07# H! X4 ^5 t$ M4 a0 p3 B; N
01:02:39.666                             : en:Chapter 08
0 d" G6 A" k, U; H) ]+ H$ L01:12:17.333                             : en:Chapter 099 M1 Y6 F3 z0 k# C% q/ e
01:19:15.375                             : en:Chapter 107 ?- ?2 {7 w/ j7 l$ h$ q% f
01:33:36.750                             : en:Chapter 11
9 B/ @9 N8 m, M- N$ z01:39:17.791                             : en:Chapter 12

5 v8 z% a  I  j+ c* _! I: V
游客,查看本帖隐藏内容请回复 | 加入VIP贵宾组可免积分免回复下载 了解详情 | 还不是会员:点击获取邀请码 Invitation Code

56

主题

1370

帖子

4931

积分

Sponsor

金币
224 枚
体力
1882 点
lanpanshuma 发表于 2020-8-21 09:23:13 | 显示全部楼层
Bluraycd又有新电影发布了,激动中……!
3 J% \, w  J" w9 E& [( M! p; j% ^bluraycd forum, a lot of Blu-ray movies!; I  `- N9 s$ @, w: `3 {, s# b8 b7 O; \
该会员没有 ...

0

主题

9

帖子

192

积分

Sponsor

金币
129 枚
体力
44 点
281742458 发表于 2020-8-26 19:49:03 | 显示全部楼层
非常好看的电影

577

主题

1906

帖子

1万

积分

VIP advanced

金币
1631 枚
体力
4351 点

公主勋章卓越贡献勋章

21cn 发表于 2020-8-28 23:21:33 | 显示全部楼层
楼主发贴辛苦了,I*老*虎*U!! ]1 V" B4 K# Q4 j5 m2 B" Q" _
Blu-ray Film Forum: I will always support you!1 c3 R# Q" |3 P2 K. s& _; F

本版积分规则

小黑屋|Archiver|蓝光电影资源网

GMT+8, 2020-9-22 03:06

快速回复 返回顶部 返回列表