BluRayCD Forum

 找回密码
 立即注册【分享大片】

QQ登录

只需一步,快速开始

查看: 64|回复: 3
收起左侧

[蓝光原盘] 奇妙的家族/抢钱大尸杀 [REMUX无损版] Zombie for Sale 2019 KOREAN 1080p BluRaycd REMUX AVC DTS-HD MA 5.1-FGT 33.05GB

[复制链接]

4491

主题

4663

帖子

6万

积分

Post Share

金币
8525 枚
体力
16644 点

卓越贡献勋章

黄金嫖客 发表于 2020-8-23 17:41:22 | 显示全部楼层 |阅读模式
When a pharmaceutical company's illegal experiments inadvertently create a zombie, the strange Park family finds it and tries to profit from it./ g2 Y' {5 @3 Q" r

: t  S, |' C8 x; X0 g3 S) Z2 N 01.jpg ! e' z" K/ Q7 H& p0 P) ?
' N7 `' s4 `3 E! @( U- H
◎译  名 奇妙的家族/僵尸家族/感染家族(日)/抢钱大尸杀(港/台)  @1 ?2 D4 D( H4 S8 l
◎片  名 기묘한 가족 / The Odd Family: Zombie On Sale / Zombie for Sale
5 }$ }0 U. j7 L◎年  代 2019
+ |) L1 \4 W/ @8 s0 {. g/ G9 z◎产  地 韩国8 v) s& @6 |+ @- P
◎类  别 喜剧/恐怖
  r5 W3 M8 U% W◎语  言 韩语
6 z3 R1 ^! S5 A◎上映日期 2019-02-13(韩国)
! r- p5 x7 D% q0 B& m◎IMDb评分  6.5/10 from 849 users! n1 v: O2 Q* t5 y, `& S; A0 v- _
◎IMDb链接  https://www.imdb.com/title/tt9765144/9 ~1 ?7 ^7 }6 d6 t# P! ~3 K
◎豆瓣评分 7.1/10 from 12,551 users3 `8 m/ Q8 v4 i# d- h/ ^. J7 T
◎豆瓣链接 https://movie.douban.com/subject/27114963/- `; ?6 |% T: e3 L) L' J) l5 y& J* P) s
◎文件格式 x264 + DTS
1 y# q  {0 J' {5 E4 H& b/ @3 M( H, j◎视频尺寸 1920 x 1080
* W8 I* C7 M+ `! k◎文件大小 1DVD 33.05 GiB
! M$ n/ X. K0 w. S◎片  长 1 h 51 min
9 `9 Y5 p2 \8 r- Q8 e0 Y9 n8 Z◎导  演 李珉才 Lee Min-jae
/ g# Q! {; ~; A5 x% u◎编  剧 李珉才 Min-jae Lee, v( T& ]6 Z7 ^! X2 {+ M
◎主  演 郑在咏 Jae-yeong Jeong3 w! f( V1 |/ {; y) u4 F
       金南佶 Nam-gil Kim+ e) a/ v6 }+ f! `4 W* l
       严志媛 Ji-won Uhm, Z, u( l% p1 s" {( Q0 H& W
       李秀卿 Soo-kyung Lee4 k- Y* x5 q( ^$ b: W9 ?
       郑家兰 JUNG Garam* S4 S: m1 t! h* U" d7 a' X) b, w
       朴仁焕 In-hwan Park
2 i1 |, V' g( a3 G% f8 ?       申正根 Jeong-geun Sin& @; k0 O8 ^$ Z% Q
       吴义植 Eui-sik Oh' l! x5 Q0 t# @8 C
       金基天 Ki-cheon Kim. t! p4 I$ w0 b4 C5 l
       李东熙 Dong-hee Lee4 z9 O1 j& T! o6 Y6 l  s7 Z
       具本雄 Bon-woong Koo
+ b1 l  y4 ?% a+ C2 ?2 ]0 |       柳淳哲 Sun-cheol Yu
! I: J1 \  M$ f% I9 |2 T9 R       崔钟律 Jong-ryeol Choi7 w, p6 q! [  v
       李英锡 Yeong-seok Lee
) i; d" G! d% y: c' K& f/ D       李晟宇 Sung-woo Lee
0 H! _5 S# f' v7 `7 Z3 k2 h       李佳英 Ga-kyung Lee
. p' i& @% Y% q0 j       刘炳洙 Byung-sun Yoo4 @% I& O6 L2 A, ]- W5 j
       吴顺泰 Soon-tae Oh; h6 u4 N+ L& L" s& m$ ~
       金妍贞 Yeon-jung Kim' ~+ i  Z) M2 z- z9 N; X1 H. K$ L; z! s
       郑宇荣 Woo-yeong Jeong- z1 D- Q* C+ p: N
       高东亨 Dong-hyeong Go  M6 `6 p, E% R' E4 v& j8 ]
       张恩钟 Eun-chong Jang: n( [9 q, k  D5 @- S9 l+ ~; G
       纪焕 Ji Hwan2 Y7 e- T( `" T" {. ?9 T# w7 ^
       崔英民 Young-min Choi0 ]6 }. B5 @9 B* ^/ D+ N2 I: }
       蔡恩珠 Eun-joo Chae5 l' ^: J5 T2 ]# P5 o( d9 X
       金昌朱 Chang-jo Kim
4 h6 v6 y& U! A6 |  v- \       全裴修 Bae-soo Jeon- K$ _% X0 B  g9 I

5 z$ Y! M1 ~& v8 Y- }- [3 C◎标  签 喜剧 | 丧尸 | 韩国 | 韩国电影 | 僵尸 | 搞笑 | 2019 | 恐怖$ B+ a) H; H/ K' T: Y/ |

# v4 T* |8 g3 V) `5 `5 `2 c/ }◎简  介  % R( G. p8 P, [0 p2 m4 c

  R0 R7 G6 r- G0 M9 X0 A0 {  《奇妙的家族》主要讲述的是因某天突然出现的神秘家伙令充满个性的一家人与安静的乡下村庄变得一片混乱的异想天开的喜剧故事。$ n# M9 h- Q+ A! N
* _* g" I- d7 }1 m
  When the illegal human experiments of Korea’s biggest Pharmaceutical company go wrong, one of their “undead” test subjects escapes and ends up in a shabby gas station owned by the Park family.# w! w6 u, S% S* s/ k$ _$ t  s' e

1 y+ A* h* `5 ]8 q6 s  @
Video' F" C( y# @: d  P
ID                                       : 1
2 k; H; X! j9 qID in the original source medium         : 4113 (0x1011)1 T2 k3 I- C; k% s2 B
Format                                   : AVC: i& `; O3 E3 Y* n
Format/Info                              : Advanced Video Codec
8 O  d$ Y. r% q' K. Y" OFormat profile                           : High@L4.1  P- v* Z1 p1 c3 w* y
Format settings                          : CABAC / 3 Ref Frames
0 E8 a* r- R9 F2 n7 S) ]Format settings, CABAC                   : Yes/ u. i! D5 |" X7 @
Format settings, Reference frames        : 3 frames
7 ^: U. r3 I& u/ V$ oCodec ID                                 : V_MPEG4/ISO/AVC; p; s$ X0 s) q8 q
Duration                                 : 1 h 51 min" k2 t& u/ u" E) m9 F' v
Bit rate mode                            : Variable
: G2 m5 j+ f1 D6 }# O4 ?9 J+ zBit rate                                 : 35.0 Mb/s
- ]* T0 F# f: C. u0 }Width                                    : 1 920 pixels
8 C1 K) T2 _, y$ K0 B1 [4 ~Height                                   : 1 080 pixels7 j$ b" r2 q5 P4 I" p0 [
Display aspect ratio                     : 16:9- h3 z3 [2 o  I- n
Frame rate mode                          : Constant
4 q4 v& c2 d' Y% I' {9 @Frame rate                               : 23.976 (24000/1001/37687) FPS# O" _7 L7 ?# W3 H2 x( x; R
Color space                              : YUV
' v7 k- h2 W# u4 d- LChroma subsampling                       : 4:2:0
, B- e' Y0 |" P! l2 ^0 m1 MBit depth                                : 8 bits
; n" m2 U, h9 i0 _. J! b; ?Scan type                                : Progressive
7 \) }& ~; V* |3 B3 m. bBits/(Pixel*Frame)                       : 0.704
6 t) G! H6 t, A/ t* ^Stream size                              : 26.5 GiB (80%)) G6 _0 J% L# X  ~$ ^" |
Title                                    : Zombie.for.Sale.2019.KOREAN.1080p.BluRayCD.REMUX.AVC.DTS-HD.MA.5.1-FGT
$ W: K) m! M8 |# h) ^: L! AWriting library                          : x264 core 157 r2969 d4099dd' `4 n) T* V% w% v
Encoding settings                        : cabac=1 / ref=4 / deblock=1:-1:-1 / analyse=0x3:0x133 / me=umh / subme=10 / psy=1 / psy_rd=1.00:0.15 / mixed_ref=1 / me_range=24 / chroma_me=1 / trellis=2 / 8x8dct=1 / cqm=0 / deadzone=21,11 / fast_pskip=1 / chroma_qp_offset=-3 / threads=18 / lookahead_threads=1 / sliced_threads=0 / slices=4 / nr=0 / decimate=1 / interlaced=0 / bluray_compat=1 / stitchable=1 / constrained_intra=0 / bframes=3 / b_pyramid=1 / b_adapt=2 / b_bias=0 / direct=3 / weightb=1 / open_gop=1 / weightp=1 / keyint=24 / keyint_min=1 / scenecut=40 / intra_refresh=0 / rc_lookahead=24 / rc=2pass / mbtree=1 / bitrate=35000 / ratetol=0.9 / qcomp=0.10 / qpmin=0 / qpmax=69 / qpstep=4 / cplxblur=20.0 / qblur=0.5 / vbv_maxrate=35000 / vbv_bufsize=30000 / nal_hrd=vbr / filler=0 / ip_ratio=1.40 / aq=1:1.00
5 H( h( D, A- X& HLanguage                                 : English
( h1 d- _+ @5 uDefault                                  : No
- k$ G2 g1 }! r9 XForced                                   : No7 [5 P% K- r6 y+ N. u) X' @/ C
Color range                              : Limited
: J! Q  G. L, M  A" sColor primaries                          : BT.709( ~. Y* r$ T4 D% W( ^# e
Transfer characteristics                 : BT.709+ X5 _- F; ]7 O, }; B' X# {, T
Matrix coefficients                      : BT.7097 x! ?7 C2 i/ k$ R
Original source medium                   : Blu-ray
% w7 h8 M' X9 r/ ?9 ^* o3 o$ E. Q  v, u, V
# a0 N1 P  ?7 s0 {# J- aAudio #1
( n9 W3 r0 a; T  uID                                       : 2
( S" D6 H0 H8 E- }. J. L# CID in the original source medium         : 4352 (0x1100)
5 U* H! s9 N* ]  ^7 j( X% j( kFormat                                   : DTS XLL; H+ ?, w9 @  L8 j+ U
Format/Info                              : Digital Theater Systems1 K/ l6 }9 {! K7 ^- _6 a
Commercial name                          : DTS-HD Master Audio
# R0 K" k1 v' R- O4 mCodec ID                                 : A_DTS( n& r7 ^9 g+ D
Duration                                 : 1 h 51 min9 C' h; V+ F& w) K, C
Bit rate mode                            : Variable
) I( I1 I8 C5 r" Y- j5 iBit rate                                 : 3 739 kb/s, N6 y$ e8 k+ h/ S
Channel(s)                               : 6 channels
6 t7 ]6 z; L# |: o4 U2 |Channel layout                           : C L R Ls Rs LFE  M) D% s# A9 ?) w* v
Sampling rate                            : 48.0 kHz) a) E1 A; ?; g$ W$ ^
Frame rate                               : 93.750 FPS (512 SPF)4 q% b) M" X# x; {- Q
Bit depth                                : 24 bits
8 H* m& Q  c2 |Compression mode                         : Lossless
& }2 ]0 }" h5 tStream size                              : 2.92 GiB (9%)
: U' e2 u$ z) p; n! d8 XTitle                                    : Zombie.for.Sale.2019.KOREAN.1080p.BluRaycd.REMUX.AVC.DTS-HD.MA.5.1-FGT
4 M- O9 A( a! p: T0 LLanguage                                 : Korean) p" J" K6 {0 E0 E& t
Default                                  : Yes$ w. x; N* S6 w$ }! |! k
Forced                                   : No
8 p9 n; A) _* h0 s( b# OOriginal source medium                   : Blu-ray
" K* S1 S/ X8 l8 J4 n. C6 i0 E# S0 F; g; M$ @
Audio #2
9 V* {1 y+ H. n0 {5 SID                                       : 3
2 d! v* M3 f8 c6 ^8 T# b7 ~; o: s! ^ID in the original source medium         : 4353 (0x1101)
7 D4 k) }0 b( X( I+ K$ QFormat                                   : PCM
$ p( X, D/ U8 R5 w6 ^: x6 N$ FFormat settings                          : Little / Signed/ z: u1 K% G$ O# I
Codec ID                                 : A_PCM/INT/LIT
! ]+ ]) w/ i0 {8 t. ?5 D. SDuration                                 : 1 h 51 min
7 o4 c; ~6 g  K) c4 gBit rate mode                            : Constant$ T5 d  e' @" \8 J0 \
Bit rate                                 : 2 304 kb/s9 a9 i. F, [/ ]; |/ b  b8 n0 z- _% o
Channel(s)                               : 2 channels3 i% M( C- ]0 S4 }4 H
Sampling rate                            : 48.0 kHz3 w+ ?9 e& o" ~+ V
Frame rate                               : 30.000 FPS (1600 SPF)6 Y' V/ O  K6 C5 n% k
Bit depth                                : 24 bits. x9 z/ a1 \) R/ d+ M
Stream size                              : 1.80 GiB (5%)4 s: f5 X7 q# M9 b4 Z
Title                                    : Zombie.for.Sale.2019.KOREAN.1080p.BluRaycd.REMUX.AVC.DTS-HD.MA.5.1-FGT" q3 @) P2 E7 W, A$ j0 D# V. `
Language                                 : Korean
. M8 z" H  m6 wDefault                                  : No
: f6 z% h" R" |2 {& f2 j# q( a1 _7 n( h: _Forced                                   : No2 `) K0 x) o& L5 u& _
Original source medium                   : Blu-ray
, V2 ?2 S! r& w: P4 A" j
5 R1 s0 n4 V( A, Z# V  X, [& ~Audio #3
; L8 O1 v4 a- K9 M$ y# AID                                       : 46 S8 b+ M; G5 G# l
ID in the original source medium         : 4354 (0x1102)
+ M" ~' x+ `4 Q0 J( e% A9 QFormat                                   : PCM
) _  x5 c3 j: j. y) u- g8 P5 N6 fFormat settings                          : Little / Signed
! U0 d7 _, M# o  ACodec ID                                 : A_PCM/INT/LIT% C+ G* h7 I5 b# K5 ]! j0 K. `
Duration                                 : 1 h 51 min) f; o% g* t! c( A; a
Bit rate mode                            : Constant4 f$ J# @$ z0 C. E
Bit rate                                 : 2 304 kb/s
, Y- M- A) v0 w" zChannel(s)                               : 2 channels
& ^/ f' b% T+ X0 P  H, nSampling rate                            : 48.0 kHz
% [2 d  T, {) x0 ], |$ p! e. `Frame rate                               : 30.000 FPS (1600 SPF)' h' E* {5 a* t4 o0 |
Bit depth                                : 24 bits# K3 |, M3 @  \8 H9 h6 {0 a* G
Stream size                              : 1.80 GiB (5%). x% a8 w$ f" e& i- O
Title                                    : Zombie.for.Sale.2019.KOREAN.1080p.BluRaycd.REMUX.AVC.DTS-HD.MA.5.1-FGT* I3 J! i; Z: q' ^; Z
Language                                 : English
/ E/ f& {  c* J+ JDefault                                  : No  }. b6 D- @6 |3 n0 f; g8 s* T
Forced                                   : No7 M# _  |5 r0 h. f" J
Original source medium                   : Blu-ray1 G/ Q0 B$ h3 b- e! I. ]

' a% y$ v/ ]. k+ n$ q) UText #1
/ H) `: x# i0 o1 V; R$ `ID                                       : 5) V; m8 |5 S1 f/ Q: b* v
Format                                   : UTF-8: l( W* q. J. H! g$ F
Codec ID                                 : S_TEXT/UTF8  z1 D6 I# \: r9 U  ^
Codec ID/Info                            : UTF-8 Plain Text) u' J  ?. z8 O( S4 D
Duration                                 : 1 h 47 min
6 M  F3 C; \. D- {+ [3 ?  U( J; mBit rate                                 : 37 b/s+ R- w% b' P7 r/ ]
Count of elements                        : 1233
9 i3 u( K% A4 E, w3 YStream size                              : 29.6 KiB (0%)
+ D6 c$ p) L+ M: B8 V' Z$ y$ gTitle                                    : English-SRT
5 o) r- L+ P2 q6 @; C8 yLanguage                                 : English
" U) T. j+ A2 _7 ?% Y( c* v4 @) \Default                                  : Yes* e  s! h0 w8 G
Forced                                   : No
- H. z- ?/ `/ `- F: G9 U
# Y. s% L3 e' O4 OText #2
) Z& \7 F2 K. u2 E* z% BID                                       : 6
6 x! ~5 E) j- Q. h, V% [( lID in the original source medium         : 4608 (0x1200)
  I! o5 k; ]# y6 \) o" [Format                                   : PGS7 g( u$ p: @8 }0 _; N# g
Muxing mode                              : zlib8 r2 H6 l# p( A# s6 `# `
Codec ID                                 : S_HDMV/PGS  Z# v2 z3 Q& i) U" k
Codec ID/Info                            : Picture based subtitle format used on BDs/HD-DVDs
6 }% R8 c+ k+ b4 [" H# @% WDuration                                 : 1 h 47 min2 B% n8 U' X" j% Y$ J% Y
Bit rate                                 : 22.6 kb/s, _) a' J7 I/ J6 \8 O# t
Count of elements                        : 24663 R4 d/ Q; E0 F% L# M  c
Stream size                              : 17.3 MiB (0%)
6 e" `6 S0 X& D9 v, H8 Y7 xTitle                                    : English-PGS
. s% \1 l  \# o1 yLanguage                                 : English) N  x) D. b6 d1 Q
Default                                  : No
  `6 P5 Q' e" `0 E; G" BForced                                   : No
  k3 K% C5 ]3 e6 G# ~Original source medium                   : Blu-ray
: K/ i3 U8 U" U! \4 O; X' @- x+ q- W. z- N) c7 }& T: @1 j
Menu
. ^  C$ S* h! L4 a00:00:00.000                             : en:Chapter 00  _0 G& `5 }5 e* ~7 R3 g) v4 ?
00:11:26.268                             : en:Chapter 01% E% j. k! G% K+ _4 U1 n4 K
00:19:31.211                             : en:Chapter 02
( ?0 W  \8 z' M" U. h7 c* W+ g00:27:42.327                             : en:Chapter 03$ a- O* `* n. B2 r6 k: b. M  @
00:38:54.165                             : en:Chapter 04
* c6 z) e6 ]+ O& w00:46:06.638                             : en:Chapter 05
% Y' ]$ g) p1 P8 j' u1 B; \+ X00:56:03.193                             : en:Chapter 06" q; d, M6 F' F+ X! r- D
01:05:19.665                             : en:Chapter 07( y* ~5 J4 E: s% Y
01:13:28.445                             : en:Chapter 08
+ t# |3 O1 g$ s7 O; d5 o% \0 d$ t01:24:13.923                             : en:Chapter 09- Y$ [% Y. q+ Z4 t) Z
01:33:21.637                             : en:Chapter 10
5 r+ F- T8 }: P4 z/ {01:42:49.913                             : en:Chapter 11
* I# u9 t. M5 [/ t
游客,查看本帖隐藏内容请回复 | 加入VIP贵宾组可免积分免回复下载 了解详情 | 还不是会员:点击获取邀请码 Invitation Code

56

主题

1370

帖子

4931

积分

Sponsor

金币
224 枚
体力
1882 点
lanpanshuma 发表于 2020-8-27 17:44:53 | 显示全部楼层
这么好的帖子不回对不起自己!. ?0 O& s* B# g2 R6 h  u7 u
Your resources, well, I am very satisfied!
" A  @& P8 r" K. `
该会员没有 ...

577

主题

1906

帖子

1万

积分

VIP advanced

金币
1631 枚
体力
4351 点

公主勋章卓越贡献勋章

21cn 发表于 2020-8-29 21:38:50 | 显示全部楼层
Bluraycd又有新电影发布了,激动中……!
! H+ D  b; e3 z) oThank you for sharing such a good resource polite reply, very sorry for myself!% P8 e; y6 K" C$ I- d* C3 G/ q. u, b6 U

本版积分规则

小黑屋|Archiver|蓝光电影资源网

GMT+8, 2020-9-22 02:37

快速回复 返回顶部 返回列表