BluRayCD Forum

 找回密码
 立即注册【分享大片】

QQ登录

只需一步,快速开始

查看: 79|回复: 3
收起左侧

[蓝光原盘] 星际传奇 [REMUX导剪重制版] Pitch Black 2000 REMASTERED THEATRICAL 1080p BluRaycd REMUX AVC DTS-HD MA 5.1-FGT 21.92GB & 23.0GB

[复制链接]

4491

主题

4663

帖子

6万

积分

Post Share

金币
8525 枚
体力
16644 点

卓越贡献勋章

黄金嫖客 发表于 2020-8-23 18:01:03 | 显示全部楼层 |阅读模式
A commercial transport ship and its crew are marooned on a planet full of bloodthirsty creatures that only come out to feast at night. But then, they learn that a month-long eclipse is about to occur.$ [3 E: l) _; b' V

5 j6 `/ f/ V; P1 ]. G 01.jpg ( q/ }9 U' s3 A6 m# P
9 s: j* o% w: M) k/ B
◎译  名 星际传奇/黑煞天魔/漆黑一片, ]4 N- [/ B$ L5 w
◎片  名 Pitch Black / The Chronicles of Riddick: Pitch Black  U/ a- Q4 P7 o, r$ `: H3 P# q5 y" m
◎年  代 20004 K$ c% `8 o' _2 [( A0 ~6 `# D
◎产  地 美国1 a! J- Y' X) Y+ D& r4 N% i
◎类  别 动作/科幻/惊悚
. w2 B* z* L0 ]9 l' r. u& `8 U◎语  言 英语/阿拉伯语
1 p$ \% m/ Q+ ?0 C6 u! t! _◎上映日期 2000-02-18
, S" |( x5 F& N◎IMDb评分  7.1/10 from 222,398 users
1 F; h0 c  \: Q1 ]◎IMDb链接  https://www.imdb.com/title/tt0134847/
1 ?" ^# L2 `# R◎豆瓣评分 7.2/10 from 24,900 users; y0 ~$ }0 K+ e7 l: I
◎豆瓣链接 https://movie.douban.com/subject/1296459/
; S; h% T$ l6 `) P# r, \◎文件格式 x264 + DTS( u& `8 s' g$ l% _& W5 O
◎视频尺寸 1920 x 1080
- x4 u- _$ R; R( e) e8 i0 i◎文件大小 1DVD 21.92 GiB & 23.0 GiB
7 U  B* d1 b5 \/ E. v0 l◎片  长 1 h 48 min
1 e' @2 g9 R8 ~◎导  演 大卫·杜西 David Twohy+ c& U1 U8 a" V' u. p7 }0 D# T
◎编  剧 吉姆·维特 Jim Wheat1 Y$ B9 o4 m4 w! m( Z$ x. M
       肯·维特 Ken Wheat& ~: G& a5 v  D7 y
       大卫·杜西 David Twohy/ \5 R% a; O5 _" g
◎主  演 范·迪塞尔 Vin Diesel
# e0 @2 O/ V0 t& Q1 s. I       拉达·米切尔 Radha Mitchell
+ l$ @+ r( L' }6 c       科尔·豪瑟 Cole Hauser9 E. z" r; i4 ^
       凯斯·大卫 Keith David8 r4 B) }) G' x2 f
       刘易斯·菲茨-杰拉德 Lewis Fitz-Gerald# I# K+ w- t) ?8 E) L0 ~+ L3 c

* N0 Q) y6 V. a( c- s◎标  签 科幻 | 美国 | 动作 | 惊悚 | 文·迪塞尔 | 星际传奇 | 2000 | 美国电影: b# W! J6 Z8 F; r" s" L# _

1 x' T; {% b5 w' A, U◎简  介  
, i+ u  W! R, Q/ `# _* B
3 l& s0 B) h- T4 d: a3 o" I8 s  在浩瀚的宇宙间,一艘名为猎人号的商用飞船正进行着漫长的旅程。船上搭载着40位乘客,其中包括重刑罪犯理查·雷迪克(Vin Diesel 饰)。当行驶到丹吉尔星系时,突如其来的事故令飞船遭受重创,空气飞速泄漏,最终迫降到一颗炎热而荒凉的星球上。着陆时的巨大冲击力几乎让飞船支离破碎,死伤者众多。幸存者们来到这片陌生的国土,严酷的自然环境考验着每一个人,不同民族不同职业的他们此时必须捐弃前嫌,联合起来。他们不仅要与天空中三个太阳作抗争,还要时刻提防隐藏在黑暗中的危险……1 p/ E3 e3 g7 w
0 X4 k0 F; F1 M( N7 ^% W
  本片荣获2001年澳大利亚摄影师协会年度最佳摄影师和金三角架奖。
8 k: j1 b* _0 b6 O, R- ^4 [6 M3 X  W) m+ u- e6 D8 m
  In the not-too-distant future, a docking pilot makes a forced crash-landing of her spacecraft on a distant planet. As the survivors explore the uncomfortably hot planet, they must band together. The planet is eerie, arid, and lifeless. But as the sun sets and the planet plunges into total darkness, other inhabitants emerge -- including a fiendish murderer with a nose for blood.
3 B+ |0 d4 O! c% N1 N7 ?/ X$ }! N/ @  V6 d( Z6 D: A* U0 Y
Video4 S5 t9 g6 ?6 s& _  a4 `% O$ N$ ^
ID                                       : 10 D3 C9 L' ?1 `
ID in the original source medium         : 4113 (0x1011). k' @6 w0 a4 Q/ P2 q- b
Format                                   : AVC: F% ]1 c- ?; X, U/ O( L6 L
Format/Info                              : Advanced Video Codec4 S, [9 e: j" Y% z
Format profile                           : High@L4.1( K& e$ U; p5 F" w3 s6 I
Format settings                          : CABAC / 3 Ref Frames
% e/ [1 [( y, d! P! O- D# \Format settings, CABAC                   : Yes$ b7 W7 u+ U) i! t
Format settings, Reference frames        : 3 frames
# ~" o$ ~- j  v0 LCodec ID                                 : V_MPEG4/ISO/AVC/ i; {2 X3 l) p4 N1 r/ {
Duration                                 : 1 h 48 min" `, e! L! q7 `- w  y* ?+ [
Bit rate mode                            : Variable
* _% Q% P& U* ~  O+ r$ n- `2 JBit rate                                 : 25.0 Mb/s
. X( O7 l  K: `% B- }Maximum bit rate                         : 35.0 Mb/s+ F# W! M. g& ^. j' i4 `) y$ _
Width                                    : 1 920 pixels- S" X0 j! r" @9 L3 Y$ t
Height                                   : 1 080 pixels2 V! l" n# S; ?) l
Display aspect ratio                     : 16:9
6 r+ j1 W0 D% t7 v+ x2 ^Frame rate mode                          : Constant* Z8 D. w7 m/ Y
Frame rate                               : 24.000 FPS
* d2 G( f4 l  ~# p! JColor space                              : YUV6 N9 o9 N* w8 W$ z
Chroma subsampling                       : 4:2:0
( i% z' ?/ c! q. Q! z% C: }4 zBit depth                                : 8 bits
) L; t! A8 l2 O; _, GScan type                                : Progressive
- M4 s- ]' Q$ J2 A" ABits/(Pixel*Frame)                       : 0.502: i; O3 y) r5 ?: v9 o
Stream size                              : 18.8 GiB (86%)
2 |; d3 c/ U, |3 @+ {  \1 ITitle                                    : Pitch.Black.2000.REMASTERED.THEATRICAL.1080p.BluRayCD.REMUX.AVC.DTS-HD.MA.5.1-FGT
7 P* q# W3 w) U: F) ~5 XWriting library                          : x264 core 157 r2969 d4099dd
2 \8 j6 f6 ~) x* T8 CEncoding settings                        : cabac=1 / ref=4 / deblock=0:-1:-1 / analyse=0x3:0x133 / me=umh / subme=10 / psy=1 / psy_rd=1.00:0.15 / mixed_ref=1 / me_range=24 / chroma_me=1 / trellis=2 / 8x8dct=1 / cqm=0 / deadzone=21,11 / fast_pskip=1 / chroma_qp_offset=-3 / threads=34 / lookahead_threads=2 / sliced_threads=0 / slices=4 / nr=0 / decimate=1 / interlaced=0 / bluray_compat=1 / constrained_intra=0 / bframes=3 / b_pyramid=1 / b_adapt=2 / b_bias=0 / direct=3 / weightb=1 / open_gop=1 / weightp=1 / keyint=24 / keyint_min=1 / scenecut=40 / intra_refresh=0 / rc_lookahead=24 / rc=2pass / mbtree=1 / bitrate=25000 / ratetol=1.0 / qcomp=0.60 / qpmin=0 / qpmax=69 / qpstep=4 / cplxblur=20.0 / qblur=0.5 / vbv_maxrate=35000 / vbv_bufsize=30000 / nal_hrd=vbr / filler=0 / ip_ratio=1.40 / aq=1:0.40 / zones=2227,2227,b=3.0! ]+ p. ?. N' B& P
Language                                 : English
& j8 b1 E/ a, X) M( E4 o* Y, WDefault                                  : No
" b" J4 ]  f2 i" g1 ]$ ^Forced                                   : No
4 _& V+ e/ ]7 r8 rColor range                              : Limited: ]9 h/ x. @4 ]3 W- H
Color primaries                          : BT.709- O+ @1 a9 u6 I# z4 Q: l. j
Transfer characteristics                 : BT.7091 F2 I. n! Q( T" R& O
Matrix coefficients                      : BT.709% i% I- V1 _, W
Original source medium                   : Blu-ray# P8 _1 M9 u0 g. f
  h; O6 d2 B! T4 m% z
Audio
2 X8 ^% `  c3 e; Q9 y/ ?ID                                       : 2
2 H5 [9 U  f% U1 H5 Y% qID in the original source medium         : 4352 (0x1100)
0 }( x3 P- t- r6 B' }; Y2 c4 `" x0 xFormat                                   : DTS XLL! \3 v+ q; T* L* Y8 I9 c
Format/Info                              : Digital Theater Systems
; t5 X! ?$ E7 O6 \2 G% b. }Commercial name                          : DTS-HD Master Audio' f3 T5 o# H* ?1 ~# d
Codec ID                                 : A_DTS. M+ w% ?( k6 W) v0 ~) C1 K" [- V) \; t
Duration                                 : 1 h 48 min
0 H% E9 f: n- [9 v5 V! d( hBit rate mode                            : Variable! M  V5 n/ w0 b6 R5 x4 P, ]5 I
Bit rate                                 : 4 114 kb/s
2 Z* E7 v8 p2 j6 |# T* yChannel(s)                               : 6 channels* N+ z8 `# M2 ^5 ?9 [8 D
Channel layout                           : C L R Ls Rs LFE4 T& W- a( e1 @
Sampling rate                            : 48.0 kHz% H7 y3 p$ f9 k& q. m* n% ]
Frame rate                               : 93.750 FPS (512 SPF)
$ f2 @: H$ R# O* `/ e( SBit depth                                : 24 bits4 `$ a$ q3 f1 E& |/ X0 N
Compression mode                         : Lossless
, r* K4 z+ W. K/ a" `Stream size                              : 3.11 GiB (14%)
3 O' `) z, y& G1 Y1 D+ |/ ]+ G) _Title                                    : Pitch.Black.2000.REMASTERED.THEATRICAL.1080p.BluRaycd.REMUX.AVC.DTS-HD.MA.5.1-FGT% u# k: F7 H# K: r0 g4 l: p+ n0 H! N
Language                                 : English0 a; D+ ?& E. W% T/ B: n" Z# N
Default                                  : Yes) u' X0 ]9 Y  y
Forced                                   : No; m' i) e7 C8 V$ [+ S0 o9 C" O
Original source medium                   : Blu-ray! ?# {* s: V6 D  f+ `
1 i5 G. H7 D6 J! w1 g
Text #1
# s& E# |2 v$ i: ?ID                                       : 30 I, F: i. g  S  A* [% i# s
Format                                   : UTF-8
2 N9 T9 Z. W+ v! WCodec ID                                 : S_TEXT/UTF82 j0 z8 T) I+ P  `3 M
Codec ID/Info                            : UTF-8 Plain Text0 \% M" B3 Y" g. V
Duration                                 : 1 h 40 min
0 Z) T# y1 G* p% ~% ^Bit rate                                 : 36 b/s: F: N8 [) x, E, b' Q
Count of elements                        : 897
) a) z* o$ @; MStream size                              : 27.0 KiB (0%)0 b: u5 D3 J6 H1 s& F8 r
Title                                    : English-SRT1 v: C* ~8 V- r+ f9 n
Language                                 : English
0 r4 \4 a$ r1 n/ d1 ^Default                                  : Yes: B/ b3 @5 X. h
Forced                                   : No
) v" {- R4 h; b7 Z/ b$ S3 ]. b1 f, Z* X
Text #27 b- P1 x# \4 B; p- g% `# }& F
ID                                       : 40 {/ ]: c( u5 V: i" r
Format                                   : UTF-84 T3 d% Y/ Y/ T% \( i8 g- {2 O' n
Codec ID                                 : S_TEXT/UTF8& J- [) j/ O( \5 H
Codec ID/Info                            : UTF-8 Plain Text% B0 Q1 n3 l; v8 X9 o3 @$ w1 R! }
Duration                                 : 1 h 40 min( U5 S6 |8 D: l  f: J
Bit rate                                 : 40 b/s: o) I5 H, P8 y) m$ Z' P1 Y9 `
Count of elements                        : 1070
- ?  I- M( u0 b- jStream size                              : 29.8 KiB (0%)  E: v2 B& K" H+ ]/ z4 d6 O
Title                                    : English-SDH-SRT- s9 x4 J+ a( v+ T2 _# M
Language                                 : English
5 a0 i, C- a  R- w% zDefault                                  : No
# C! W- Q  K+ {, ~Forced                                   : No
2 X- o: ]$ n: ^; z: Z2 h" i
4 S) x5 \# K! A( cText #3# j! Z! u* a& g+ p
ID                                       : 5
) y. m. ^$ m, B& vID in the original source medium         : 4608 (0x1200); l0 p1 Q" O/ ?- J4 }+ A% L
Format                                   : PGS
0 J0 A4 `. N" H3 SMuxing mode                              : zlib' l4 R$ s/ ~3 Y: d  r
Codec ID                                 : S_HDMV/PGS6 S( d4 ]8 e! {) I
Codec ID/Info                            : Picture based subtitle format used on BDs/HD-DVDs
6 c8 Y6 ]0 o8 f! \0 F1 LDuration                                 : 1 h 40 min2 K# t. @5 M; U6 m6 g9 a# N
Bit rate                                 : 27.1 kb/s/ K2 x( C; b% O( X! y  \/ A7 U- f' o7 s
Count of elements                        : 2140" D1 L) Z7 v, T: d
Stream size                              : 19.5 MiB (0%)& I. ~3 N" F/ i- p9 P5 J0 y1 p
Title                                    : English-PGS  r0 N$ a$ O' O% K4 a5 S* u$ @
Language                                 : English( X) x+ a( X1 F6 t5 \( Z$ W& w
Default                                  : No
& E& H# k' N( P$ ?Forced                                   : No' l: l) r: f3 j
Original source medium                   : Blu-ray
' a5 s: j& ^" e5 [$ J' x8 H  ?; N8 l/ H% s+ S. P, q: T
Menu" E3 |' y3 |" d( |* E; W# M9 K
00:00:00.000                             : en:Chapter 01& {0 c# `- R: q
00:11:13.083                             : en:Chapter 02
% \. i8 r5 \- W1 W% _" n00:18:01.250                             : en:Chapter 03
5 M1 \: B1 }) p/ g00:26:38.625                             : en:Chapter 048 R6 S* `7 y. g( d2 f  r9 i: H
00:35:36.375                             : en:Chapter 05
) D! P6 H: g% X8 V4 {00:44:28.583                             : en:Chapter 06
) j; ?* i6 M1 k: p* E$ O$ c1 x00:52:34.083                             : en:Chapter 072 b& [& i$ z- Z2 }3 m6 X) w, x
00:58:59.375                             : en:Chapter 08
/ k/ D. Y. _% q* B  N01:08:38.583                             : en:Chapter 09
8 C" t5 H/ e4 t) S" p01:15:36.583                             : en:Chapter 10
# F4 D( k' [' L; v01:29:57.000                             : en:Chapter 11
* E" T6 _" @1 E$ ~- R+ t01:35:38.166                             : en:Chapter 12
Video
9 s9 E5 z5 S6 t0 D0 M" w$ m4 u1 w* y) NID                                       : 1* N  E- h! y) J$ m& T2 y
ID in the original source medium         : 4113 (0x1011)3 s. g6 ?2 J- b! c
Format                                   : AVC! K: V3 V* ^+ Y+ N! i* N+ K
Format/Info                              : Advanced Video Codec
3 j/ E6 ?$ p- Q2 T- h4 jFormat profile                           : High@L4.1
5 w! L7 N1 U- K; _" z8 @Format settings                          : CABAC / 3 Ref Frames6 \. u8 [; ?, `( w( @
Format settings, CABAC                   : Yes0 S- O8 ]5 @1 x* F4 d$ r+ H
Format settings, Reference frames        : 3 frames
8 D7 E' o4 X: P/ B6 kCodec ID                                 : V_MPEG4/ISO/AVC
& Y6 y3 j: k8 E9 O( t/ K5 DDuration                                 : 1 h 51 min
9 S' B9 K; t, X' x7 V3 F$ cBit rate mode                            : Variable+ |% S* L- n- p5 b
Bit rate                                 : 25.0 Mb/s
  S0 m; o) A& T. lMaximum bit rate                         : 35.0 Mb/s
, l8 k& K2 U' s9 x# v2 i) G% A3 n, zWidth                                    : 1 920 pixels
" }. t; N  y, Y5 Q2 e0 h6 dHeight                                   : 1 080 pixels8 n" _' z. f$ m5 h
Display aspect ratio                     : 16:9
/ |% h; U- T3 D. k$ `0 ^Frame rate mode                          : Constant
( \6 j- ^0 a! I! GFrame rate                               : 24.000 FPS- d& h6 H/ ^, _
Color space                              : YUV: I& v7 l  L0 b; }' d
Chroma subsampling                       : 4:2:09 B# x4 a, ~/ k3 R
Bit depth                                : 8 bits
: R; B* U4 l) f. l& ~% TScan type                                : Progressive- i. R( ~$ X$ x# p  @2 ~5 U% Y
Bits/(Pixel*Frame)                       : 0.502
" n- Z! U, h2 S: k$ WStream size                              : 19.4 GiB (85%)
1 o3 V  y. [5 {9 @: V8 jTitle                                    : Pitch.Black.2000.REMASTERED.DC.1080p.BluRaycd.REMUX.AVC.DTS-HD.MA.5.1-FGT
) F+ n! w0 k4 P5 c! L8 T9 KWriting library                          : x264 core 157 r2969 d4099dd
: T% }4 N! K0 X* F8 B8 O5 AEncoding settings                        : cabac=1 / ref=4 / deblock=0:-1:-1 / analyse=0x3:0x133 / me=umh / subme=10 / psy=1 / psy_rd=1.00:0.15 / mixed_ref=1 / me_range=24 / chroma_me=1 / trellis=2 / 8x8dct=1 / cqm=0 / deadzone=21,11 / fast_pskip=1 / chroma_qp_offset=-3 / threads=34 / lookahead_threads=2 / sliced_threads=0 / slices=4 / nr=0 / decimate=1 / interlaced=0 / bluray_compat=1 / constrained_intra=0 / bframes=3 / b_pyramid=1 / b_adapt=2 / b_bias=0 / direct=3 / weightb=1 / open_gop=1 / weightp=1 / keyint=24 / keyint_min=1 / scenecut=40 / intra_refresh=0 / rc_lookahead=24 / rc=2pass / mbtree=1 / bitrate=25000 / ratetol=1.0 / qcomp=0.60 / qpmin=0 / qpmax=69 / qpstep=4 / cplxblur=20.0 / qblur=0.5 / vbv_maxrate=35000 / vbv_bufsize=30000 / nal_hrd=vbr / filler=0 / ip_ratio=1.40 / aq=1:0.40 / zones=2227,2227,b=3.09 H7 L4 O$ S6 v
Language                                 : English: g" u9 b2 u8 {
Default                                  : No
7 ]  H. _. w4 T& E. B) f9 JForced                                   : No- B: y. e: K2 K' [
Color range                              : Limited7 x" w  W# D: _3 f, P; q' N
Color primaries                          : BT.709
2 A/ Y& [) f: {2 ?" B' g+ CTransfer characteristics                 : BT.709! H6 r6 N3 b( y% K- D, ^# y
Matrix coefficients                      : BT.709
, N( z: e, {4 b6 hOriginal source medium                   : Blu-ray# o, [2 Y- u0 ^0 i. z

8 L4 N% q; u- m8 s% xAudio #1; a6 ~; S4 i8 L1 [
ID                                       : 26 E* v# q7 m$ m$ X) N/ o
ID in the original source medium         : 4352 (0x1100)
: Z) V9 u* J+ X6 l: }+ ^Format                                   : DTS XLL. N2 c5 a$ N0 [4 B+ @
Format/Info                              : Digital Theater Systems- e' P) I4 Q/ V$ t$ y# ^/ U
Commercial name                          : DTS-HD Master Audio% _7 j! [  Z+ Q0 q! n' g
Codec ID                                 : A_DTS
7 |/ @3 W) l; Z3 j( |! TDuration                                 : 1 h 51 min9 `8 I' t3 u0 I: z: h
Bit rate mode                            : Variable" v  H. {4 P# Q5 M, d% Y, _
Bit rate                                 : 4 158 kb/s3 K# }4 K3 S/ z2 }/ [
Channel(s)                               : 6 channels
4 Z1 O2 V/ n( eChannel layout                           : C L R Ls Rs LFE- W8 C* L* w% r5 w! \
Sampling rate                            : 48.0 kHz/ E: n. H7 n& V( E1 V7 ?
Frame rate                               : 93.750 FPS (512 SPF)& ~* C* N( N! g+ Z4 s4 ?: a
Bit depth                                : 24 bits/ J4 g% v( j; H, x! M- d& _
Compression mode                         : Lossless
" t9 r3 e; T1 S8 S3 A: V6 hStream size                              : 3.25 GiB (14%)( l7 {3 i8 a1 u; `
Title                                    : Pitch.Black.2000.REMASTERED.DC.1080p.BluRaycd.REMUX.AVC.DTS-HD.MA.5.1-FGT5 C5 D& ~$ G7 V$ m3 n
Language                                 : English; x8 B# V0 z! u; D
Default                                  : Yes
- a) V& V5 @" K$ t- JForced                                   : No! `# ^  P" n5 M% ~3 f$ ~2 o
Original source medium                   : Blu-ray% I  N8 |: ]3 S

$ R8 r! p7 t7 ^6 `- mAudio #2
# L* }% N0 N2 ]2 U9 {* Z0 @ID                                       : 3: C+ f" k' Z5 B. W8 r# [
ID in the original source medium         : 4353 (0x1101)4 S( L. ]0 r9 m  Z
Format                                   : AC-3' y! F  r8 \$ u% F; B3 o
Format/Info                              : Audio Coding 3
  ?5 T/ ]- _$ NCommercial name                          : Dolby Digital
6 S8 p8 W8 _. Q" ECodec ID                                 : A_AC3
$ N5 d9 x% s/ x& rDuration                                 : 1 h 51 min
& N9 W1 }3 M- V  f' V, {Bit rate mode                            : Constant6 N- x) o1 e0 u, V5 ~8 ]4 G5 @
Bit rate                                 : 192 kb/s
2 i- v# ^! Y. iChannel(s)                               : 2 channels
/ T$ X# R3 |3 m) q# [Channel layout                           : L R" e, ]- |1 U" D7 N2 J
Sampling rate                            : 48.0 kHz
1 P- I4 B6 T& S  n. iFrame rate                               : 31.250 FPS (1536 SPF). q0 ~! F% B( {' ~. y* k- ^
Compression mode                         : Lossy: Q+ J( B( d5 ?# C+ }% x
Stream size                              : 153 MiB (1%)# z3 d+ a0 P; d
Title                                    : Pitch.Black.2000.REMASTERED.DC.1080p.BluRaycd.REMUX.AVC.DTS-HD.MA.5.1-FGT
! Q4 g  Y( W3 G( T* xLanguage                                 : English3 _% t3 c- [) q' B
Service kind                             : Complete Main
9 l/ u) N, d/ d5 h& [0 ^8 aDefault                                  : No
/ t+ h. z9 Y3 w- F& a0 ^Forced                                   : No5 X* }. }! Y2 l
Original source medium                   : Blu-ray
7 h3 n5 n# l: ^' ?! B$ Y# Q
- J4 w8 L4 N7 a7 s, C6 f0 T, PAudio #3
( g! k$ L8 b2 }. y$ M1 e) N' LID                                       : 4
1 t  c& ]) ~0 n4 a, s3 i) h; C% J( EID in the original source medium         : 4354 (0x1102). b/ n+ m9 o' c- X! |; q
Format                                   : AC-30 Z/ z6 x& x$ d4 F" ^
Format/Info                              : Audio Coding 32 e2 E: [+ K: F$ |
Commercial name                          : Dolby Digital
8 o, H- h; c* x: ^7 y9 cCodec ID                                 : A_AC31 _- L6 b; h8 B- j
Duration                                 : 1 h 51 min
& C6 `9 z. g& `0 }7 K$ J% }7 fBit rate mode                            : Constant
/ w# B; `6 j9 p( V+ N* D2 i/ RBit rate                                 : 192 kb/s
$ r. k, C5 G% S1 l5 [1 D  P. {Channel(s)                               : 2 channels$ d* W& H4 T& R8 Q2 d
Channel layout                           : L R
  Z9 R" n2 h" s, jSampling rate                            : 48.0 kHz& D$ }  u/ {- ]) h
Frame rate                               : 31.250 FPS (1536 SPF)( A4 h$ i! \9 O' s. x
Compression mode                         : Lossy3 n: D1 F) J9 `- f
Stream size                              : 153 MiB (1%)
8 a) Z& f- C' Z9 |: H7 W, OTitle                                    : Pitch.Black.2000.REMASTERED.DC.1080p.BluRaycd.REMUX.AVC.DTS-HD.MA.5.1-FGT
+ @5 Q: C/ g" X/ Y; Q+ qLanguage                                 : English
( Q2 q, j& b+ ]3 E7 O/ m1 CService kind                             : Complete Main: s' J: z2 v( M( _
Default                                  : No
5 z' u9 R5 e5 c, V4 }Forced                                   : No
3 T4 A; W; Z! Q5 |5 d" X( _% `  x9 `Original source medium                   : Blu-ray
4 J- B; q, m1 q0 V! \' a& y
/ K! r& }3 |* T- D; n& ?Text #1! E: w5 Q6 z- b$ I& p8 U9 ]
ID                                       : 5
6 m% h9 M' k5 F1 J" zFormat                                   : UTF-8
0 _3 d3 @9 B$ `; zCodec ID                                 : S_TEXT/UTF83 Q. I1 p2 @' l+ Y
Codec ID/Info                            : UTF-8 Plain Text0 l  y8 S6 a. N3 K
Duration                                 : 1 h 44 min: L4 e3 H' }" ~1 A9 c- v
Bit rate                                 : 37 b/s
! l! R# E. g& A! J* [Count of elements                        : 949
- i0 ~$ k5 r0 p* U2 M9 x  CStream size                              : 29.0 KiB (0%)" h# I' ]8 ^) h
Title                                    : English-SRT
: e7 Q1 ^# Y/ ^Language                                 : English2 Z3 h% @. E7 l5 ?, S% \6 G& b6 H( W( ?
Default                                  : Yes
, k; `. S7 Z8 [; {7 B# uForced                                   : No3 h) U+ i4 `$ @' x3 u# r3 w/ k
8 B7 E. i( W& K' D6 D, w
Text #2  A' x2 }/ e& _/ u' h! y: Z
ID                                       : 6
3 T' L/ D( ?1 O& Q/ W& fFormat                                   : UTF-8* Z1 k! F! _1 Y
Codec ID                                 : S_TEXT/UTF8
; c$ c4 a' W2 Z; K' V* tCodec ID/Info                            : UTF-8 Plain Text
, _+ Q. O5 ]  K" L. d% ]( lDuration                                 : 1 h 44 min
/ W6 j! i1 \, u( k( D& C+ D& LBit rate                                 : 41 b/s
& V% s' b$ u3 U( S! ]: xCount of elements                        : 1123
$ x+ I9 _( r4 a7 w* j6 fStream size                              : 31.8 KiB (0%)
0 L5 R; j7 J. D% w# wTitle                                    : English-SDH-SRT% f! X  g1 s5 w1 R3 D
Language                                 : English
' K$ P* v0 O9 J/ ~0 H* pDefault                                  : No6 F7 m) d: D/ r! K$ ~/ \, U  v
Forced                                   : No
: I  P1 I3 R- {/ V, c; x0 s
, u$ ]; l* c, g' i. ?4 v$ g! l% EText #3
  R# K9 l' v$ UID                                       : 7. C# _9 f! j$ b0 L! @$ |2 l
ID in the original source medium         : 4608 (0x1200)' y! P7 `( S2 R- _- R7 i8 ^
Format                                   : PGS  x: u! v  a9 V5 Y
Muxing mode                              : zlib
/ j" x& I( ]) L4 D& S/ UCodec ID                                 : S_HDMV/PGS
% Y: }1 F& I3 j. s  w3 t9 dCodec ID/Info                            : Picture based subtitle format used on BDs/HD-DVDs
, V9 s. A) }6 P/ P4 BDuration                                 : 1 h 44 min
% C- U! B9 y1 W' p: ]Bit rate                                 : 27.8 kb/s
& q& ]: ~: A6 s7 z& X" ZCount of elements                        : 2246% @  i; j1 E" b  j
Stream size                              : 20.8 MiB (0%)
' c; C1 u* ]. ^7 pTitle                                    : English-PGS/ O, F6 F! s* B4 D
Language                                 : English
% e5 r. V% `6 J. NDefault                                  : No
$ {' K* L3 r' \9 O2 W8 A+ `Forced                                   : No: w; G% E. V# R" m
Original source medium                   : Blu-ray
6 c! {3 y$ F7 S; i/ e9 h4 M* s: Z# W/ @" O- E+ z8 c
Menu4 S9 R3 ~* }' T. J8 }
00:00:00.000                             : en:Chapter 011 W/ Y$ q3 n" o0 \( F
00:11:13.083                             : en:Chapter 02; n8 o' k3 ?" }- E! P- ]: m  o. e- f
00:18:27.166                             : en:Chapter 03
, e( \2 ~2 E* E. E4 x% X8 ]* a. [00:27:09.708                             : en:Chapter 046 ^0 [1 g6 r/ `# N7 [) H  y
00:36:45.458                             : en:Chapter 05
: _! l- c1 N: ~' k00:46:35.916                             : en:Chapter 06
- s8 Z  [" O' W6 d00:56:13.625                             : en:Chapter 07& Q" |: x2 M- Z: P5 k" \5 o
01:02:39.875                             : en:Chapter 083 w2 x/ L4 l/ \
01:12:18.125                             : en:Chapter 09
( x- D% ^4 k5 T) ^, Z) h7 F01:19:16.125                             : en:Chapter 10
# S$ F9 @6 ^9 C9 v- R3 s01:33:36.541                             : en:Chapter 114 M- s8 g; t. _& ]4 B
01:39:17.708                             : en:Chapter 12
4 U* y  d: S9 P$ G% V: J# H
游客,查看本帖隐藏内容请回复 | 加入VIP贵宾组可免积分免回复下载 了解详情 | 还不是会员:点击获取邀请码 Invitation Code

56

主题

1370

帖子

4931

积分

Sponsor

金币
224 枚
体力
1882 点
lanpanshuma 发表于 2020-8-27 17:50:14 | 显示全部楼层
啥也不说了,楼主就是给力!
# _. R- l5 V9 q8 k- w2 AThe decisive Replies sink is I get the sinking feeling great sense of accomplishment!
7 B( z6 `2 |9 P* W7 T
; G2 [, g/ \4 r) |" k$ K
该会员没有 ...

577

主题

1906

帖子

1万

积分

VIP advanced

金币
1631 枚
体力
4351 点

公主勋章卓越贡献勋章

21cn 发表于 2020-8-29 21:37:36 | 显示全部楼层
沙发是抢的而不是占的!
! n8 z0 p( W$ ]! W* VI love your Blu-ray movies Forum!! s, o% b0 H, n7 ~3 b: g

0

主题

191

帖子

644

积分

Sponsor

金币
25 枚
体力
281 点
060701300 发表于 2020-9-5 11:41:18 | 显示全部楼层
谢谢楼主分享

本版积分规则

小黑屋|Archiver|蓝光电影资源网

GMT+8, 2020-9-22 02:12

快速回复 返回顶部 返回列表