BluRayCD Forum

 找回密码
 立即注册【分享大片】

QQ登录

只需一步,快速开始

查看: 70|回复: 3
收起左侧

[蓝光原盘] 不可抗拒/无法抗拒 [REMUX无损版] Irresistible 2020 1080p BluRaycd REMUX AVC DTS-HD MA 5.1-FGT 26.70GB

[复制链接]

7746

主题

7940

帖子

6万

积分

Forum Moderator

金币
10463 枚
体力
9527 点

卓越贡献勋章

24小时 发表于 2020-8-25 18:57:58 | 显示全部楼层 |阅读模式
01.jpg 9 N( v6 K5 q: M: Z6 l" \

* I/ z: i- P; x9 Z3 r2 M◎译  名 不可抗拒/无法抗拒
8 c3 E/ \- \  h# Z5 K◎片  名 Irresistible7 [/ O' \( P0 ]) S
◎年  代 2020
3 V: k3 l0 }. F6 S# _* Y◎产  地 美国
# \: Z: u2 Y# \$ y, O◎类  别 剧情/喜剧, k5 c' }8 J4 w2 J
◎语  言 英语- |9 w2 y( L7 ~3 D# \
◎上映日期 2020-06-26(美国): F* q+ {) B9 F: {) Q
◎IMDb评分  6.2/10 from 5,636 users
) n( m! X6 c* y$ S7 I/ o1 e◎IMDb链接  https://www.imdb.com/title/tt9076562/% X5 ]1 p7 s2 d& Z% Z
◎豆瓣评分 7.4/10 from 1,815 users* P. h, T5 G$ J# u2 y. t
◎豆瓣链接 https://movie.douban.com/subject/30482204/
8 j6 V, j! D  n  t6 p& x1 O◎文件格式 x264 + DTS
7 y. p( p2 L) |8 z* ^' Z◎视频尺寸 1920 x 1080
+ A; k9 ]2 C$ p* Z5 T- f◎文件大小 1DVD 26.72 GiB2 B* T  `0 p8 x" Y1 ~! `  g& P& `
◎片  长 1 h 41 min  X1 K' j( S) Z+ G
◎导  演 乔恩·斯图尔特 Jon Stewart
' N: f: o( o7 ^/ ?9 W& U- A: v◎编  剧 乔恩·斯图尔特 Jon Stewart- s* o1 O- S4 n2 T+ A9 x
◎主  演 史蒂夫·卡瑞尔 Steve Carell
  y2 o- K' H! F0 b' c       罗丝·伯恩 Rose Byrne
( G) }& f7 L3 ]8 a) N       麦肯兹·戴维斯 Mackenzie Davis
# R6 T2 a9 W' b- H8 I6 X       娜塔莎·雷昂 Natasha Lyonne
, q+ r7 t4 b: Q5 S       克里斯·库珀 Chris Cooper' [5 x5 q$ P' D+ g- D
       托弗·戈瑞斯 Topher Grace
0 a" g4 M2 N' W       黛博拉·梅辛 Debra Messing
/ m2 ?( Y2 J! `  B       威尔·萨索 Will Sasso5 u9 J# A# I* ^
       布伦特·塞克斯顿 Brent Sexton9 v! F1 H5 g- \- `" Z
       伊芙·戈登 Eve Gordon
5 S, S7 [, k7 j' Z& }( n       艾伦·艾森伯格 Alan Aisenberg4 V# N) o9 B" H
       杰森·戴维斯 Jason Davis
. h- \5 c7 z/ V9 x: N5 Y       C·J·威尔逊 C.J.Wilson% m: s1 I, I+ \9 S, J
       查尔斯·格林 Charles Green6 j) z5 r4 S3 p/ y% s
       威廉·托卡斯基 William Tokarsky9 d) m1 @- g3 x  \1 j, W
       帕蒂·舍尔哈斯 Patti Schellhaas
8 P$ J" J$ u. \. V       Steve Barnes, D9 l2 q5 C( ~& G
       皮特·布里斯 Pete Burris
' l. G0 _/ W3 [' l6 Y       埃莫·欧文斯 Amor Owens5 ?4 ]# X7 X, |* G  _
       Rick Yudt8 J. W) Z/ a: C" R1 }
       Sasha Morfaw
5 Y5 h" |5 \6 J3 c, n6 V9 l3 w0 ~5 Q* K       Annie Cook
- G/ ?/ e" q3 }# K9 ?% Y. S       Jason Vendryes
9 w. W6 D" @! c3 T       蕾丝·拉雷比 Lace Larrabee# V, ]$ o$ e6 E4 F1 o9 e
       罗伯特·廷斯利 Robert Tinsley9 d8 C3 k3 m- w
       Jen Nikolaisen2 e$ I. q0 s4 {0 _
       Andrea Frankle
& a5 J# k6 j; @& N
& Y" [" }% B; Z2 `  ^◎简  介  2 `6 P) e- {* B. a

" g0 i! ^9 B1 E  萝丝·拜恩商谈加盟史蒂夫·卡瑞尔主演,乔恩·斯图尔特自编自导影片[不可抗拒](Irresistible,暂译),故事讲述了一位老练的民主党战略家(卡瑞尔饰)在威斯康星州的一座右翼小镇,帮助一位退休的老将竞选市长。拜恩有望饰演卡瑞尔的民主党对手。
8 g0 @# `* a% w% r2 G4 [7 y1 B
8 X, p" E2 Z' q# @  A Democrat strategist helps a retired veteran run for mayor in a small, conservative Midwest town.
% H" M2 v" R$ U
Video
3 \4 P% E! [! v6 _" RID                                       : 1! V% O# w  L! {3 U5 W
ID in the original source medium         : 4113 (0x1011)
- i; ~; B5 _  c: yFormat                                   : AVC$ Q% K& ]# O, `* ~3 E/ ~7 _( t
Format/Info                              : Advanced Video Codec9 F( w" Z0 d0 I* D" e& r
Format profile                           : High@L4.1
, Z+ Y2 a# Z# I$ O' D, n5 CFormat settings                          : CABAC / 2 Ref Frames
+ s, N. b7 C! SFormat settings, CABAC                   : Yes, {  q6 b1 R- E% U
Format settings, Reference frames        : 2 frames
6 W! x; y* }' q7 {2 l% ]Format settings, GOP                     : M=1, N=10
5 p1 h. J3 R' Z. {/ f) ~Codec ID                                 : V_MPEG4/ISO/AVC
" L/ R5 F0 f# v$ b% nDuration                                 : 1 h 41 min; u8 K; I' P7 w; D
Bit rate mode                            : Variable' \: e: H2 h& W/ G8 ]. F
Bit rate                                 : 33.8 Mb/s
3 o' N6 ?3 P  Z- SWidth                                    : 1 920 pixels/ o; a4 N8 C- n- O& O% @- L
Height                                   : 1 080 pixels, f' N9 w' m* A/ n7 w
Display aspect ratio                     : 16:9
/ C4 k. O  H$ M  [( DFrame rate mode                          : Constant
$ Q* D4 a; O! j1 nFrame rate                               : 23.976 (24000/1001/37687) FPS- K4 C9 v8 ~, a8 ]+ B
Color space                              : YUV* i6 j" w, @8 I/ j7 Y- T
Chroma subsampling                       : 4:2:07 V( ]0 W9 ^  K$ T( l+ E* Q
Bit depth                                : 8 bits9 e$ B- [2 ~0 p$ i
Scan type                                : Progressive0 P9 y3 F# y' j9 m! D1 g
Bits/(Pixel*Frame)                       : 0.680
8 f1 t) K( U7 z- fStream size                              : 24.0 GiB (90%)3 f- G; }; m( `- s( o  c
Title                                    : Irresistible.2020.1080p.BluRayCD.REMUX.AVC.DTS-HD.MA.5.1-FGT, Y; |6 E( o; s
Language                                 : English
  w: k3 g$ Y6 |2 ?+ F2 K6 v/ fDefault                                  : No
$ K8 r; D, D; B4 U; }2 {: jForced                                   : No
* G+ v" u! l- f; ~. jOriginal source medium                   : Blu-ray( S8 O3 l" I6 u9 C) n8 Q

" Z3 n$ @5 ?+ ?* _+ {8 TAudio #18 @; z# g( [! u$ C
ID                                       : 2( k) n& |1 @& F# x" I
ID in the original source medium         : 4352 (0x1100)
8 D% Q: x, B: v$ |/ F( xFormat                                   : DTS XLL
% ^8 o; p, x1 G/ ?Format/Info                              : Digital Theater Systems
1 ~$ ]7 b" @$ uCommercial name                          : DTS-HD Master Audio) v0 O. f+ H! B3 m( m
Codec ID                                 : A_DTS( z$ K4 J- \/ q! s4 q9 t6 O
Duration                                 : 1 h 41 min& W' [, r! x1 _5 g
Bit rate mode                            : Variable
. D0 t3 ~  o" v/ t) ABit rate                                 : 3 558 kb/s0 a4 H( Z- g0 K
Channel(s)                               : 6 channels8 L9 O! x2 R' ^2 P3 U* L. f* j
Channel layout                           : C L R Ls Rs LFE" C; n. d; Y2 g
Sampling rate                            : 48.0 kHz
2 A' Y+ x9 N. Z& c) P( SFrame rate                               : 93.750 FPS (512 SPF); Z  a; l/ u! \, V, J. {
Bit depth                                : 24 bits1 w" _' }+ O+ E+ W" E
Compression mode                         : Lossless& E: n4 k, Y% J$ U  |9 x9 V7 q
Stream size                              : 2.53 GiB (9%)
/ X: p& X* R4 L2 YTitle                                    : Irresistible.2020.1080p.BluRaycd.REMUX.AVC.DTS-HD.MA.5.1-FGT
' K9 ^& u: ^% n% eLanguage                                 : English
! b  K8 e/ L( [$ w# g: {7 SDefault                                  : Yes
6 H* i6 v1 Z# ~* }& W! `$ pForced                                   : No
0 p4 y( \3 p) e+ ^2 wOriginal source medium                   : Blu-ray
4 u9 A1 _* e7 Q; F7 m( Z( t5 l9 l4 l4 U" R$ l8 s9 W
Audio #2
7 u$ x# b5 l- z% gID                                       : 3
+ _4 X7 E/ A# c+ zID in the original source medium         : 4353 (0x1101)
& M& U4 A1 Y  O6 @8 mFormat                                   : AC-3- \0 A% l2 o" v# g
Format/Info                              : Audio Coding 3
) X) T* C( t5 C, b: CCommercial name                          : Dolby Digital- ?3 q8 z5 r) B( Z6 K6 l1 [* t
Codec ID                                 : A_AC3
# H. r8 f- o3 QDuration                                 : 1 h 41 min' p0 L  O) Z" V
Bit rate mode                            : Constant; X) s% V  p2 F% z
Bit rate                                 : 192 kb/s
4 S, _2 I. }0 g9 e6 A# ]Channel(s)                               : 2 channels
! x, c1 T# s+ H: d- Q. k& B1 t/ \; QChannel layout                           : L R
7 |1 H0 |- K8 S% R% qSampling rate                            : 48.0 kHz
3 ]6 v  V+ ?& T* r) PFrame rate                               : 31.250 FPS (1536 SPF)
  Q0 t7 m/ q+ B1 I) jCompression mode                         : Lossy/ a% s8 j* v+ t2 u( d
Stream size                              : 140 MiB (1%)
1 M* ~4 ]# J0 ^% ]1 xTitle                                    : Irresistible.2020.1080p.BluRaycd.REMUX.AVC.DTS-HD.MA.5.1-FGT
2 |8 \% L: d0 n+ \% E( QLanguage                                 : English. {: q7 M5 D. @. X" ~5 o' {' c. ~, K
Service kind                             : Complete Main
2 ~5 v9 [/ w# ^& u& ~* hDefault                                  : No
9 R" e7 v5 G; g& `2 @! c8 R! o+ ~  {( _6 ~Forced                                   : No( s. z! Y7 l( A; J! Q
Original source medium                   : Blu-ray8 o4 l; J. G4 F/ `. f0 J- l

4 S0 h1 x  v9 m& A* a! |Text #12 `0 ~7 r& s+ d2 _( {3 \+ _4 }
ID                                       : 4
+ ^8 H+ m/ K1 ~: dFormat                                   : UTF-80 I5 E( f( F& E& ~' D' R  W; O/ c
Codec ID                                 : S_TEXT/UTF8
- s' W  F  S$ c; s. FCodec ID/Info                            : UTF-8 Plain Text
- ?; _( `4 w4 l+ C$ s+ MDuration                                 : 1 h 40 min
5 r: |; N2 p1 e. t/ c4 k# V9 Q, z: ZBit rate                                 : 87 b/s
8 H- i1 [; }: V# wCount of elements                        : 1681
) z7 i+ m8 V3 ^7 q: j  A" {Stream size                              : 64.5 KiB (0%)
* F6 u% f5 C$ o6 \Title                                    : English-SRT) P3 b* Q& b, k9 z! ?2 J( e
Language                                 : English, _7 m+ ^4 Y, G
Default                                  : Yes" e0 v: O! V& ]3 ^" A
Forced                                   : No  p& ?6 b! L0 B, V: s0 A' t

1 d/ G# f& t% A% ]* UText #2: q# \( s! c1 p2 K+ W/ Y
ID                                       : 5
7 ^1 h! w$ ?& A$ B2 ^5 ZID in the original source medium         : 4608 (0x1200)/ b1 G5 N5 ?' q
Format                                   : PGS
, u" l% ~% E( EMuxing mode                              : zlib- F) Q/ t% t. O4 E% [& i
Codec ID                                 : S_HDMV/PGS
4 O. O! A, w: l/ ?0 QCodec ID/Info                            : Picture based subtitle format used on BDs/HD-DVDs
6 r; n4 s2 [/ \. \' s# p  fDuration                                 : 1 h 40 min1 u5 K3 M( r& x" z2 A
Bit rate                                 : 62.6 kb/s# b- J2 v9 u! ^) k# j! N7 N  ]
Count of elements                        : 35506 ~/ x8 ?- M, O
Stream size                              : 45.1 MiB (0%)( b# L5 `! O; {9 P  c
Title                                    : English-PGS' m# N& Q1 f" @6 n/ w
Language                                 : English- [( P+ G5 }7 q: j! @9 B# f9 O
Default                                  : No, I/ G6 [& h' M* d' q( [
Forced                                   : No3 Y0 N# u1 l9 _5 ?
Original source medium                   : Blu-ray+ w$ N5 |% s' j6 d- h) H% X

- g" n  ?9 W6 P% v4 c7 ]Text #3
3 G3 a- V) s' v% z5 hID                                       : 6
0 _5 x2 h5 v. \( c) s7 t8 G- oID in the original source medium         : 4609 (0x1201)
; k0 o6 X* D/ w( _$ P! HFormat                                   : PGS" F' R( R" n0 O* ]  k( ]! Y! X) y  L
Muxing mode                              : zlib* f8 O. d0 X) x+ \
Codec ID                                 : S_HDMV/PGS
* ]/ Q! j' [2 _; `- {Codec ID/Info                            : Picture based subtitle format used on BDs/HD-DVDs
# ]' M# A" N4 O* _) @5 iDuration                                 : 1 h 41 min
' y  d$ O/ z3 O) e# v0 @5 kBit rate                                 : 51.5 kb/s( i$ z! x% Z5 |
Count of elements                        : 3254
2 r- x) L( x5 X! hStream size                              : 37.3 MiB (0%)
1 s1 s) O0 ?, A0 ^# @1 cTitle                                    : Spanish-PGS4 V1 o3 _7 J5 t6 i
Language                                 : Spanish
% u2 E1 g2 d# i8 z9 sDefault                                  : No4 q- Y1 L  D6 ?/ B9 S. I9 V9 f
Forced                                   : No
$ V# R$ d# ^6 Q, H7 _Original source medium                   : Blu-ray
+ }5 t! q! k# B0 O- ?) k2 }3 @5 G0 C5 f& q+ O! v# S& ~. T
Text #4
; d# \& g% C+ o8 S% o! c) }! SID                                       : 7& q- f* a( d8 x1 c& F& }
ID in the original source medium         : 4610 (0x1202)" R: `  v  p3 ~0 w3 l& A$ @. _3 y
Format                                   : PGS/ O/ G, V' S% D7 K+ n/ U( t
Muxing mode                              : zlib
7 I) x8 X9 D( g/ f9 U+ N0 t4 yCodec ID                                 : S_HDMV/PGS
$ H% R: d% K2 ?: f! n2 LCodec ID/Info                            : Picture based subtitle format used on BDs/HD-DVDs- a( W2 Q& a# ^0 C& Z  H% G
Duration                                 : 1 h 41 min0 W' H8 M# i; D  m
Bit rate                                 : 60.9 kb/s6 ]" ?! I8 m$ i( ~  e
Count of elements                        : 33364 \9 b- O3 U$ q: n4 O1 y
Stream size                              : 44.1 MiB (0%)
+ R/ Y+ @2 x$ N; ?Title                                    : French-PGS
0 E9 R* G( A. P8 z) b+ ?Language                                 : French0 c4 V2 ^9 v. v/ {
Default                                  : No5 G% K: F8 g; }6 O0 p+ |
Forced                                   : No
- R7 @* Z' r* U7 }Original source medium                   : Blu-ray
. J2 x8 q- _$ F. b5 ]/ t* d8 j
/ n) n- d( g6 u0 WMenu
3 n  R/ n$ W& ?- d4 ~$ |00:00:00.000                             : en:Chapter 017 T$ Y. h, q& O  B' }
00:04:51.040                             : en:Chapter 028 Q  s8 S1 E2 Y0 l
00:10:15.406                             : en:Chapter 03) Y4 x6 C% E- t( s2 R+ H, ?
00:13:29.016                             : en:Chapter 04
$ M3 ^) }( _, P, Y00:18:12.716                             : en:Chapter 05
* `+ x$ z$ o0 E' h, q' W* O, o6 Z* p00:25:48.713                             : en:Chapter 06/ Q$ ~9 |3 \/ x0 [: ?& B
00:29:34.898                             : en:Chapter 07
, P7 G% J- W( {+ ]00:35:03.810                             : en:Chapter 08
0 \7 ~; v- O/ U  |" b0 a: @00:38:58.461                             : en:Chapter 09
1 e7 q" ?# z2 D- c00:43:48.792                             : en:Chapter 109 X) a/ |7 i3 X1 `) P- r
00:48:48.133                             : en:Chapter 114 D) X, o7 z/ p3 N' R* M
00:54:43.154                             : en:Chapter 12
$ f& ~% \! U2 ]8 }, f01:02:36.085                             : en:Chapter 13
* q6 J8 l5 i' T$ V01:08:10.294                             : en:Chapter 14
" `+ r' q  {3 g" e01:12:35.976                             : en:Chapter 15$ i- V/ a- I9 ~# ~$ o) a* m5 b
01:17:51.249                             : en:Chapter 16
8 X0 ^4 [- e( W4 C2 ?  y  R01:21:37.475                             : en:Chapter 17* ?& d, u3 `$ g( H
01:25:55.024                             : en:Chapter 18
$ [6 @& t8 ?% A& q! ?; ]01:29:29.405                             : en:Chapter 19, p+ b2 F8 o5 `
01:35:00.945                             : en:Chapter 20

# i3 `6 j2 Z$ R. f' I2 k- b
游客,查看本帖隐藏内容请回复 | 加入VIP贵宾组可免积分免回复下载 了解详情 | 还不是会员:点击获取邀请码 Invitation Code

56

主题

1370

帖子

4931

积分

Sponsor

金币
224 枚
体力
1882 点
lanpanshuma 发表于 2020-8-27 17:43:50 | 显示全部楼层
看了LZ的帖子,我只想说一句很好很强大!""
* z( C0 ?% O$ c2 j  kBluraycd.com movie updates really fast, also did not release issued, whether you believe it or not, anyway, I believed!
该会员没有 ...

577

主题

1906

帖子

1万

积分

VIP advanced

金币
1631 枚
体力
4351 点

公主勋章卓越贡献勋章

21cn 发表于 2020-8-29 21:40:08 | 显示全部楼层
楼主发贴辛苦了,I*老*虎*U!7 [5 u7 u" ^/ _8 S
至少是现在,我一天没有访问蓝光电影论坛就不爽!At least now, my day did not visit the Blu-ray Film Forum on unhappy!
, D3 W: ^4 u4 e

0

主题

191

帖子

644

积分

Sponsor

金币
25 枚
体力
281 点
060701300 发表于 2020-9-5 11:39:59 | 显示全部楼层
谢谢楼主分享

本版积分规则

小黑屋|Archiver|蓝光电影资源网

GMT+8, 2020-9-22 02:09

快速回复 返回顶部 返回列表