BluRayCD Forum

 找回密码
 立即注册【分享大片】

QQ登录

只需一步,快速开始

查看: 217|回复: 14
收起左侧

[2160P极清] 花木兰/木兰传说/迪士尼真人版花木兰 [4K版] Mulan 2020 2160p DSNP WEBRip x265 10bit HDR DDP5.1 Atmos-SEMANTiCS 11.14GB

[复制链接]

577

主题

1906

帖子

1万

积分

VIP advanced

金币
1631 枚
体力
4351 点

公主勋章卓越贡献勋章

21cn 发表于 2020-9-8 08:13:58 | 显示全部楼层 |阅读模式

, Z% q* c% ]& H8 G9 X, N6 g5 X9 c4 @: ~* W4 b
◎译  名 花木兰/木兰传说/花木兰真人版/迪士尼真人版花木兰# C+ P; I& i5 H! X; r
◎片  名 Mulan
/ I% r$ O+ g: T' F! D2 M& m◎年  代 2020& }# \9 @3 Y0 \7 o# d5 _
◎产  地 美国/中国大陆) h3 g+ c% I3 D& u$ z1 _
◎类  别 剧情/动作/冒险
# P1 S) ^+ l6 C, H# O3 z◎语  言 英语/汉语普通话
! T% B" D, N9 `) o◎上映日期 2020-08-21(美国)" F8 p8 _6 Q0 z4 F) a6 y- S
◎IMDb评分  5.6/10 from 26,598 users
) |6 I2 U8 ^6 p, t$ @% J◎IMDb链接  https://www.imdb.com/title/tt4566758/* ]  r  \; N. s; z1 G
◎豆瓣评分 4.7/10 from 58,103 users% ?% S& a$ C" m: z
◎豆瓣链接 https://movie.douban.com/subject/26357307/
6 p0 B1 W, x6 E4 h; m% L- F9 t. u◎片  长 1 h 54 min
, }* o* g0 W8 B4 F2 \+ V◎导  演 妮琪·卡罗 Niki Caro
) t; E4 o  q: G9 w9 H$ s◎编  剧 劳伦·希内克 Lauren Hynek
* K' A2 i2 x3 I' X" _7 r; U       里克·杰法 Rick Jaffa " m% \7 Q4 L# J+ E. X4 d
       伊丽莎白·马丁 Elizabeth Martin
/ c; x  y4 a* V4 g5 D       阿曼达·斯尔沃 Amanda Silver/ {) V& J2 V7 o3 V; u2 B# W, Q
◎主  演 刘亦菲 Yifei Liu
+ X2 s) |1 p  w+ P6 s( s       安柚鑫 Yoson An; \  a7 i" d8 y4 |$ w4 M; Z
       甄子丹 Donnie Yen
) P8 f/ z2 M+ ~       巩俐 Li Gong
' b0 Q; v: H1 w5 D9 Z( c       唐莎娜 Xana Tang0 M# Q" u" \/ I$ ~
       李连杰 Jet Li
. z$ A0 @( f3 C+ I% I       袁文忠 Ron Yuan
  i( P3 i' G* Q' O7 Q& a       乌特卡什·安邦德卡尔 Utkarsh Ambudkar
8 x# t( [+ f1 K. h3 |4 o  p* ?/ y       钱姆·艾希勒珀拉 Chum Ehelepola% i2 v; N! b8 b9 M
       李截 Jason Scott Lee
! o0 {0 h, O4 t, }/ F; `8 |       马志 Tzi Ma
- C) x# K5 I, Z* W/ U       赵家玲 Rosalind Chao
9 c" `, t5 T2 r; ?& {1 ]       郑佩佩 Pei-pei Cheng
5 u) W3 n- L" o  {$ k4 u       尼尔森·李 Nelson Lee3 X% S1 t: {! [* \1 e3 Q
       袁之正 Roger Yuan
! X1 I: t8 U* d. f0 _6 H       黄谷悦 Jimmy Wong
4 J  U" @- `" U8 [( M# }       道阿·茂阿 Doua Moua+ [; l: j$ Y* [9 q9 C
       唐辰瀛 Chen Tang: [; O4 x9 Z1 ?& Z  M
4 c& n% G3 [# n! f: k
◎标  签 刘亦菲 | 花木兰 | 迪士尼 | 真人版 | Disney | 电影 | 古装 | 美国
7 e5 x" I( O; e* F2 y9 y
% {( V3 m% t1 a: n◎简  介  7 ~6 I6 p0 W/ H# F# `) Z

- w6 z" U- F( B7 Y' k" i  在古代中国,一位年轻的女子为了救她的父亲假扮成男装代父从军。在穿越中国广袤土地的壮丽征程中,她从紧张的训练和战争中存活下来,发现自己内心的战士,并且最终从外族侵略者手中救回了皇帝和她的祖国。5 Y( a* R0 X9 P

( T* E% `0 F& E7 l% w  刘亦菲饰演花木兰,Yoson An饰演花木兰恋人,李连杰饰演皇帝,巩俐饰演反派女巫,越南华裔女Xana Tang饰演花木兰的姐妹,甄子丹饰演花木兰的导师tung。
8 X7 w) Z6 {' s- |; p1 e1 C# J5 p2 d# F
◎获奖情况  4 n  i: @8 f: N! Y2 `; E: _; e  M

& ^* h% t9 ?: y2 q  {$ N  第6届豆瓣电影年度榜单(2019)
& q: Q& H+ r% ?( X& [  最值得期待的外语电影(提名)# [& O9 Y& m; ]) Q) J( C) j; i
Video3 p9 ?: s  K: D$ R2 |- k5 r
ID                                       : 1
; }- \# d1 W# P) i5 D7 aFormat                                   : HEVC6 _5 ?3 F; Y: G5 o3 u% Z
Format/Info                              : High Efficiency Video Coding
; i$ t2 Z+ n* H% ^, gFormat profile                           : Main 10@L5.1@High
, m& X! k9 x7 z1 p5 T' HHDR format                               : SMPTE ST 2086, HDR10 compatible
! @0 g/ T" }( ~4 @. sCodec ID                                 : V_MPEGH/ISO/HEVC' {" \- F* y2 m, \0 \$ o
Duration                                 : 1 h 54 min
" Q6 x8 E3 a: ^1 |0 @" I8 QBit rate                                 : 13.1 Mb/s
. M% \; R& H. Q& SWidth                                    : 3 840 pixels8 |& F( r! w% x$ z" \* ?
Height                                   : 1 608 pixels
4 F4 p6 G- a' H7 Z  @Display aspect ratio                     : 2.40:1
: K  w6 x' {# z$ l+ `Frame rate mode                          : Constant' }; V$ ]% f2 H% R
Frame rate                               : 23.976 (24000/1001/37687) FPS6 L0 e; z. y# s$ ~
Color space                              : YUV
/ D/ g4 d$ e- o4 k4 b1 zChroma subsampling                       : 4:2:0 (Type 2)
- P1 Q" K) L5 J1 s* [$ B! hBit depth                                : 10 bits
' v  d- Z3 X4 ^4 R& OBits/(Pixel*Frame)                       : 0.088
6 V9 m0 g! m# oStream size                              : 10.5 GiB (94%)
0 Y. S( k  p* BWriting library                          : x265 3.4+6-g73f96ff39:[Windows][GCC 11.0.0][64 bit] 10bit
. n& @4 ~' `7 z7 v' {! D7 O( [Encoding settings                        : cpuid=1111039 / frame-threads=4 / numa-pools=28 / wpp / no-pmode / no-pme / no-psnr / no-ssim / log-level=2 / input-csp=1 / input-res=3840x1608 / interlace=0 / total-frames=821 / level-idc=51 / high-tier=1 / uhd-bd=0 / ref=4 / no-allow-non-conformance / repeat-headers / annexb / aud / hrd / info / hash=0 / no-temporal-layers / no-open-gop / min-keyint=23 / keyint=250 / gop-lookahead=0 / bframes=4 / b-adapt=2 / b-pyramid / bframe-bias=0 / rc-lookahead=25 / lookahead-slices=4 / scenecut=40 / hist-scenecut=0 / radl=0 / no-splice / no-intra-refresh / ctu=64 / min-cu-size=8 / rect / no-amp / max-tu-size=32 / tu-inter-depth=1 / tu-intra-depth=1 / limit-tu=0 / rdoq-level=2 / dynamic-rd=0.00 / no-ssim-rd / signhide / no-tskip / nr-intra=0 / nr-inter=0 / no-constrained-intra / no-strong-intra-smoothing / max-merge=3 / limit-refs=3 / limit-modes / me=3 / subme=3 / merange=57 / temporal-mvp / no-frame-dup / no-hme / weightp / no-weightb / no-analyze-src-pics / deblock=-2:-2 / no-sao / no-sao-non-deblock / rd=4 / selective-sao=0 / no-early-skip / rskip / no-fast-intra / no-tskip-fast / no-cu-lossless / no-b-intra / no-splitrd-skip / rdpenalty=0 / psy-rd=2.00 / psy-rdoq=1.00 / no-rd-refine / no-lossless / cbqpoffs=0 / crqpoffs=0 / rc=crf / crf=14.0 / qcomp=0.60 / qpstep=4 / stats-write=0 / stats-read=0 / vbv-maxrate=160000 / vbv-bufsize=160000 / vbv-init=0.9 / crf-max=0.0 / crf-min=0.0 / ipratio=1.40 / pbratio=1.30 / aq-mode=2 / aq-strength=1.00 / cutree / zone-count=0 / no-strict-cbr / qg-size=32 / no-rc-grain / qpmax=69 / qpmin=0 / no-const-vbv / sar=0 / overscan=0 / videoformat=5 / range=0 / colorprim=9 / transfer=16 / colormatrix=9 / chromaloc=1 / chromaloc-top=2 / chromaloc-bottom=2 / display-window=0 / master-display=G(13250,34500)B(7500,3000)R(34000,16000)WP(15635,16450)L(10000000,0) / cll=0,0 / min-luma=0 / max-luma=1023 / log2-max-poc-lsb=8 / vui-timing-info / vui-hrd-info / slices=1 / no-opt-qp-pps / no-opt-ref-list-length-pps / no-multi-pass-opt-rps / scenecut-bias=0.05 / hist-threshold=0.01 / no-opt-cu-delta-qp / no-aq-motion / hdr10 / hdr10-opt / no-dhdr10-opt / no-idr-recovery-sei / analysis-reuse-level=0 / analysis-save-reuse-level=0 / analysis-load-reuse-level=0 / scale-factor=0 / refine-intra=0 / refine-inter=0 / refine-mv=1 / refine-ctu-distortion=0 / no-limit-sao / ctu-info=0 / no-lowpass-dct / refine-analysis-type=0 / copy-pic=1 / max-ausize-factor=1.0 / no-dynamic-refine / no-single-sei / no-hevc-aq / no-svt / no-field / qp-adaptation-range=1.00 / no-scenecut-aware-qpconformance-window-offsets / right=0 / bottom=0 / decoder-max-rate=0
9 ^* f5 S( o( k/ c/ A: t3 Z# @Default                                  : Yes
+ [# q: v! A% K+ E1 T1 vForced                                   : No
) u) C: H  k* }, [2 M4 T8 T) i$ yColor range                              : Limited5 w) a4 A& Q* L# V' {6 K
Color primaries                          : BT.2020
/ k1 v0 I- e7 G7 FTransfer characteristics                 : PQ. X/ U5 K) g  X( ?0 n# }8 C8 \( w* d
Matrix coefficients                      : BT.2020 non-constant$ H7 A  r( X# e; B
Mastering display color primaries        : Display P3
$ B# m1 m# Q6 _2 s( E$ O' J. ^4 ?, zMastering display luminance              : min: 0.0000 cd/m2, max: 1000 cd/m2/ q0 M; @1 k$ J

2 Q6 {6 L( r6 h. z6 C2 TAudio$ ]6 i/ d! D7 @4 T4 t/ O
ID                                       : 2* c5 E. `" f( \: i1 `" q
Format                                   : E-AC-3 JOC. S- h4 o- c" s' K# ^
Format/Info                              : Enhanced AC-3 with Joint Object Coding
" X2 Y4 q  t, I, g* q" Y$ }1 \Commercial name                          : Dolby Digital Plus with Dolby Atmos9 q2 Q! m* f$ b* @( f/ n
Codec ID                                 : A_EAC3
- j$ J: D" Q) D: f. J( RDuration                                 : 1 h 54 min7 P! e7 S9 _! i$ H1 e! b
Bit rate mode                            : Constant
' i5 |, r* P# x1 M4 B4 d2 u8 DBit rate                                 : 768 kb/s- o& z1 H" E! R7 \0 p. B
Channel(s)                               : 6 channels2 q3 M" P$ F( g
Channel layout                           : L R C LFE Ls Rs& Y' r$ \# M+ a
Sampling rate                            : 48.0 kHz+ }6 \6 f2 T) Q( W; L
Frame rate                               : 31.250 FPS (1536 SPF)8 G* x, q7 g7 H( F) o$ T" q
Compression mode                         : Lossy# G' r" Y5 w; u+ U1 B
Stream size                              : 632 MiB (6%)
0 q8 n4 Q* B% b5 r! [5 `Language                                 : English9 K/ Z, O# u0 \
Service kind                             : Complete Main
  m+ V' ^6 x  r2 o4 }. R4 v5 eDefault                                  : Yes3 u* l: a( i& R7 K* {7 I+ _: C  l
Forced                                   : No
7 v& d* D0 S7 q9 aComplexity index                         : 165 M; P8 K. ]: A1 _8 c
Number of dynamic objects                : 15
8 h& k0 o5 u" i( C' ]' K5 qBed channel count                        : 1 channel  d3 q. ^2 C% U/ D0 u: E7 N) l' v. d
Bed channel configuration                : LFE
0 b' O  p: K  q1 w
  ], a1 c) m) i* K3 E0 e' _1 rText #1
; A: ?3 g  F( i1 t" r; aID                                       : 3
0 d3 P+ A# |- |) W# U: oFormat                                   : UTF-8( [7 [8 J6 [( E) y9 u
Codec ID                                 : S_TEXT/UTF8% |3 E; i9 Q' q1 C( C0 B, Y2 e
Codec ID/Info                            : UTF-8 Plain Text8 d2 W' }! _( [9 C9 W
Duration                                 : 1 h 50 min
5 b( ]- Y& A5 e$ D6 q* yBit rate                                 : 30 b/s8 f5 J; e6 Q" s1 `
Count of elements                        : 926
. f; i, [; v" b+ z5 ?Stream size                              : 24.8 KiB (0%)
" e0 H9 m; I) g+ s9 b9 E) ], ETitle                                    : English
/ O& e( Y8 t2 R; K- J! a+ H$ a# iLanguage                                 : English
6 n, x$ n9 c9 Y, _) wDefault                                  : No
# \3 U* L' H% nForced                                   : No
' @# a# v; ^9 Y; n2 ?
- T7 w" z8 s+ n- W3 [" PText #2: O# N4 f/ A' J2 U
ID                                       : 4
2 a$ v5 k) r0 m3 x! J+ ?- lFormat                                   : UTF-80 e- q0 b  _- t8 f- M$ ?9 A! ]
Codec ID                                 : S_TEXT/UTF8" N4 }6 g# J! _/ H) i6 a! k
Codec ID/Info                            : UTF-8 Plain Text9 X+ V+ x  ^0 q: S7 @
Duration                                 : 1 h 50 min
& }! r- P: o( R' h7 KBit rate                                 : 36 b/s% k& j7 g8 e: i' b9 d
Count of elements                        : 1150! G: s. ~% @) V  ^# m6 i
Stream size                              : 29.5 KiB (0%)
- [7 B$ C$ k9 {4 Q% qTitle                                    : English [SDH]
* R4 O2 p, O  F  f, w* j$ VLanguage                                 : English* P- D0 d+ w" D8 V% X. n5 {' ^
Default                                  : No
( Y8 U4 P8 q: y: wForced                                   : No
0 [; ^$ V! ^; E: _, D' {
* a, m: Y1 ^% D9 Z4 z# AText #34 u2 p3 V. @9 L+ I* N* |0 c
ID                                       : 5
% ~9 i' d% W) I: y# n5 jFormat                                   : UTF-8
- x& f" ?' i9 ?* l3 S5 H! bCodec ID                                 : S_TEXT/UTF8
/ K1 D/ i, `& H! r# t$ RCodec ID/Info                            : UTF-8 Plain Text
) r& c) M+ R3 N& wDuration                                 : 1 h 54 min. H' o" {' I0 }; g& \
Bit rate                                 : 26 b/s
/ O  x7 z5 ^' O0 x# {7 ACount of elements                        : 632
3 o- S8 E; e& Z; W) GStream size                              : 21.8 KiB (0%)
: _) f; d* N% d2 rTitle                                    : Danish( A3 o# d/ ~1 O. D0 y
Language                                 : Danish# x1 h0 ^0 c8 y1 e
Default                                  : No
( \; N8 Q4 K) m8 ?3 C. Q- a( tForced                                   : No8 M* \$ U7 G0 J, o1 A7 [- `! D

0 F& D$ x+ h8 i3 bText #4$ R' [2 T% x' o2 h  x& t- A& R
ID                                       : 6
4 _; C  z9 J. h* I, AFormat                                   : UTF-8
) _6 M4 G: ~+ F# }/ k' kCodec ID                                 : S_TEXT/UTF8' f. X; R3 O# J' I! y8 A( \
Codec ID/Info                            : UTF-8 Plain Text
+ C0 t* i& M  x5 _+ `  _# h; RDuration                                 : 1 h 54 min* Z/ E, `, u4 Z! j9 _
Bit rate                                 : 25 b/s' ?+ c8 h5 ~( W! ^, N. W! ^
Count of elements                        : 699* U) `9 k$ ~6 d3 t
Stream size                              : 21.0 KiB (0%)6 l3 H: X+ {1 C0 ~$ k' z% p
Title                                    : Dutch
! P0 z1 h1 ?0 K* oLanguage                                 : Dutch4 _. s$ b5 h/ {
Default                                  : No
$ f1 _* R6 y( v$ b, [  rForced                                   : No/ f7 x3 H) J6 m9 l2 E7 b  q
0 O5 @. F# ]& H7 m
Text #5( _4 v5 T+ s  r2 E' t- s* T+ _
ID                                       : 7% w8 {* {3 \, E/ z0 x0 b
Format                                   : UTF-86 p/ G2 D* L5 ~4 c$ `+ K* H# K
Codec ID                                 : S_TEXT/UTF89 p! z0 q1 f" P0 e3 n. C
Codec ID/Info                            : UTF-8 Plain Text0 `1 D7 D% T& c) W( m7 B9 }# y* _- e
Duration                                 : 1 h 54 min
) d6 u( L; ~) |$ ~Bit rate                                 : 27 b/s+ p  U9 U2 _) o6 e! `( h* q. n
Count of elements                        : 785. H2 W0 Q: d* G" T& Q  w4 Z1 z0 w
Stream size                              : 22.8 KiB (0%)* v4 \3 @; \4 ]9 S$ h% S
Title                                    : Finnish
# O$ @) c% }1 S# E: _Language                                 : Finnish
/ n( i! n' _. _! f4 g  KDefault                                  : No
) J0 s- b& B4 P$ b  I+ v* i/ dForced                                   : No/ D* Q# @( i0 `) M: M" p& |
+ a, A/ f8 P2 s1 H4 n8 t- {5 u3 \/ u
Text #62 |; Z% _  A. G/ N& m
ID                                       : 8  y) f& B, f  x% H3 p0 ^  k
Format                                   : UTF-8
+ \7 {& ]- L( B% a5 P$ u* MCodec ID                                 : S_TEXT/UTF8( j' M- y3 }+ _* s1 p' s
Codec ID/Info                            : UTF-8 Plain Text0 Y# H- x$ u& M. y/ L
Duration                                 : 1 h 54 min# P5 F% U0 C. @  Q: `
Bit rate                                 : 28 b/s
% Z) W% ^+ u4 ^6 ZCount of elements                        : 7714 Y* m" U6 r" S+ w" l' W+ h
Stream size                              : 24.1 KiB (0%)2 i, y6 O2 @4 M0 Z  ~' m; S" `
Title                                    : French6 u' Q& z, C1 j% O
Language                                 : French
: T$ o% Z+ m7 D5 G4 F& h' A, v. |Default                                  : No: `2 |1 w# J  v+ Q# G7 |1 ?
Forced                                   : No/ ~5 F8 ]3 \' ~$ ~1 p. _# H* N

' v1 ?; D" w+ M7 o, @1 V5 [Text #7
* W- ]) T' t5 J3 Z) Y- \ID                                       : 99 ~* f; i  {+ {3 g% M
Format                                   : UTF-8# l% K. V' U# ]
Codec ID                                 : S_TEXT/UTF8
' w& U/ H- `0 V+ m% s9 kCodec ID/Info                            : UTF-8 Plain Text3 n9 @1 L( P8 d& U$ z
Duration                                 : 1 h 54 min* ~% M! W* _- N  R# E1 ]/ P9 m
Bit rate                                 : 29 b/s
& z3 S3 P/ Z) c, t4 H7 Q2 qCount of elements                        : 806& Y- ?" U- f; @8 y9 e/ g
Stream size                              : 25.0 KiB (0%)
3 M: d- C2 f. v. V0 u2 [( I' uTitle                                    : Canadian French
% e* z0 h' d9 u" ALanguage                                 : French; C3 D8 R( |" H- R/ z% k7 r9 t
Default                                  : No
, |. [- z0 g! Y) y2 a+ t; xForced                                   : No5 M  V0 s8 X* V' P: X
9 S: i/ N  P% G# W
Text #8/ S; v/ c5 s0 X# J" p
ID                                       : 10
5 V1 i9 X! Q9 b6 q7 s) XFormat                                   : UTF-83 ^" J2 ?/ S% d2 R. L4 Z* I. G- m4 a7 q
Codec ID                                 : S_TEXT/UTF8
4 J2 D& M- [. m" j5 ECodec ID/Info                            : UTF-8 Plain Text
, j. a0 ^* l6 T. QDuration                                 : 1 h 54 min; b; c- ?9 u/ v1 z; b- ?4 P  e
Bit rate                                 : 27 b/s
4 ?% R1 U% B: S7 mCount of elements                        : 933
0 ?9 f- k2 w; M, UStream size                              : 23.3 KiB (0%)
5 Z# T! f6 d( x* |8 eTitle                                    : German
' E; Z: @; F1 n# q! {Language                                 : German  G0 L9 S  @% v1 J* ?( ?, s& V1 i
Default                                  : No' T- @7 y- }/ W7 A( m; n- {
Forced                                   : No6 e4 t; Z) l: u+ d

/ ]3 g' u/ L( h8 Z: }Text #92 Y" x# O. r6 M: \  }* d$ k+ Z
ID                                       : 11
; [. Y7 ?% j$ z! o# gFormat                                   : UTF-8
: ?& d  D8 c, H. f: L" CCodec ID                                 : S_TEXT/UTF84 R8 ^4 i: q! |
Codec ID/Info                            : UTF-8 Plain Text
, I0 D; V1 g! m( w! P& L0 N0 EDuration                                 : 1 h 54 min
" ~1 W( |) T9 w9 v1 h& tBit rate                                 : 28 b/s
& T9 _8 g: `& h- F; bCount of elements                        : 784
2 ^' p0 S, m/ M+ nStream size                              : 23.5 KiB (0%)4 _% i/ C4 `+ @& k: W0 e
Title                                    : Italian
3 y2 B. N) a7 @, W( M, Y: QLanguage                                 : Italian
9 L/ X$ f7 U# x& E3 p: A" `. ]Default                                  : No' Y- t4 a8 ^- W) n0 o: g
Forced                                   : No
1 L3 H& Q$ K" W' o7 H- B* |7 Z* k* w7 M+ B- x! W/ C1 @
Text #10
" w) J) N& U6 u  p: uID                                       : 12
! m( L% t! I, x. y/ r6 aFormat                                   : UTF-8
( g3 h5 M/ T$ w2 H$ J: w7 [. o  mCodec ID                                 : S_TEXT/UTF8$ n2 U* s# g# \; A4 h
Codec ID/Info                            : UTF-8 Plain Text
8 H% B' S6 a2 s5 H; O: zDuration                                 : 1 h 54 min' L5 k. Q3 j, n/ K$ l
Bit rate                                 : 26 b/s5 L) \9 ^. c( o" n
Count of elements                        : 784
! \  h8 P, e# R* R  [4 `0 t) bStream size                              : 21.8 KiB (0%)- i! a) Z& e, l4 y" r" Y7 P1 R% ?
Title                                    : Norwegian5 o  b: ?, ?( L
Language                                 : Norwegian
# h+ b! R. e0 L7 o: Z8 fDefault                                  : No- N+ N. d0 l2 ^8 C- B: {
Forced                                   : No6 X/ N- }1 N6 l  J0 \3 o; I

( C- Q7 Z7 J2 n2 d6 a# w' c$ BText #11
6 e; `1 G* `2 H9 A2 xID                                       : 13
5 \2 i0 ?# l. D; rFormat                                   : UTF-8
" Y0 Y5 ]9 ]$ }Codec ID                                 : S_TEXT/UTF8! I% t2 s* L. f6 G3 Q
Codec ID/Info                            : UTF-8 Plain Text9 `) U1 k% C" n1 B; T
Duration                                 : 1 h 54 min
, h6 S8 X3 B0 e, S4 }1 NBit rate                                 : 28 b/s
, v2 ?. U5 |+ q, ?4 `+ F$ U6 XCount of elements                        : 785
& ~6 l+ D! O5 [1 [1 Y$ LStream size                              : 23.5 KiB (0%)  ^/ G7 s3 }. j+ |( l
Title                                    : Portuguese
8 R0 i+ P$ W3 t! [. ^9 wLanguage                                 : Portuguese
6 O; B( A3 j# K: UDefault                                  : No
+ v- n8 a8 g7 H4 t: F# o; t+ oForced                                   : No
  x! u+ E$ u/ x, h) s0 O" `
7 x7 m, `% X1 |6 UText #123 g7 r3 s" G8 N
ID                                       : 14
* C- C3 g% l) P0 z2 e* u& K+ HFormat                                   : UTF-8
8 g& m+ V5 W9 iCodec ID                                 : S_TEXT/UTF82 y5 d8 R+ V' @  o/ C; \" d
Codec ID/Info                            : UTF-8 Plain Text; l. e" H/ G5 }* B& o! B* u, [
Duration                                 : 1 h 54 min
3 {2 m2 i. V! x! S/ V+ B9 {! c. TBit rate                                 : 27 b/s
0 |9 H7 U  J/ I% R# P' |Count of elements                        : 7849 ]2 w- o" m3 h/ J5 _/ S2 `7 O
Stream size                              : 23.2 KiB (0%)
: Q2 h4 c: h6 H+ U' vTitle                                    : Brazilian Portuguese
2 d5 T+ t6 G$ A( }5 ILanguage                                 : Portuguese1 m9 |5 ~% T, N
Default                                  : No# g( G" i2 i! e$ F, ^8 w
Forced                                   : No
1 ^4 d+ t- ~8 U- X) }( B/ H- c. j, K; m+ \- P2 [$ V7 b
Text #13
% _3 n( ?! P* D: [, s) V1 UID                                       : 15# t. ?% s. }8 O0 q6 H2 U8 u
Format                                   : UTF-8& N& L" X3 j: `% S/ ]
Codec ID                                 : S_TEXT/UTF8
$ V& e( k; S& t0 S* {Codec ID/Info                            : UTF-8 Plain Text9 M. o9 @5 d* E* ?
Duration                                 : 1 h 54 min4 t% F$ g4 j# ^' u2 i' p7 D
Bit rate                                 : 28 b/s
: A* y7 g. z, g% L6 m6 z6 V; LCount of elements                        : 785
  D  c7 F9 S- `- W" |6 P& IStream size                              : 23.5 KiB (0%)
" ?4 |/ L8 J( n4 e5 gTitle                                    : European Spanish
: E7 i' ^% @! v9 ^# {' }9 ZLanguage                                 : Spanish9 Y' F  B, S3 @1 T
Default                                  : No/ z# s; c5 O8 y7 p' ~
Forced                                   : No
, ^7 I  N) F2 k: q2 ]! k4 r2 `" q
3 n1 m6 B; o; \0 E2 }Text #14
/ k1 u" I" l3 AID                                       : 16
6 Y6 k2 i% O2 S9 X& |Format                                   : UTF-8
( w) v9 M0 z. F) L0 zCodec ID                                 : S_TEXT/UTF8
+ P( o& C0 B; E8 N$ FCodec ID/Info                            : UTF-8 Plain Text4 g- t* a. A; H$ m
Duration                                 : 1 h 43 min/ [* t( Y, L& q6 u  a1 w7 [' m" G
Bit rate                                 : 31 b/s6 k  Q- U& R) `  R  B% A; Z
Count of elements                        : 783. b" s9 m0 j1 S- {
Stream size                              : 24.0 KiB (0%)/ `3 w$ D& f' {: f0 M( p$ ?- m, r7 d
Title                                    : Spanish/ Z# q/ g/ \4 K0 X7 N* f: b1 X8 |
Language                                 : Spanish
7 C+ T( ^1 e* v* @5 H9 v' ~: QDefault                                  : No
) K- l5 R; Q; B- qForced                                   : No
" W; E! r1 f, O% s& T, w5 B3 M9 C$ I4 @
Text #15
/ n0 B8 U! ^" c! p2 p" X; }0 kID                                       : 176 p" k; ]2 L9 o: s' ~9 L9 s
Format                                   : UTF-8
# I8 f; t0 ~2 t! b% |: h( NCodec ID                                 : S_TEXT/UTF86 b+ h1 G! U* k; E
Codec ID/Info                            : UTF-8 Plain Text
. e7 g: R5 k1 l3 t5 J9 s* l4 o# D4 pDuration                                 : 1 h 54 min
! n7 S& ?. ]- [& t) H$ x+ GBit rate                                 : 26 b/s8 d$ }2 z5 p. n" [3 a, |$ {3 S- h8 Z
Count of elements                        : 700! z9 B" Z6 n% ?
Stream size                              : 22.0 KiB (0%)
* c0 A( j1 e) i; W. \6 }Title                                    : Swedish7 {; h  z. @1 m2 {2 q3 x
Language                                 : Swedish) b! g! w2 n. p: x
Default                                  : No$ l+ ~9 q) w6 E
Forced                                   : No
) w! Z* E& Y4 q% _! _3 ~, p8 L
游客,查看本帖隐藏内容请回复 | 加入VIP贵宾组可免积分免回复下载 了解详情 | 还不是会员:点击获取邀请码 Invitation Code

0

主题

62

帖子

384

积分

Sponsor

金币
150 枚
体力
109 点
leo2491cn 发表于 昨天 19:12 | 显示全部楼层
楼主发贴辛苦了,I*老*虎*U!# n) b, ~& f0 `1 ?, i
bluraycd forum, a lot of Blu-ray movies!
& S9 G0 I- A% H这么好的帖子不回对不起自己!# i2 _2 R5 y& j: z. y/ j2 e
Your resources, well, I am very satisfied!
9 Q6 Q, Y% {. Q  R& _, E果断回帖,如果沉了就是我弄沉的感觉很有成就感!
5 P' r; O3 w- C+ `: N3 b要想蓝光电影论坛发展好,资源多,就靠你我他!To the development of Blu-ray movies forum, resources and more depend on you and me!2 O4 z% E9 ]/ p0 ]% h4 v
姐顶的不是帖子,是寂寞!
( f$ J  H' h0 {7 w& Q, n3 C/ UBlu-ray movies Community: my favorite!
4 f6 F' ?5 S/ S1 f

5

主题

158

帖子

974

积分

Sponsor

金币
212 枚
体力
489 点
QQ
hellangelcx 发表于 2020-9-11 13:56:11 | 显示全部楼层
每天都来蓝光论坛看看,我爱蓝光电影。% P  a. `. k+ m4 M" \( k
至少是现在,我一天没有访问蓝光电影论坛就不爽!At least now, my day did not visit the Blu-ray Film Forum on unhappy!
) f# i5 j* ]0 b! {0 ]( u
蓝光论坛里

0

主题

412

帖子

1997

积分

Sponsor

金币
41 枚
体力
1165 点
QQ
七喜 发表于 2020-9-12 01:18:18 | 显示全部楼层
用迅雷影音同步的字幕,整体感觉翻译的还是不错的,但是还是有些地方有瑕疵,感觉有些别扭,希望有完美版的字幕

56

主题

1370

帖子

4931

积分

Sponsor

金币
224 枚
体力
1882 点
lanpanshuma 发表于 2020-9-8 09:49:05 | 显示全部楼层
Bluraycd又有新电影发布了,激动中……!0 e& i8 u( S+ a/ _& b9 p
Blu-ray movies Community: my favorite!
3 a3 _; b0 O" w$ g3 ^5 K
该会员没有 ...

2

主题

706

帖子

3076

积分

Sponsor

金币
601 枚
体力
1140 点
tto138 发表于 2020-9-8 14:14:15 | 显示全部楼层
这么好的帖子不回对不起自己!* f; x+ W8 ^- ]$ [( C4 i2 S- a2 s
Your resources, well, I am very satisfied!
- H3 t! p6 C0 E# G: f) t

0

主题

93

帖子

470

积分

Sponsor

金币
5 枚
体力
279 点
狐狸打扮也是猫 发表于 2020-9-8 20:46:14 | 显示全部楼层
啥也不说了,楼主就是给力!4 h4 H! K4 W8 }0 l; q
Blu-ray Film Forum is now my home!
0 }: M5 n3 o) m" L+ \- w

0

主题

86

帖子

1065

积分

Sponsor

金币
76 枚
体力
814 点
mycjk 发表于 2020-9-8 21:41:35 | 显示全部楼层
楼主发贴辛苦了,I*老*虎*U!
% q( N$ Z1 M, v& r+ J* c5 n! ?6 BAfter reading the posts have nothing to do I Amoy posts!
7 V0 V! M+ e% d/ ^; X+ d

0

主题

24

帖子

1万

积分

知名人士

金币
4634 枚
体力
6310 点
icatang 发表于 2020-9-9 10:52:26 | 显示全部楼层
谢谢 楼主分享

0

主题

53

帖子

310

积分

Sponsor

金币
106 枚
体力
88 点
skyewan 发表于 2020-9-10 07:06:53 | 显示全部楼层
这个上片速度会不会有些快,给力哦

0

主题

412

帖子

1997

积分

Sponsor

金币
41 枚
体力
1165 点
QQ
七喜 发表于 2020-9-12 01:03:57 | 显示全部楼层
已经看完,效果不错,是不是上的有点快了啊,

本版积分规则

小黑屋|Archiver|蓝光电影资源网

GMT+8, 2020-9-22 01:52

快速回复 返回顶部 返回列表