BluRayCD Forum

 找回密码
 立即注册【分享大片】

QQ登录

只需一步,快速开始

查看: 36|回复: 3
收起左侧

[剧情悬疑] 我想结束这一切 [内封中字] Im Thinking of Ending Things 2020 1080p NF WEBRip DDP5.1 Atmos x264-CM 7.49GB

[复制链接]

611

主题

2010

帖子

1万

积分

VIP advanced

金币
1774 枚
体力
4576 点

公主勋章卓越贡献勋章

21cn 发表于 2020-9-8 08:28:20 | 显示全部楼层 |阅读模式

% B6 |6 X4 X2 o' S4 h$ Z7 B: D  ]& P) H. [
◎译  名 我想结束这一切! v7 j# v7 H: F+ x% g' C) b) f
◎片  名 I'm Thinking of Ending Things. a& }( c; J3 m0 J0 u
◎年  代 2020' d( b& k* Q& n* B0 H& V
◎产  地 美国
. J8 `7 r1 `9 a/ m0 L◎类  别 剧情  e5 y) E' S: |1 t9 S  c8 x
◎语  言 英语
' u6 Y7 o" k$ i8 @% m3 _◎上映日期 2020-08-28(美国点映) / 2020-09-04(美国)" }2 v- V- Y6 m4 E2 m! D
◎IMDb评分  7.0/10 from 14,661 users6 D7 Z0 h( u/ j+ ^: d, t& Z
◎IMDb链接  https://www.imdb.com/title/tt7939766/
9 g7 |4 v- z% s) \+ ?1 c◎豆瓣评分 7.3/10 from 2,068 users
" S% o6 E" K- n◎豆瓣链接 https://movie.douban.com/subject/30129061/
" L: S  _7 \" b0 O3 v: I2 p: w◎片  长 2 h 14 min* d5 j3 L+ O$ f0 P
◎导  演 查理·考夫曼 Charlie Kaufman, `3 _# x# X8 s" W! v6 y9 z1 y
◎编  剧 查理·考夫曼 Charlie Kaufman / 伊恩·里德 Iain Reid
0 L3 N! d2 ?) V◎主  演 杰西·巴克利 Jessie Buckley
7 p3 V+ y- Y1 O3 }* t      杰西·普莱蒙 Jesse Plemons
6 ?$ v- o) c4 N      托妮·科莱特 Toni Collette
7 E* t* _3 O/ @* [9 i      大卫·休里斯 David Thewlis
$ N/ k, [5 r  m. h0 G+ I# _      杰森·拉尔夫 Jason Ralph
" B& t! b" u4 z; Y      蔻碧·米纳菲 Colby Minifie2 x1 x3 I3 j+ I; a
      艾比·奎因 Abby Quinn% f! b7 |7 T* `; v( M9 |7 N. @
      盖伊·博伊德 Guy Boyd
* P- P2 |3 D8 g* b) G/ \      哈德莉·罗宾逊 Hadley Robinson
3 [! {% N; L0 K      安东尼·格拉索 Anthony Grasso1 E& a! z! q- N2 [" |
' B5 U) s5 x$ l, S. b1 y
◎标  签 查理·考夫曼 | 美国 | 2020 | 剧情 | 小说改编 | CharlieKaufman | 美国电影 | 电影, [2 q* P9 h" s7 R4 x; @  ?2 E
! g1 ^8 @# s% P9 {3 S6 Q
◎简  介
& a3 X( D  e7 S" H( N2 \5 H/ K  W/ b6 A+ Y) c$ Z
  剧本改编自伊恩·里德同名小说,小说审视了心灵的脆弱和孤独的极限。杰克原本带女友回家见父母,女友一路却在想着“结束这一切”,在杰克改变原定路线后,一切都朝着失控方向发展。
$ v, r' S: P, l
Video; ]$ d$ Y# [6 k. v2 a. C+ M
ID : 14 L. f5 M, [; [6 g& ?# Z
Format : AVC
- j6 r) r$ G, c4 R$ j$ {Format/Info : Advanced Video Codec9 \2 k* L4 Y# f2 u5 S; `
Format profile : High@L4& d* a9 {5 v# ]& @9 K
Format settings : CABAC / 4 Ref Frames
8 u, o. ~  j5 E2 E# v4 RFormat settings, CABAC : Yes
$ w: z5 C9 x. _/ U0 L& }  SFormat settings, Reference frames : 4 frames
% A1 N, ?3 P1 _3 N% m$ Z+ {$ j2 XCodec ID : V_MPEG4/ISO/AVC: _# m4 Y, D( a+ T3 ]  y; q
Duration : 2 h 14 min# n- t, Q5 \. K- D$ t; Z2 y
Bit rate mode : Variable/ Q8 c9 C" p6 Y' D
Bit rate : 7 180 kb/s
  T- C5 u$ o, n0 G4 B9 ]Maximum bit rate : 20.0 Mb/s% X1 M' W& y- j- A; ]' f9 ^- l  ^
Width : 1 440 pixels5 y9 ~$ W% P+ Z
Height : 1 080 pixels
) v7 E- S+ _0 c, s' aDisplay aspect ratio : 4:3
6 w' ^9 e! {& _Frame rate mode : Constant
& C' l3 ~* }4 m8 A8 Y; CFrame rate : 24.000 FPS. ^7 ~8 _( T7 F1 F
Color space : YUV
5 F% E+ W# {) S/ b2 p% {Chroma subsampling : 4:2:0
# K2 K+ r3 M  Y. I1 EBit depth : 8 bits9 }  \3 @; I% `. R# y
Scan type : Progressive2 e7 r- a  C' C5 t; E4 \+ A1 I
Bits/(Pixel*Frame) : 0.192
1 T+ q6 s5 r9 m& t" g& q7 z! RStream size : 6.76 GiB (90%)  ]. f% ]% K0 L+ }
Writing library : x264 core 148 r2722 1b0121b
" J& U: w& g% ?Encoding settings : cabac=1 / ref=4 / deblock=1:0:0 / analyse=0x3:0x111 / me=umh / subme=10 / psy=1 / psy_rd=1.00:0.00 / mixed_ref=1 / me_range=120 / chroma_me=1 / trellis=2 / 8x8dct=1 / cqm=0 / deadzone=21,11 / fast_pskip=1 / chroma_qp_offset=-2 / threads=8 / lookahead_threads=2 / sliced_threads=0 / nr=0 / decimate=1 / interlaced=0 / bluray_compat=0 / stitchable=1 / constrained_intra=0 / bframes=16 / b_pyramid=2 / b_adapt=2 / b_bias=0 / direct=3 / weightb=1 / open_gop=0 / weightp=2 / keyint=240 / keyint_min=121 / scenecut=0 / intra_refresh=0 / rc_lookahead=240 / rc=crf / mbtree=1 / crf=25.0 / qcomp=0.50 / qpmin=6 / qpmax=51 / qpstep=4 / vbv_maxrate=20000 / vbv_bufsize=25000 / crf_max=0.0 / nal_hrd=vbr / filler=0 / ip_ratio=1.40 / aq=1:0.80
1 x* {5 _/ A: U" CDefault : Yes
; @2 v2 b3 x& w, p- EForced : No: H, g2 Y! q" B% y' W

( i! c% G( b* ^3 ]  W& `* s2 \Audio! O7 u/ s! o9 P) t" m( L
ID : 26 O+ x4 Y( p$ Y9 S. ?+ V1 `& a
Format : E-AC-3 JOC. ]* O! {" Q* `* }
Format/Info : Enhanced AC-3 with Joint Object Coding
# U) W7 B7 n- ^5 Q( C. ?Commercial name : Dolby Digital Plus with Dolby Atmos
, ~; u6 j# y1 t2 }9 Q, `# kCodec ID : A_EAC3
$ ]# w8 w1 B! V& Y6 s- E3 R! [3 S5 EDuration : 2 h 14 min
* X/ f4 {) z* U' W- X! T. zBit rate mode : Constant# I, U& ^" j6 w7 h2 M7 @9 o
Bit rate : 768 kb/s
7 P/ x* O' n3 p0 ?. MChannel(s) : 6 channels
2 x8 _2 n$ Y/ N9 }0 P7 k7 S9 ?1 TChannel layout : L R C LFE Ls Rs- N! h  r9 |4 M' D1 j
Sampling rate : 48.0 kHz; w# |& z+ P, O; w% @
Frame rate : 31.250 FPS (1536 SPF)
4 Q4 E6 G7 P' kCompression mode : Lossy
0 j) E- k, H* r, G9 T/ V. kStream size : 740 MiB (10%). P$ d& g& \1 ^0 h
Title : English
7 X5 [! t3 Q$ ULanguage : English7 O0 m; W8 l/ ^
Service kind : Complete Main
7 w5 c6 {0 C, UDefault : Yes
$ c9 A+ X" |9 M% o7 ^Forced : No  b/ w% J6 |2 u* T  }( Y- d
Complexity index : 16/ q, \- `$ q/ ~6 w& c
Number of dynamic objects : 15
) b: x" h7 Y* u  \* s7 PBed channel count : 1 channel9 F% I% c0 U- I  a6 a- |3 ~
Bed channel configuration : LFE
* M9 q5 }  L( T+ _3 ]# H9 T1 Y+ e2 Q& x1 _% S" J
Text #1
3 U# q6 B5 s3 d* q1 S% L6 wID : 36 ~6 O+ l6 v( \0 j
Format : UTF-85 y$ q  Q! h: G1 _/ U
Codec ID : S_TEXT/UTF8+ {2 S  \6 c8 \$ |' H
Codec ID/Info : UTF-8 Plain Text9 z, [3 C5 K) f7 Q
Duration : 2 h 13 min
' B! F* O. F# V7 `Bit rate : 97 b/s
# U- a6 R9 |: T5 K$ M" I5 dCount of elements : 24043 H6 z' `* B9 R! t( U" }% g5 T
Stream size : 95.4 KiB (0%)) h& ~/ n5 A; r" t  ]- `; t
Title : English
4 X5 J! o( F" F1 O0 vLanguage : English
, U- R0 V% ]' @& m* sDefault : No8 ?& o$ ~2 S2 @, b5 P% y
Forced : No; E+ e) Q5 b' Z' ^

$ ?* b" f1 ~+ G1 s" M6 r1 n. q: _! }Text #26 y6 P5 z- Q, i" r- h# `* Q
ID : 4
0 A- p; z  U& [& }0 o! zFormat : UTF-8
" t7 R5 `' l& I6 TCodec ID : S_TEXT/UTF87 Z) z0 T# \" W5 S
Codec ID/Info : UTF-8 Plain Text
' b/ H# ~5 k3 C3 z7 dDuration : 2 h 13 min
" G+ B- ?: _+ ^, [Bit rate : 101 b/s
" e( O$ i* I* U- sCount of elements : 1866
( {0 P$ x  F# f' D/ }Stream size : 99.5 KiB (0%)/ g- w* S+ i# f5 q
Title : Arabic' Y  N1 f4 S4 t( J7 T4 t
Language : Arabic, ?$ N5 z7 P& \3 v) S
Default : No
/ f3 U% N. }, Y; c6 R/ r2 R1 GForced : No
: A2 M2 U  ?, a5 q; F2 Q' @
& h- t  W# o- w1 {/ ?; M# }: N) I5 GText #3; @7 n7 }# L1 @! V: y" z  X
ID : 5# s' s7 P5 X8 n6 @) Y
Format : UTF-8
5 {7 x) o# {# l4 GCodec ID : S_TEXT/UTF84 {- Y( t+ g8 W9 g1 f+ S+ z+ I' @
Codec ID/Info : UTF-8 Plain Text
# `% q' z, d+ c3 f# ?Duration : 2 h 13 min# Z# _2 ~% v9 Z4 V. o& a
Bit rate : 63 b/s
# F+ q4 }+ x: v4 D/ u9 c$ CCount of elements : 1879
2 M- G; Y6 D2 P0 RStream size : 62.0 KiB (0%)6 C0 J; c" K% j3 Z/ U2 V
Title : Chinese Simplified
$ n. d' @. B$ P; Z- t2 Y! ^Language : Chinese
, D" y  L0 y8 h, X5 d; dDefault : No6 b7 P+ s: Q# R0 G% u+ P
Forced : No1 j" i! K3 H9 ]* y

" `9 n* |. I! L% q# _Text #4
1 G8 @4 q/ k2 a% ~5 LID : 6
, p" b5 F% m* x5 x8 P  k+ hFormat : UTF-8" B  L+ K: q9 e9 ^
Codec ID : S_TEXT/UTF80 C8 j4 U# q* b1 I, M) f3 l: V
Codec ID/Info : UTF-8 Plain Text
8 D$ S2 i# J# x0 pDuration : 2 h 13 min5 J# Z( |. ?3 E6 ^
Bit rate : 62 b/s: [% k& P; {6 v7 m% q; T/ w2 Q
Count of elements : 1884
* \/ C1 C5 }3 R  ]- v+ HStream size : 61.3 KiB (0%)
- l" D1 Z9 Q) l0 T* u" }Title : Chinese Traditional6 |, k) _" X( |$ V8 n2 Q
Language : Chinese: a3 M7 P# @9 p/ n: }( ?
Default : No4 T1 E2 O# W* e7 Y
Forced : No
% A" f6 Q( M& W
* X& {5 S/ q7 E" U  C  ]$ lText #5
  F- l. r5 ]4 c1 }) C$ q& QID : 7
0 Q: c" ?' g  c1 QFormat : UTF-8
' ?; R5 i2 d7 B) TCodec ID : S_TEXT/UTF8
7 f8 |7 T( P# {1 e+ a5 ^# Y5 uCodec ID/Info : UTF-8 Plain Text) `  C* C" _" `  |, N* ^
Duration : 2 h 13 min
$ e6 |+ H7 {8 p. E% q) yBit rate : 61 b/s
# Y% i2 v8 q" X* l- X* ?Count of elements : 1996
# e2 J0 `, A6 W9 g4 oStream size : 59.9 KiB (0%)/ c' h, k! Z7 M
Title : Czech9 G$ W" u. d$ R) b
Language : Czech
: W8 _9 U  w2 u3 pDefault : No
# A: Q# |- p% |: F; J* i% w$ K$ {Forced : No6 U, D& l8 J6 f! J

( m9 x/ A" G  U9 A5 }- M3 uText #6
2 x  A" G1 k* ?- D9 Y; {! x$ b+ ZID : 8
% n( I2 ^$ V# b- U& E+ B9 nFormat : UTF-8
+ z/ ]# E! W7 H6 S2 s, \Codec ID : S_TEXT/UTF8' `4 h- s0 D( s5 D, R1 p
Codec ID/Info : UTF-8 Plain Text
: U# ^9 b/ X6 XDuration : 2 h 13 min
9 {: I, `1 Y* X; GBit rate : 59 b/s
5 |9 U2 t2 y4 f! `" V$ ICount of elements : 1745
- f& H) j% D8 ~5 vStream size : 58.0 KiB (0%)8 j6 {2 g; H" M" @3 ~7 t# C6 Y5 X: q
Title : Danish
$ e4 n& ]  C' iLanguage : Danish2 o, {$ r# K. J2 e* _1 |' V
Default : No
; v, M/ }4 y6 k- ]" J) v# V; lForced : No
! m" L  m/ q8 O! h& ^3 u1 t' n2 H, `: K/ H" y( H7 \
Text #7
  g2 Q9 H9 I8 @! M6 k' xID : 9
0 X$ C9 L! o* {5 V* L* wFormat : UTF-8
6 Q$ [3 g) m4 J$ DCodec ID : S_TEXT/UTF8( `1 L/ }* ]9 z- Y4 \
Codec ID/Info : UTF-8 Plain Text
9 ~6 F( w: M. l# Z$ y7 PDuration : 2 h 13 min. ~$ x: U- W1 U2 U  w5 j5 y* X
Bit rate : 56 b/s- C# p# @6 ?5 K( @3 j6 m6 k
Count of elements : 1793
, B6 S! Y* T6 U  NStream size : 55.2 KiB (0%)$ u" Q/ H5 x$ A; u1 _
Title : Dutch
( S2 J' {+ [; T# ?4 Y5 wLanguage : Dutch& v, f9 q6 z, Y( j. ~9 X
Default : No% v# w/ ~. w2 j3 F; \6 M3 [$ t- ~& F
Forced : No# j+ q2 q6 U& o) s2 ?$ W& @# p

0 j  O+ v: Y" Q0 ]Text #8
1 q! P* a+ _1 ?8 x% K5 m- G& SID : 10
. w# L1 m; @' Q& t0 J$ K7 eFormat : UTF-8! S% J/ |7 J' C( P. s# h9 J& |
Codec ID : S_TEXT/UTF8% U) l7 {+ F1 y; L1 F
Codec ID/Info : UTF-8 Plain Text
- M8 R  m$ u: L( T) b" z1 g$ yDuration : 2 h 13 min
$ J1 {( P1 s9 }Bit rate : 55 b/s
, E; V! w  z4 KCount of elements : 1746
* K# P. a* J: I" J+ E# wStream size : 54.2 KiB (0%)3 W5 G, o) g2 }, {+ g8 I7 z
Title : Finnish5 f" }8 Q7 P7 ]1 C+ Y4 g+ l
Language : Finnish
5 c3 z7 V4 W0 I( NDefault : No  J8 g0 Y0 P+ ]# F
Forced : No( z5 ^- ?& p! `0 @& B, T: M
+ ?5 W5 \4 Z- M4 A2 L5 U- u
Text #9
$ }0 |  y8 X6 d5 A3 PID : 11
3 u% P/ {5 Z! K/ \Format : UTF-8
' k* `  z, V: U2 uCodec ID : S_TEXT/UTF8
8 o/ X0 O/ A8 B* ZCodec ID/Info : UTF-8 Plain Text
" x- R! K- J" p" x$ ~: DDuration : 2 h 13 min
/ Y! K) D1 O0 |2 k. U5 p6 F* i: ?; ^Bit rate : 59 b/s
6 r" q0 i0 L! I, R- I- L' _Count of elements : 1821. B0 h; u8 q* ~+ ~+ ^9 T
Stream size : 58.3 KiB (0%)$ W& B' c! m2 c/ Z$ |. m
Title : French
8 I# T0 Y1 G8 F, uLanguage : French
4 D$ |" f; Y6 A+ y6 j. p+ xDefault : No
. L' \; Z; B: w: {+ g" s  s5 JForced : No
1 {+ `' S6 o2 t0 w. P
6 c* u4 H7 Y3 p4 q: \4 A& tText #10. y. G& M7 m3 M6 Z$ m
ID : 12
# D. o- j  e* {2 D! T0 a5 |4 ^Format : UTF-8
9 n. k7 ~5 t7 J, i9 m* @# pCodec ID : S_TEXT/UTF8+ x2 k. N# `- ?' {2 f
Codec ID/Info : UTF-8 Plain Text
; j* a/ P5 \+ c7 yDuration : 2 h 13 min0 B4 v/ Z* l- s
Bit rate : 61 b/s
) `- N1 I- `. D! ?$ V- o; b# SCount of elements : 17394 j! _" R8 b; _+ L! j5 M  r
Stream size : 59.8 KiB (0%)
7 F; ]1 V: y5 @; l# wTitle : German: [. ~1 o' J2 ~# f* W; C0 l
Language : German& B0 g' N4 N, I  D
Default : No
- M" z& Y' ~  P  D, |  `  {Forced : No
" A3 W6 M$ ?1 p/ U& Q, t, }4 T) M' Q
Text #11
/ s$ O& j- Q9 c" s3 R0 D: VID : 13
$ x$ b9 Y- c' C3 H3 L% x7 lFormat : UTF-8
/ b3 i! J! L$ ZCodec ID : S_TEXT/UTF8( b( E, C1 {' E6 p
Codec ID/Info : UTF-8 Plain Text
$ {' `& X4 Z  D3 tDuration : 2 h 13 min  [- f, h4 U5 G
Bit rate : 102 b/s
2 t$ \% H) T4 ^3 XCount of elements : 1832( o1 V! l5 y% }6 |) s" g
Stream size : 100 KiB (0%)3 q8 F( M7 X+ D5 U' t; a+ p
Title : Greek
5 Z+ v: q9 G; R) wLanguage : Greek% {" [5 _, t$ f" @0 ^6 }* B  l
Default : No
6 _" _. J* \# ]6 W1 N9 h0 PForced : No  M2 P# _0 u9 _) S$ M( A- h# F
7 w$ O! X/ _' D2 n2 ?
Text #123 R' o% W7 m( n6 s: @
ID : 14
7 J9 g: d! `1 l3 z5 V9 k8 X; {4 ^Format : UTF-8! O: \# c  k; P( [& V* p
Codec ID : S_TEXT/UTF8
: e! N. D+ K; O* u5 NCodec ID/Info : UTF-8 Plain Text/ U  A7 E+ p4 o' {- a5 N! e& b
Duration : 2 h 13 min
9 N' s* D# }. c4 q) JBit rate : 94 b/s
6 M" i+ o* f5 ^% i( F; @! YCount of elements : 18548 P1 I. V: G4 p% H" [; J0 N
Stream size : 92.2 KiB (0%). G2 }9 F. s' y
Title : Hebrew% n  q  w' @( t3 S
Language : Hebrew5 r' {, s  _% ?2 Z; G/ v8 w0 @
Default : No, M$ A  L: N' F" V
Forced : No' q+ _$ ]8 Y' R/ v/ d$ B

0 M. m& a: k7 e* w* {, g2 p$ uText #13  f7 }3 x# t( [. u
ID : 15) d) ~7 y0 o2 J0 J
Format : UTF-8; R1 o* p+ j* N% Y0 i
Codec ID : S_TEXT/UTF8- z+ ^' T, A9 v, r3 p+ Q3 m1 ^
Codec ID/Info : UTF-8 Plain Text6 L5 p, h! S) V; T+ N& ?- [8 i; b
Duration : 2 h 13 min3 Z+ w6 a" N$ }9 y1 r6 l; n3 `1 p
Bit rate : 62 b/s- r! f4 B# J' j: Z0 ?& w
Count of elements : 18312 h6 I$ E# M- F( X# \8 |- i) Q, a# j
Stream size : 60.7 KiB (0%)* t2 s6 r* V' K, K
Title : Hungarian
7 p. B3 w8 S4 KLanguage : Hungarian
  g5 t1 `9 s% I; N. O3 DDefault : No8 @4 E. w/ I! \! |
Forced : No
' L% W2 r8 e1 F& N
: @% V6 Q/ k, f( FText #14% f- X8 p+ @. ]! E0 {5 S- y
ID : 164 W9 p2 D# Z: t2 j+ A! l
Format : UTF-8" Z3 H$ l& u/ ~  F
Codec ID : S_TEXT/UTF80 Q/ ^6 A) z/ A6 g; j; |
Codec ID/Info : UTF-8 Plain Text
, q+ \) A# u  J4 T+ D$ T4 [Duration : 2 h 13 min
. i6 q& m) D1 X  T3 m# XBit rate : 58 b/s4 y/ S1 b7 r+ B8 j% B& U1 A: t. i
Count of elements : 1864( @, {, k" `% L) z5 O
Stream size : 57.1 KiB (0%)) x) K. i( G- }" _' i- Y
Title : Indonesian* O7 s) C, ?/ }
Language : Indonesian
+ X5 t. Z6 L9 P" hDefault : No; E; G6 N5 \4 }% C
Forced : No
. T$ t3 X5 k' x6 s& y& ^9 x% q8 m. e* S0 z( n. F0 t7 S/ `
Text #15
( L% C+ K* k5 u6 Q8 B7 X0 sID : 17
0 c2 I2 Z1 x- U% L( y0 _9 z) V: BFormat : UTF-8' B8 k/ O9 G! H& w6 Y' o* o: x- ^
Codec ID : S_TEXT/UTF8
3 }3 ?5 v% ]3 u. \  C7 }/ v6 U/ @Codec ID/Info : UTF-8 Plain Text3 c  S! w1 @" z: n
Duration : 2 h 13 min- D7 i3 A9 `( I" A
Bit rate : 59 b/s
- Z, c5 o' K! J6 X  j2 wCount of elements : 1742: u( c& X/ [  D4 U! _# g
Stream size : 58.6 KiB (0%)- E! }: y' F- p9 V, d
Title : Italian
1 L( U0 I4 d6 j" k# hLanguage : Italian; B) v, O9 w/ i- ]6 L/ Q( }
Default : No3 h7 B6 Z# E# E, W3 x" @$ V1 e
Forced : No
& d' L2 l& \/ G* v
+ T4 \) ~% e- v$ Z. SText #16" F3 T8 O: G7 ^2 B6 r1 M7 c/ K) }0 Q
ID : 18
: v5 n- [* y" r6 r, S4 W( YFormat : UTF-8" f9 o4 ~$ [3 g* ~
Codec ID : S_TEXT/UTF8
& }- ~6 v: B& r( OCodec ID/Info : UTF-8 Plain Text
2 m. q3 H6 y: V% l- R/ ]7 HDuration : 2 h 13 min8 [! V9 ~* q" s
Bit rate : 58 b/s* V) m: U; M  S9 n
Count of elements : 1863
+ ]9 B8 \/ K# @$ \Stream size : 57.3 KiB (0%)
; L1 j0 y7 J- g% x" RTitle : Japanese; O8 r$ s) q: c, E+ Z
Language : Japanese( r% r; N' B! B' A8 z
Default : No' K, B/ O1 H2 M: D4 z! U
Forced : No- g4 ]2 k2 G1 l" t6 o, n
* r- W4 E6 S# B& l- f
Text #17
) l, P& `+ J, G8 u8 Y& v+ mID : 19
. q( {  a' J: x" rFormat : UTF-8
/ k- v. k  A5 L. @% b  l7 nCodec ID : S_TEXT/UTF8
5 A. m  x2 P' Y5 ICodec ID/Info : UTF-8 Plain Text
1 ^9 Y; F% i1 ?+ @! p* YDuration : 2 h 13 min/ C( J7 P0 J6 C! y$ u$ y, |5 ^
Bit rate : 70 b/s- c; Q1 m# J" o  \
Count of elements : 18516 ]7 I2 t0 g& j' }
Stream size : 69.1 KiB (0%)
! a; b& ^9 W" [/ \9 q" kTitle : Korean; f/ C, y* r' ], o. H0 [8 ]
Language : Korean; c* e  R8 f' O; Q0 H( K
Default : No
5 F5 ^0 x+ I# G, mForced : No6 N" q& L; s, Y- d( j

% S% t* E; Q8 \; N' KText #189 k% Z" A, S# N! U' v' x( y
ID : 20
. b/ t7 V! b7 i( gFormat : UTF-8% f8 e1 y: \$ w/ \1 B/ P4 H
Codec ID : S_TEXT/UTF8
( T; @7 }: J/ h  h5 y4 PCodec ID/Info : UTF-8 Plain Text. M7 A+ ?& L! L' v1 B9 [& Y/ k
Duration : 2 h 13 min
; O, v0 d7 R. @1 mBit rate : 56 b/s
/ d8 d0 i! J0 w- w& vCount of elements : 1701- R- h& R# l# X8 y3 t" E  v1 T
Stream size : 55.0 KiB (0%)2 W: O% ]* O5 H5 A, j
Title : Norwegian Bokmal" [; I+ s2 I8 N7 d3 n
Language : Norwegian Bokmal- w5 r& l! E+ `) H* o9 V& G
Default : No
; @$ g6 R# M- DForced : No
! a3 T1 D$ Z% _! k3 ^
, L+ h$ [+ V+ x& w# F, tText #19
* g! C; `+ H* [ID : 21
  x8 z- O2 C, z, `Format : UTF-8
' V7 H' {4 ^+ c! m9 J+ yCodec ID : S_TEXT/UTF8, H  x& e4 i% N% l% s
Codec ID/Info : UTF-8 Plain Text- ]( x3 M6 f7 h7 N" I. U
Duration : 2 h 13 min/ v/ {" K+ m4 _5 Q8 v7 Z
Bit rate : 56 b/s& v/ U# Q5 V0 F; H0 J# [
Count of elements : 1817$ N: {  T; `# Z7 T& P  h9 Z, p
Stream size : 54.8 KiB (0%)" m3 _/ p6 n" j: S/ I9 W; b
Title : Polish
, h- o- Z6 M- I& U# `Language : Polish
. C1 g6 D4 @1 H$ f4 n& P, g: K( NDefault : No$ X" z3 S& ~6 O1 P0 d
Forced : No
( N8 ~- \) y+ r. g/ t) i; r5 o, w0 k) x( H7 ?
Text #20
1 F" I2 P+ j: m5 h# b* Z  i2 Y" S8 sID : 22
) O8 l4 u$ o3 e1 y( N9 V$ G5 nFormat : UTF-84 B" G2 ^$ X9 I7 O! h* G
Codec ID : S_TEXT/UTF8
- e: G$ l. F( U$ X2 rCodec ID/Info : UTF-8 Plain Text- Z. b+ q; A* O5 }
Duration : 2 h 13 min" H$ q0 @1 V% o  U, m
Bit rate : 62 b/s
! z" {9 M; x! |1 A6 u5 s; JCount of elements : 1787
" B( q' D' X9 [- Q$ m( L/ P! a  u. tStream size : 60.9 KiB (0%)6 [$ L) ]) S& U1 I' E7 i* q
Title : Portuguese
; v* K6 B# j# ?8 k3 C+ L* {- t0 @Language : Portuguese9 o- A4 E1 ?# P* c0 Q
Default : No$ L7 p) R3 k7 }$ S3 b
Forced : No
% |0 c7 U) ^; l! W5 I+ T( Z8 n, C, c) x" e) v2 E! I
Text #21
. b, g* q- r. g2 U# o2 `0 T7 YID : 23
& v0 U0 ]7 Y  JFormat : UTF-8
% a1 z5 ~0 y3 i1 Z9 h# q$ aCodec ID : S_TEXT/UTF8
0 C+ Z' `+ Q& ?9 {Codec ID/Info : UTF-8 Plain Text
. ~: L& _5 C5 x- j" FDuration : 2 h 13 min5 [5 f) M6 a0 l; U+ T! Z
Bit rate : 63 b/s5 O% x. A4 ?7 |7 E/ P
Count of elements : 18291 R3 ]+ X9 b2 w# b* t, T+ q
Stream size : 62.0 KiB (0%)
/ N( H1 _$ E, j& BTitle : Brazilian Portuguese2 `$ m  W$ `7 c/ u# c. m
Language : Portuguese& X+ V8 h; L6 y& H
Default : No# R( Y9 Z! W# u9 o! w0 }, z
Forced : No' v# G) k+ S8 k

; C' M5 O; l1 D7 f: V& r! b) |4 oText #22# ^' c9 x4 B  X- L  U
ID : 24
* k  K) h' ]8 L! yFormat : UTF-8
0 R8 g4 Q3 u# p4 ?: Z1 ]* i1 R5 JCodec ID : S_TEXT/UTF8! H  I% y. n$ t
Codec ID/Info : UTF-8 Plain Text: W6 d& s+ s. `3 M; m* ^" v+ q
Duration : 2 h 13 min
; r8 H/ e9 u. P6 ^3 iBit rate : 68 b/s
) c; {& A. B  w' z, d0 SCount of elements : 17972 q! y# a( k" r! V9 a3 Q
Stream size : 67.1 KiB (0%)
8 L  e; K, j6 DTitle : Romanian! N7 J0 i# a# u* S8 }+ h
Language : Romanian( r8 k* I0 z1 @0 K! H  z6 ~1 u
Default : No
6 g+ u0 w$ ~" h4 n% u# N& p3 f8 ?; [Forced : No
0 d$ b% Q  W2 \/ {& z) }" X$ ]9 F0 Y0 U1 z. N
Text #234 X; W0 d! u! d4 B3 X
ID : 25
+ D+ j- J* i+ O. W. x) R3 BFormat : UTF-84 s5 u; }) \! a) m6 F& K4 d4 X
Codec ID : S_TEXT/UTF89 c+ y( f. |9 a/ W5 r% L1 J
Codec ID/Info : UTF-8 Plain Text8 M9 }# j0 m+ b# |) W$ |3 L
Duration : 2 h 13 min* V1 k, I3 r% P
Bit rate : 99 b/s
/ F1 v6 P* b( b! R6 ]8 U& ?6 k5 ~Count of elements : 18780 B' V/ g/ t; K
Stream size : 96.8 KiB (0%)
1 n  K: p& ~2 G" l# ]6 I, uTitle : Russian  G; g5 l+ W- K# r; j
Language : Russian( M" u* B$ t3 \, p. s% v
Default : No% f" Y6 _: d& k4 V  f: a: B" W  N0 X
Forced : No
" O" o, b8 H- a9 [: J3 _
0 U, m( E% `8 F1 x5 j  V+ F! t: tText #24
( h5 Z" |( F+ a+ I$ R$ H0 ~ID : 263 U% C$ j2 r+ d3 K( S2 V' ?
Format : UTF-8
+ r5 H( b4 c8 W& {9 uCodec ID : S_TEXT/UTF8
5 j' ?. U2 P  rCodec ID/Info : UTF-8 Plain Text
' P6 J8 O: O) K5 BDuration : 2 h 13 min1 m! P$ Q6 G" p' _
Bit rate : 61 b/s
3 `0 S$ m8 S8 o( t7 D% K# KCount of elements : 1848
* d/ k- J* g( q( ^( B# vStream size : 59.6 KiB (0%). b5 c/ Z3 X3 \& I3 ]4 g; @0 l
Title : Spanish! Z* {3 S, |2 T; l. A" S9 [5 N
Language : Spanish
! N8 R, P$ r* Y0 ~1 e! GDefault : No
2 Z" w; G- P  c! c6 ~0 \- Z2 J4 i4 vForced : No. o1 F& H/ [5 T
. s6 @5 m& O: |! m! b, @
Text #25
6 {  |7 Y( [7 K; v$ OID : 27
, P4 x, y6 R9 Q1 p* }Format : UTF-8; D2 T; v  {: I- b) E% w
Codec ID : S_TEXT/UTF8
- ~" ~9 z% z9 B; G  n* VCodec ID/Info : UTF-8 Plain Text: ~. {, N% c8 M* e* j" L4 n) Y
Duration : 2 h 13 min9 l- ]) D& S* g4 w6 p: U/ H9 M
Bit rate : 60 b/s
- h' T0 G. L5 y  r4 O! `# \Count of elements : 1729( G1 k! v, w1 j; p+ }$ b
Stream size : 58.9 KiB (0%)1 q5 _' U5 b' n& w
Title : European Spanish" s1 q2 `* J/ o- Q
Language : Spanish
! \: \$ h/ x5 M  o8 Z: _+ TDefault : No/ }' F# r: m4 d# y1 w% H6 ?+ M
Forced : No
1 m1 b$ T1 l: B; W" q7 w" x% T0 V2 M" ?
Text #268 z' u5 {6 t1 Y1 W6 u
ID : 28
7 F6 U2 o* T+ ^, xFormat : UTF-83 y5 t1 u& Y( w* G4 Z
Codec ID : S_TEXT/UTF8
0 a7 `# H9 h# ^/ C5 Y" _0 pCodec ID/Info : UTF-8 Plain Text
: ?1 ^' s& K/ ~  pDuration : 2 h 13 min% D- E: t' R/ S, o/ P
Bit rate : 62 b/s7 _6 V' D" r$ X+ u( N% Z" a; J/ ]2 a/ n
Count of elements : 18264 s" W% }$ V: W( _8 L) F. ^% ^4 F
Stream size : 61.0 KiB (0%)& {% u- t7 l3 ~% X
Title : Swedish: x$ I8 G* e) u
Language : Swedish
9 X( W8 {+ F/ v  i; w( ~Default : No3 U! u$ n4 U5 _3 V. M1 W
Forced : No2 ]& `* L3 b/ ?. @
+ {& P5 r3 w4 i" W; D
Text #27
& Q1 g! a. x0 q! F+ a* A# OID : 29: V! D" K0 ~8 S1 m- m3 D
Format : UTF-8
7 Z# y- j; q  X' g& bCodec ID : S_TEXT/UTF8. N% J# H6 M: l& y# E
Codec ID/Info : UTF-8 Plain Text; L  ~- J" j( z  F
Duration : 2 h 13 min
# ]' F' X$ i  Q3 W5 K" S4 @/ y  hBit rate : 159 b/s- Q! S- T7 S( t7 U8 B/ A2 R3 t
Count of elements : 1878
1 C5 J' A: g* XStream size : 156 KiB (0%)
- T: F* q7 j3 W* C, kTitle : Thai
- t* V. ]6 J- ~( R# r  v5 hLanguage : Thai
7 t* s( l! Q& o9 ^% sDefault : No/ A  |' t+ N) ]( F
Forced : No8 t0 e# \& `& F) V9 j- U
& F/ M% }; _% m' _2 b5 E
Text #285 ~) Q  c8 i6 ~) Q' P
ID : 30- B' I$ s) w$ G4 @
Format : UTF-8
9 r2 _' i. M0 _5 Z; |" YCodec ID : S_TEXT/UTF8, Z# y1 L( W! Y5 k- i
Codec ID/Info : UTF-8 Plain Text
2 H* B8 ?5 {/ c- P3 ODuration : 2 h 13 min
/ q2 U$ B3 M/ |& e: R* k) BBit rate : 60 b/s& R5 u# d% B# J' p7 J" E% G( Z
Count of elements : 1848/ m( h8 L- {0 q
Stream size : 58.7 KiB (0%)8 R$ e" v4 I7 q& ~1 p' H
Title : Turkish6 w) l: @/ Q8 U3 u0 A
Language : Turkish
% p  J# ]: Y5 _/ ~. @  FDefault : No
" ?; d( b( W) a  T0 pForced : No
: [: {! r# Q) Y: R
  R) r& r% G, I# S; R: eText #29
0 k# ?& l  o" A. u# `1 eID : 31; X2 q$ {. _( y5 k! r
Format : UTF-8
1 {) Y( d# t; D# P* TCodec ID : S_TEXT/UTF8
% g! O/ _" M* u! FCodec ID/Info : UTF-8 Plain Text( D4 @- G! Z1 l9 a- g, m8 W
Duration : 2 h 13 min
9 l) Z# t4 x1 P' F- }Bit rate : 87 b/s0 s0 N9 e5 v8 `2 F6 Q& \
Count of elements : 1743
2 [6 X. L$ ^4 OStream size : 85.6 KiB (0%)
2 D& t6 q1 ?" J% Q; p: ATitle : Vietnamese
, g* I: N" K% E7 ]% ?7 A$ `. h9 @Language : Vietnamese2 {) F# O; P; F! U/ N6 @
Default : No
% P5 ^: j. ^; N* d% |1 p: gForced : No
9 L0 _* |6 n+ \; [
游客,查看本帖隐藏内容请回复 | 加入VIP贵宾组可免积分免回复下载 了解详情 | 还不是会员:点击获取邀请码 Invitation Code

1

主题

312

帖子

1154

积分

Sponsor

金币
17 枚
体力
536 点
firendzhon 发表于 2020-9-15 08:39:20 | 显示全部楼层
谢谢楼主    我想结束这一切
2020第一天 ...

0

主题

100

帖子

498

积分

Sponsor

金币
0 枚
体力
267 点
tsming 发表于 2020-9-20 00:08:00 | 显示全部楼层
谢谢楼主分享

0

主题

124

帖子

469

积分

Sponsor

金币
0 枚
体力
249 点
枫美郑大 发表于 2020-10-14 09:04:46 | 显示全部楼层
我想结束这一切

本版积分规则

小黑屋|Archiver|蓝光电影资源网

GMT+8, 2020-10-29 13:22

快速回复 返回顶部 返回列表