BluRayCD Forum

 找回密码
 立即注册【分享大片】

QQ登录

只需一步,快速开始

查看: 20|回复: 1
收起左侧

[科幻恐怖] 拥有者 The Owners 2020 1080p AMZN WEBRip DDP5.1 x264-NTG 4.84GB

[复制链接]

64

主题

1506

帖子

5493

积分

Sponsor

金币
308 枚
体力
2082 点
lanpanshuma 发表于 2020-9-8 18:39:13 | 显示全部楼层 |阅读模式

. F% m+ Z' I  `* n! |- A7 I' Y- Y
4 [* V" G  @- a8 T& ?% O◎译  名 拥有者9 s# Z7 Y/ S! d% i
◎片  名 The Owners
" m- x9 B& F3 S◎年  代 2020. l" a( H- N* y; u9 w4 q% M- `4 C
◎产  地 美国
' @% m9 ?, P# ]- T. T5 X' A◎类  别 惊悚
* J7 `  I1 [  }  b7 x◎语  言 英语/ e6 G' @# F  W7 E7 H$ L9 g
◎上映日期 2020-09-04(美国)
" ]) }% o4 M! ^: S7 }# O8 e3 j◎IMDb链接  https://www.imdb.com/title/tt9806370/
0 |5 G- `3 j4 O& x2 V◎豆瓣评分 0/10 from 0 users
5 F( }' v8 ?+ k9 g2 H◎豆瓣链接 https://movie.douban.com/subject/30456382/
' D( z5 n( Y) j1 E6 @◎导  演 朱利叶斯·伯格 Julius Berg
* Z6 W3 z7 J8 I' a1 n◎编  剧 朱利叶斯·伯格 Julius Berg
& h) d1 v; F  o; a6 Q◎主  演 麦茜·威廉姆斯 Maisie Williams2 `3 Q) q; d4 `+ E# n% @7 k
       丽塔·塔欣厄姆 Rita Tushingham& f1 g0 J) j( ~
       西尔维斯特·迈可伊 Sylvester McCoy: h- `9 K$ Z  h" {" s- B
       杰克·库兰 Jake Curran
% _0 Y5 }+ n/ \/ U8 i       伊安·肯尼 Ian Kenny0 ?0 [8 ]) _& z% k' ^; L
       斯塔奇·希克斯 Stacha Hicks2 O: I- D! Z0 k# t* A0 M5 |1 S
       Andrew Ellis
9 X  Q# r6 V5 C& h) I2 @6 c
0 M2 w: T8 H: s% L◎标  签 惊悚 | 美国 | 2020 | 美国电影 | 犯罪 | 麦茜·威廉姆斯 | 线上 | 2021
% _9 f& ?4 O9 j3 o3 V# r/ j5 G
" E, i& J, e3 ?% s◎简  介  
9 m) b! O# n4 t! S2 d8 _$ Y9 S7 v4 C3 w& L: p
  故事讲述三个年轻人去当地医生家里进行偷窃,意想不到的是,医生提前回到了家中。4 E# D0 R' f7 Q  i
Video
/ L+ d* [8 V  |! ?( U- HID : 1! V, g0 ^9 H' R# q/ i
Format : AVC, L& `9 m# y; a. B" s0 i
Format/Info : Advanced Video Codec0 x, I% t6 n7 I# f
Format profile : High@L4+ V, W/ `6 ^$ ^5 K- G3 c/ v" O  u
Format settings : CABAC / 4 Ref Frames
0 @0 c" F+ U7 X) [4 TFormat settings, CABAC : Yes: }+ x8 |6 r* }6 x5 Z) A
Format settings, Reference frames : 4 frames& C: {. B3 z3 C8 z+ V. q
Codec ID : V_MPEG4/ISO/AVC2 D5 {& A( z+ m9 ]( D/ y0 P
Duration : 1 h 31 min
- m8 f1 T3 Y+ L- MBit rate mode : Constant- O, N0 U9 D$ B: T1 }/ U( c1 t
Bit rate : 6 890 kb/s) |6 O; l$ Y& `* ^
Nominal bit rate : 10 000 kb/s
$ T; A9 _) t% g/ r/ ~% fWidth : 1 920 pixels; a+ I5 o, R/ P5 y; q/ V
Height : 816 pixels/ N' `1 i1 u$ R9 G# O  G. y* H. |
Display aspect ratio : 2.35:18 i: U! t7 K6 f: u/ q+ F. g
Frame rate mode : Constant1 x0 Q5 w0 s  I  u( J( ~  o
Frame rate : 24.000 FPS
3 \5 {& Z" K1 H) X. H1 u+ F3 [& j' WColor space : YUV/ p* n( T. Y  i& {. }3 t
Chroma subsampling : 4:2:0
# S$ |% B2 z" g, _6 N7 lBit depth : 8 bits  J0 c% g! h  ?% e" J+ I3 r: q! r6 T
Scan type : Progressive
0 R$ @; p4 r7 m4 c; ^$ H/ QBits/(Pixel*Frame) : 0.183
- ~( L- }; }6 m$ @* E9 f9 \Stream size : 4.43 GiB (91%)
; J* ?. h" Q8 t4 t( ^- HDefault : Yes
4 p5 b* \0 }4 R, l9 H. P& }Forced : No) J# C- Q4 f& l/ g
Color range : Limited
6 z2 t5 k! v- _( vColor primaries : BT.709
8 N2 S9 |. k" b9 A) |/ V0 U% j. j2 CTransfer characteristics : BT.709
2 p: a9 U8 R& y. p( l8 T8 |Matrix coefficients : BT.709
/ `. o7 o+ J$ h+ I1 h$ n% s0 w0 ]
3 x3 o2 t" ]$ o) @  F& T& K" C% pAudio* F& R5 {3 F$ h( ^0 K" p8 I. P$ l% ?
ID : 2
$ u/ u/ A1 w* o3 ?' b5 h" f0 wFormat : E-AC-3- G7 `. Y' y3 z5 m, ^
Format/Info : Enhanced AC-3
6 u- f/ a$ X' R' Y! ~( v; qCommercial name : Dolby Digital Plus; ~/ c  B# |& |
Codec ID : A_EAC3; G/ h6 e, H: x* g( @
Duration : 1 h 31 min
% c# Q- }" j/ I6 W9 X9 ZBit rate mode : Constant/ U: }0 P( ^' Y6 t5 k
Bit rate : 640 kb/s
0 B1 M7 o( ~* J, i4 r+ f8 U0 yChannel(s) : 6 channels3 W$ }; U1 H/ {* S+ n) l# B3 }
Channel layout : L R C LFE Ls Rs% L3 Q& \% \' a3 M3 I6 }
Sampling rate : 48.0 kHz
" A. V' F' A' Y4 X0 H, G7 BFrame rate : 31.250 FPS (1536 SPF)6 X9 Z$ S2 g, q
Compression mode : Lossy
4 R3 j9 X' ]8 O$ e; C. {Stream size : 421 MiB (8%); l/ i2 ^% \1 p9 I* }9 P; I* f! }
Language : English( m3 W: j8 v1 }/ @8 T
Service kind : Complete Main
. U0 c* D1 k  h4 L3 E5 h. \Default : Yes
% y2 l+ z# O1 d) s* g& BForced : No+ a. Z# K9 ~2 b) q0 @8 d
" O; W$ p( @7 Y$ m: l
Text #13 e3 d6 W( l1 C, [& L) O
ID : 3
+ k5 U  x  _0 I+ XFormat : UTF-8% n! Y/ J: D4 W* v% M  Q+ y
Codec ID : S_TEXT/UTF8
5 s! G+ A( r7 O- E" iCodec ID/Info : UTF-8 Plain Text; o& d; G, }  Q6 t
Duration : 1 h 26 min
9 [; V$ K- s8 z$ G  b5 SBit rate : 57 b/s
3 j9 R$ a2 s. oCount of elements : 1383
7 o  P0 E) S* LStream size : 36.5 KiB (0%)6 d4 z* y, r4 E$ F0 N7 p
Language : English
/ `7 Y; b4 T1 P! zDefault : No
5 ]4 n$ b7 x8 K6 G# o' t/ xForced : No
$ J$ D- J  X3 B7 T& r+ l' e3 `- n' I" Q1 b
Text #2
; B# [. H% u* h; U( s- }+ `ID : 4
2 q8 Z# I3 Q  o9 {; c; tFormat : UTF-8# N) v; J; c$ E8 p; s
Codec ID : S_TEXT/UTF8% v; M8 x$ `2 E0 F' h. Z
Codec ID/Info : UTF-8 Plain Text& [( ?" x. C' M" S9 D9 M
Duration : 1 h 28 min$ z% n. M" G& N9 Y" G" W
Bit rate : 60 b/s: ?7 y! N- K2 z5 |, F$ A' j" s
Count of elements : 1508
1 R( w4 m/ _( x9 f0 V$ bStream size : 38.9 KiB (0%): @8 U3 k; |% Q8 B# m
Title : SDH* O! ]" O, p0 @( p) L" y) P8 m; Y
Language : English
; X% x8 C! b5 _* C, MDefault : No1 t7 K0 J/ e1 D$ {" j
Forced : No
( r1 q9 B4 a' ]' h+ U& m/ n8 |, q( G* Z: r& `0 ?* l, [; R& g
Text #3
$ i# P, v0 @  T- J( Z' p, t3 BID : 5
1 c$ S) D# S: \  Y! _8 t$ @$ ?Format : UTF-8
% W& Y6 J# k( sCodec ID : S_TEXT/UTF8
- r" E) ~# ?. r8 z5 U" z2 [Codec ID/Info : UTF-8 Plain Text
' |: g" F' _, H9 V0 hDuration : 1 h 28 min
7 `2 b. S# j" \3 y- a$ p4 y, t+ kBit rate : 56 b/s  a4 k6 J4 Z8 W- m* x+ c8 n
Count of elements : 14027 V9 b, L3 {# v4 C$ e5 r
Stream size : 36.4 KiB (0%). i! ~: R9 d5 o$ K' g
Language : Spanish3 s- \4 J4 A/ G# H
Default : No
& a+ U% Q. m2 y6 L+ y7 {. xForced : No

2 G6 k3 a; W  ^' w/ q9 M
游客,查看本帖隐藏内容请回复 | 加入VIP贵宾组可免积分免回复下载 了解详情 | 还不是会员:点击获取邀请码 Invitation Code
该会员没有 ...

0

主题

124

帖子

469

积分

Sponsor

金币
0 枚
体力
249 点
枫美郑大 发表于 2020-10-14 09:14:01 | 显示全部楼层
权利的游戏的演员?

本版积分规则

小黑屋|Archiver|蓝光电影资源网

GMT+8, 2020-10-29 12:35

快速回复 返回顶部 返回列表