BluRayCD Forum

 找回密码
 立即注册【分享大片】

QQ登录

只需一步,快速开始

查看: 26|回复: 1
收起左侧

[科幻恐怖] 末日驾驶员 The Driver 2019 1080p BluRaycd x264 DTS-HD MA 5.1-FGT 8.95GB & 8.34GB

[复制链接]

3897

主题

4271

帖子

3万

积分

Post Share

金币
7316 枚
体力
6584 点

卓越贡献勋章

mvods 发表于 2020-9-8 21:04:29 | 显示全部楼层 |阅读模式
7 f' X) R5 b8 \

4 [' N" @, V# |0 K5 b  p+ s9 r◎译  名 末日驾驶员, A) _5 o1 t6 k9 ]
◎片  名 The Driver
7 x4 z5 ^; w+ o* h# d( N/ h◎年  代 2019
9 {; v. a/ ^- Q1 q( P◎产  地 泰国' x+ B3 f6 k' M/ i' P* [& V. T! |
◎类  别 动作
5 _& W; T9 d9 k◎语  言 英语
! f4 J' N2 \: i◎上映日期 2019-11-26(美国): P  F' [8 E: X5 J
◎IMDb评分  4.0/10 from 467 users( G/ _9 O8 ^: U- H1 S4 ?( Q
◎IMDb链接  https://www.imdb.com/title/tt9272568/
" A. O. R/ K  [" E◎豆瓣评分 0/10 from 0 users* i& X; |% X/ O3 n2 f: l! i6 o8 ^5 @
◎豆瓣链接 https://movie.douban.com/subject/33376905/6 a) V/ C" {; _! b8 R4 J/ N
◎片  长 1 h 37 min
4 |, u6 {( A4 n7 ?1 S! \* _5 `7 ^$ _◎导  演 威克·考撒亚南达 Wych Kaosayananda
! I* T, y% W/ q  E2 ^/ ]% w◎编  剧 Steve Poirier
7 N* v. z; }3 s6 X; k9 t       威克·考撒亚南达 Wych Kaosayananda' `4 z8 l5 T! J0 u. k; W
◎主  演 马克·达卡斯考斯 Mark Dacascos
0 X8 R3 G# m* H       朱莉·康德拉 Julie Condra
+ o$ a( H4 [# {; J; V1 m. g1 ~: o1 p       Noelani Dacascos
3 N& Z( p1 ^4 M* O8 R" D3 f       查理·鲁德波卡农 Charlie Ruedpokanon/ [  l2 a( ^. Q9 t
       michael s. new
, x2 ]! M2 A+ u7 Z, I' @. r       milena gorum/ r1 k! Q( t+ x+ H9 F
       布拉汉姆·艾克巴赫 Brahim Achabbakhe
! E; @3 n/ o4 Z6 K. J2 R
- D9 B2 t+ B# G: _0 Q◎标  签 僵尸 | 动作 | 2019 | 美国 | 泰国8 ~3 j) {9 J$ J0 n- m
3 s* F/ E& F0 g- z" p5 O0 A
◎简  介  ! X2 z) d4 U  g) d/ O5 K% g

$ b, D, @3 H. s. `% ^. S5 e6 g' h- i  故事发生在僵尸病毒爆发的后末日世界,马克·达卡斯考斯饰演的主人公竭尽全力的保证家人的安全。( {1 M0 ~" l8 f0 e4 n
  In a zombie apocalypse, one man desperately tries to keep his family alive.
3 S3 w, j* [, G
Video
! \( _, c# g) C- `: SID                                       : 1
; c8 `4 N2 \- ]! w2 H, m' _, _Format                                   : AVC
' s& w9 c7 M! a8 |Format/Info                              : Advanced Video Codec
: T$ T- G! e" \9 R, ^- QFormat profile                           : High@L4.1
* Y# F& I! Y: N0 U3 HFormat settings                          : CABAC / 4 Ref Frames
  V% y2 t) b) u" {* F6 _6 j& MFormat settings, CABAC                   : Yes
- i2 B5 O3 s' n  YFormat settings, Reference frames        : 4 frames
8 v1 |4 r& u5 V% t! r4 b+ [Codec ID                                 : V_MPEG4/ISO/AVC9 M4 |6 v3 H# B1 q
Duration                                 : 1 h 37 min
  R- m- S: z0 L; n5 |Bit rate                                 : 11.5 Mb/s2 ]0 c1 Y$ |0 t
Width                                    : 1 920 pixels
3 S2 z: H. u; b8 W: T8 A* ]Height                                   : 808 pixels+ k4 C* G, H6 x5 s1 o
Display aspect ratio                     : 2.40:1" C/ a7 ?1 p. ]. i8 C6 f5 c
Frame rate mode                          : Constant
- x  O4 Y, ?1 j  u) ]* TFrame rate                               : 23.976 (24000/1001/37687) FPS
+ \. P7 I+ @, v* X# l* O' AColor space                              : YUV
% z- X3 |4 S7 d6 L5 N9 U! f9 dChroma subsampling                       : 4:2:0
% u  v* y  B. H  @6 F1 g: DBit depth                                : 8 bits
8 b% H. w9 m* _Scan type                                : Progressive
5 n8 Z6 D- t$ lBits/(Pixel*Frame)                       : 0.309
% f- w1 [% h! U7 r  M7 F5 ]' }6 uStream size                              : 7.82 GiB (87%)6 X8 m, w& S% o6 o( G6 F) x4 X( o7 T
Title                                    : The.Driver.2019.1080p.BluRayCD.x264.DTS-HD.MA.5.1-FGT  w* Z  x, |  l& T# o
Writing library                          : x264 core 148 r2748 97eaef2- K6 i$ A$ i: A( K
Encoding settings                        : cabac=1 / ref=4 / deblock=1:-2:-2 / analyse=0x3:0x113 / me=umh / subme=9 / psy=1 / psy_rd=1.00:0.15 / mixed_ref=1 / me_range=16 / chroma_me=1 / trellis=2 / 8x8dct=1 / cqm=0 / deadzone=21,11 / fast_pskip=1 / chroma_qp_offset=-3 / threads=24 / lookahead_threads=3 / sliced_threads=0 / nr=0 / decimate=1 / interlaced=0 / bluray_compat=0 / constrained_intra=0 / bframes=3 / b_pyramid=2 / b_adapt=1 / b_bias=0 / direct=3 / weightb=1 / open_gop=0 / weightp=2 / keyint=250 / keyint_min=25 / scenecut=40 / intra_refresh=0 / rc_lookahead=50 / rc=2pass / mbtree=1 / bitrate=11500 / ratetol=1.0 / qcomp=0.60 / qpmin=0 / qpmax=69 / qpstep=4 / cplxblur=20.0 / qblur=0.5 / vbv_maxrate=31250 / vbv_bufsize=31250 / nal_hrd=none / filler=0 / ip_ratio=1.40 / aq=1:1.008 j! Y9 p& A6 Z7 ^, V# i
Language                                 : English, x6 A7 H( L7 k  u1 `
Default                                  : Yes
/ I. p8 j- |! Q% P- E0 g( hForced                                   : No
5 ?" o) E7 ]9 D7 j
' @8 H7 K* y+ y  Y6 tAudio
5 U8 ^4 D- K# f3 WID                                       : 2
- Z8 B9 ~* @4 A3 V1 o9 G) bID in the original source medium         : 4353 (0x1101)2 ~2 u- n! l6 w4 d  Z' h4 t
Format                                   : DTS XLL5 K% p! `# J" {* N7 m: c, I1 ]& F
Format/Info                              : Digital Theater Systems
3 D' ^0 N& y7 H6 T/ j* HCommercial name                          : DTS-HD Master Audio1 C7 A* q; _7 a4 @& e) y
Codec ID                                 : A_DTS/ p+ x5 y$ y2 z8 c! X) z
Duration                                 : 1 h 37 min. c7 `! z% f4 k2 _) A; Q9 ]
Bit rate mode                            : Variable
# O2 e3 B3 R  v+ e+ |; v3 tBit rate                                 : 1 658 kb/s
& \3 p% K  u; d, mChannel(s)                               : 6 channels
; Z9 l$ a3 S! }8 uChannel layout                           : C L R Ls Rs LFE
/ H- ]7 ]2 B/ b( E* r9 S; m7 ?Sampling rate                            : 48.0 kHz7 ]" c! ^$ q% {/ Y9 ]0 B. k3 B
Frame rate                               : 93.750 FPS (512 SPF)
: ]# h$ N# I& f1 n4 oBit depth                                : 16 bits
& a0 K. s1 ~' }8 o- ^) z2 y7 nCompression mode                         : Lossless$ k: `) l7 |5 n$ ~5 P
Stream size                              : 1.13 GiB (13%)
9 X+ ^" ^8 t) W' ETitle                                    : The.Driver.2019.1080p.BluRaycd.x264.DTS-HD.MA.5.1-FGT
- Z# {" x6 a9 B1 ?Language                                 : English
" P- V  V  r6 w! T. T; `Default                                  : Yes
1 S6 w" b9 r+ p# h% @7 iForced                                   : No
# |- v, b. W& u; D9 C! _& A4 fOriginal source medium                   : Blu-ray$ z* H0 D! d* S4 U2 M  c$ ~, j

% x' z4 q$ A$ l* @- a; n# zText  @& C9 S4 k7 |2 t
ID                                       : 3
% x$ V* ]6 a1 a% e0 ?Format                                   : UTF-8' N# a- J  v$ z* W. H! o" s
Codec ID                                 : S_TEXT/UTF83 P$ S0 `% G5 T+ F' X7 h  R
Codec ID/Info                            : UTF-8 Plain Text
& ?7 E( W- ~7 m+ E0 b8 x9 _: [) xDuration                                 : 1 h 36 min
+ t+ }3 h3 T- q& C: {% j0 oBit rate                                 : 35 b/s8 q$ C* B; Q8 n9 B8 t
Count of elements                        : 983- n3 ?0 W8 L+ x
Stream size                              : 24.8 KiB (0%)5 i) [# f/ ?3 W  R: Y5 u: [) d" m
Title                                    : English-SRT  _9 n. V2 w9 r: X& h9 S
Language                                 : English
7 E* H( P9 @& K% EDefault                                  : Yes( f' N% D2 J/ x2 K  y/ j/ M' q
Forced                                   : No
9 P% K" a! h9 v) r0 {; ]$ r8 B/ W5 j# \2 ^. A5 s2 q
Menu
7 W, n/ I3 H) g0 ]9 U00:00:00.000                             : en:Chapter 017 x- ~% E# \; Y! e8 h  h6 n5 X
00:11:15.424                             : en:Chapter 02; c5 t5 L# T6 F; [( P
00:19:23.245                             : en:Chapter 03
, Q- x6 u* \% n& N00:26:44.811                             : en:Chapter 04  m! ^: }- ~5 [% O) k: U$ e
00:41:26.442                             : en:Chapter 05
% A6 ?, X7 X7 }8 N00:49:00.228                             : en:Chapter 06
* N9 w) Y  o- S! I00:55:40.086                             : en:Chapter 07- @* f! v6 ~( g0 R
01:06:32.655                             : en:Chapter 08! c* Y6 u# I4 B
01:13:37.830                             : en:Chapter 098 ]3 a1 {5 C) j$ i- K) }" B& }3 |3 W. p
01:20:53.515                             : en:Chapter 10
4 k* b& B3 @, M/ u+ K01:28:50.950                             : en:Chapter 11
& S5 f4 L" T/ ?( m01:35:01.445                             : en:Chapter 12
) Y; g+ r( ]* `& J$ P* N' ?, @9 y

# C) m# H4 p% X. H! c" \! v
5 a7 u; X5 R' ]7 Q+ X
游客,查看本帖隐藏内容请回复 | 加入VIP贵宾组可免积分免回复下载 了解详情 | 还不是会员:点击获取邀请码 Invitation Code

64

主题

1506

帖子

5493

积分

Sponsor

金币
308 枚
体力
2082 点
lanpanshuma 发表于 2020-9-9 10:01:08 | 显示全部楼层
楼主发贴辛苦了,I*老*虎*U!* t4 e  D  ~) z3 l6 k5 k
In fact, I have always felt that the landlord of good taste! Ha ha!( ]7 O1 J$ l! x. L5 M2 x
该会员没有 ...

本版积分规则

小黑屋|Archiver|蓝光电影资源网

GMT+8, 2020-10-29 13:01

快速回复 返回顶部 返回列表