BluRayCD Forum

 找回密码
 立即注册【分享大片】

QQ登录

只需一步,快速开始

查看: 24|回复: 1
收起左侧

[动作战争] 坏家伙们 Bad Guys The Movie 2019 KOREAN 1080p BluRaycd x264 DTS-HD MA 5.1-FGT 12.07GB & 10.45GB

[复制链接]

3897

主题

4271

帖子

3万

积分

Post Share

金币
7316 枚
体力
6584 点

卓越贡献勋章

mvods 发表于 2020-9-9 21:14:20 | 显示全部楼层 |阅读模式
01.jpg
3 D" g4 B6 _' d* M3 h! E4 O# D: Z* W, K& G  R
◎译  名 坏家伙们
8 G# @2 P6 z8 h7 H# [◎片  名 나쁜 녀석들 / 나쁜 녀석들: 더 무비 / The Bad Guys: Reign of Chaos. p3 Q- n3 \3 h: x
◎年  代 20196 c+ H$ ?; U' T8 Z; o
◎产  地 韩国
6 X, `0 p6 Q0 u5 r. M◎类  别 动作/犯罪
$ A4 V: K6 z, L! D7 L! I/ S◎语  言 韩语
# }; s& u: D2 v. X4 Z◎上映日期 2019-09-11(韩国)
8 g, z( b6 A. I* Z◎IMDb评分  6.0/10 from 770 users9 J6 b5 N. ~- N) Y6 P' ^& c: y' }
◎IMDb链接  https://www.imdb.com/title/tt10726604/- s( N0 k7 `9 ]# Q2 h
◎豆瓣评分 6.6/10 from 19,576 users9 P& }. d2 p* P& l5 f; Y
◎豆瓣链接 https://movie.douban.com/subject/30249076/
2 U' p3 s4 Y" R9 U◎片  长 1 h 54 min
/ R- j4 {: z0 E& ~! [" N◎导  演 孙容镐 Yong-ho Son
; q) E3 K, C7 F/ H◎编  剧 韩正勋 Jung-hoon Han7 _! Y7 C$ ?( [# \
◎主  演 马东锡 Tong-Seok Ma
$ `( k' o, @0 f: r# k/ j; X4 M       金相中 Sang-joong Kim5 Y4 K+ Y% J* X8 u8 A
       金雅中 Ah-jung Kim
) E% |2 h# d6 C  ?; F       张基龙 Jang Ki-yong" _/ R, X  T# v
       姜艺媛 Ye-won Kang* ]& o8 Z# P! R5 s. g6 N
1 Y; ^2 {2 J6 ]" h3 D
◎标  签 马东锡 | 犯罪 | 动作 | 韩国 | 韩国电影 | 2019 | 悬疑 | 电影; ^% t2 Y* ?& v* [
+ l' S0 N2 w; O* L- o6 l
◎简  介  
$ i- k1 U  b% \5 e
( H3 a8 n( V9 D6 t  影片讲述了十恶不赦的罪犯在被转送的途中出逃,为了抓住他们,“坏家伙们”再次集结,上演了一场恶与恶之间的对决。( E1 O* o. o9 P/ e7 s1 o

; W9 t8 g: t8 Y5 B/ D  A bus transporting the inmates is flipped resulting in the felons escaping. In order to round up and once again incarcerate the criminals the cops form a special task force that needs to work in haste. The chief detective forms a crack team and is rearing to go because time is of the essence. Moreover, the criminals are dangerous on the loose. The matter is complicated when a criminal gang is soon involved and interferes.
8 V2 e4 z, F& z" v( k
Video2 C$ u+ Z6 D# C) S  W2 `
ID                                       : 1, l2 E6 M5 \1 S  G$ S% E3 w
Format                                   : AVC
( G; {; h1 P: G6 }% aFormat/Info                              : Advanced Video Codec1 t: b9 l. Z2 r1 G% w. @
Format profile                           : High@L4.1
; l& ^- e3 e2 V8 Q/ TFormat settings                          : CABAC / 4 Ref Frames% Q9 I- O' Q1 E) S2 n+ q* Y6 J
Format settings, CABAC                   : Yes$ t8 _% }( e! a0 N8 l; O6 F% z" x5 w
Format settings, Reference frames        : 4 frames
6 Y2 L) A* f5 Z' |" w/ j8 `3 {& g' tCodec ID                                 : V_MPEG4/ISO/AVC
5 w; S/ l/ E% B* _  G1 GDuration                                 : 1 h 54 min  H$ M0 }. Y- O1 u$ X
Bit rate                                 : 11.5 Mb/s
+ q3 x9 F5 x- GWidth                                    : 1 920 pixels
- n0 x  H1 H( Q  s( m0 oHeight                                   : 804 pixels, ~& r) ~( d- c; g" f
Display aspect ratio                     : 2.40:1( _: e" U0 H5 M1 p  E% L: E# \" w+ @
Frame rate mode                          : Constant
4 ^- E/ y  x% c+ ~6 DFrame rate                               : 23.976 (24000/1001/37687) FPS0 G: e! ?  A9 V6 o8 B5 m0 L
Color space                              : YUV
/ x/ E2 v+ c# r/ U7 d: wChroma subsampling                       : 4:2:0
9 R; ~9 j8 X6 L) w) [+ ]Bit depth                                : 8 bits, p% L: W( q* k, G- v
Scan type                                : Progressive7 `& t. J3 U; \' v9 b, ?( u8 d
Bits/(Pixel*Frame)                       : 0.311' T3 s  R9 q7 v' c' N
Stream size                              : 9.24 GiB (77%)
* @; ~/ ]* c, T. ]: g" dTitle                                    : Bad.Guys.The.Movie.2019.KOREAN.1080p.BluRayCD.x264.DTS-HD.MA.5.1-FGT
  k- u/ g5 w; A- |* i1 u' zWriting library                          : x264 core 148 r2795M aaa9aa89 a% A1 m4 x/ _+ V: [
Encoding settings                        : cabac=1 / ref=4 / deblock=1:-2:-2 / analyse=0x3:0x113 / me=umh / subme=9 / psy=1 / psy_rd=1.00:0.15 / mixed_ref=1 / me_range=16 / chroma_me=1 / trellis=2 / 8x8dct=1 / cqm=0 / deadzone=21,11 / fast_pskip=1 / chroma_qp_offset=-3 / threads=72 / lookahead_threads=3 / sliced_threads=0 / nr=0 / decimate=1 / interlaced=0 / bluray_compat=0 / constrained_intra=0 / bframes=3 / b_pyramid=2 / b_adapt=1 / b_bias=0 / direct=3 / weightb=1 / open_gop=0 / weightp=2 / keyint=250 / keyint_min=25 / scenecut=40 / intra_refresh=0 / rc_lookahead=50 / rc=2pass / mbtree=1 / bitrate=11500 / ratetol=1.0 / qcomp=0.60 / qpmin=0 / qpmax=69 / qpstep=4 / cplxblur=20.0 / qblur=0.5 / vbv_maxrate=31250 / vbv_bufsize=31250 / nal_hrd=none / filler=0 / ip_ratio=1.40 / aq=1:1.00- i# p/ B8 Q" N+ t# q& |: |4 n
Language                                 : Korean
7 E( c3 Y( O) C: Z% N3 W7 wDefault                                  : Yes
, ^( q$ b8 {5 vForced                                   : No
- J6 a* e/ G7 L* B
/ W% v9 u, c# F3 t$ K2 YAudio
8 M* F, F/ x9 s7 M9 U, C( l. RID                                       : 26 ]) Z7 A; K1 B# M& g! v" N
ID in the original source medium         : 4352 (0x1100)
3 E+ _$ s8 g2 P$ j5 P; @1 xFormat                                   : DTS XLL3 n' A6 \( ]6 ^
Format/Info                              : Digital Theater Systems, |+ q( ]! z! E  E- @9 o
Commercial name                          : DTS-HD Master Audio
- |) G) \4 C9 t7 t' cCodec ID                                 : A_DTS- G2 h2 U# d; F# U) V8 _
Duration                                 : 1 h 54 min0 O  T8 x1 Z1 r% m& J
Bit rate mode                            : Variable6 K/ S; @- i' `5 @7 ?& F8 P+ h
Bit rate                                 : 3 501 kb/s4 p" `, @  P7 g" P, ?5 {4 C
Channel(s)                               : 6 channels0 k( c7 Z+ N3 t' [7 s
Channel layout                           : C L R Ls Rs LFE
' \0 D9 O6 v* z" _& C) v. fSampling rate                            : 48.0 kHz8 I. T% t' ]) B4 T! }! Y  t
Frame rate                               : 93.750 FPS (512 SPF)
' L9 q8 U6 R( _$ L1 O$ VBit depth                                : 24 bits
% v  ~/ r; r) v- ?: FCompression mode                         : Lossless+ c8 V! [/ d1 Y, [1 ^4 s
Stream size                              : 2.81 GiB (23%)) G* a7 j# I4 A% M0 Q  \, O5 X
Title                                    : Bad.Guys.The.Movie.2019.KOREAN.1080p.BluRaycd.x264.DTS-HD.MA.5.1-FGT  B0 w* [0 ~7 I0 q7 i
Language                                 : Korean
' M; O& U: O  [; G; U# `Default                                  : Yes
( a. A" ?7 \7 t" x$ j  d; R1 yForced                                   : No
: V, b2 M8 }3 u( b  u2 M4 eOriginal source medium                   : Blu-ray. z0 m+ W  }+ s/ I6 }$ r. @
9 ?) i: y3 `/ h% @' e
Text #1+ J9 {+ l- `7 ~; x! j3 o$ V& V
ID                                       : 3
* ]: x; B# B! I: [; d! n  qFormat                                   : UTF-8* }% c. ]% p; \& X( W6 m
Codec ID                                 : S_TEXT/UTF85 u- u/ q# y" x# Q" }/ F( z
Codec ID/Info                            : UTF-8 Plain Text
9 t) y- ?7 O, I8 ^1 h' A0 f2 jDuration                                 : 1 h 51 min
) P  [' \6 s8 V$ n. o1 jBit rate                                 : 41 b/s
* T" m1 j2 h' X( H4 f$ rCount of elements                        : 1107
( E' \: z8 W6 OStream size                              : 33.8 KiB (0%)
& \3 `, n# Z: u& gTitle                                    : English-SRT, n! k9 y- K0 |# @5 x# ?0 f( h+ s
Language                                 : English
& x1 f! m5 s* _Default                                  : Yes
+ A8 o  E4 c! LForced                                   : No
& \) ~1 X& k2 a' q2 }$ D0 W
3 D1 q2 o# c' @- Y! YText #2' P. ~% h$ w5 ~: h
ID                                       : 4
  Z. W6 {" A0 f7 PID in the original source medium         : 4608 (0x1200)
+ e* X  a2 @7 s9 ^0 v) D; JFormat                                   : PGS
8 h' m$ Z  H: Y; j/ iMuxing mode                              : zlib! Q, g- `! M. o; Y
Codec ID                                 : S_HDMV/PGS
) A$ x+ V4 {6 @) E8 d* ]/ \1 sCodec ID/Info                            : Picture based subtitle format used on BDs/HD-DVDs
9 X* b* Z" D" a, Y+ {) V% ODuration                                 : 1 h 50 min6 W) {" x! t. O; Q
Bit rate                                 : 23.5 kb/s
) q7 V$ K0 e- W% W1 ?/ iCount of elements                        : 2225
6 X7 |/ {2 l+ M) mStream size                              : 18.6 MiB (0%)
5 i6 J* r% _0 V, O, JTitle                                    : Korean-PGS
# i3 K$ V& ]1 c% _, _+ V4 y. H% _Language                                 : Korean
" x6 _; f' `* x* o; zDefault                                  : No
5 b* X) @) @6 ?# C# [Forced                                   : No; w. o3 b' V$ v7 V/ C7 H- _
Original source medium                   : Blu-ray9 x  }' o- l/ C0 j& O
3 _" a; C8 x9 j$ S" V( o* E; A, E, Z
Text #34 I* ?8 {+ @6 j+ N$ l
ID                                       : 5
8 z& s& I/ e- AID in the original source medium         : 4609 (0x1201)9 A& w0 t1 |/ r1 g# W- N
Format                                   : PGS% ~2 n# G6 ?0 K9 `
Muxing mode                              : zlib
5 ]# G  h4 s/ D5 E  ^Codec ID                                 : S_HDMV/PGS! E0 n/ _1 V) z* D% K0 Y
Codec ID/Info                            : Picture based subtitle format used on BDs/HD-DVDs
3 [$ D7 w! X) f+ L1 k, u& O) T8 KDuration                                 : 1 h 51 min' w2 C! `5 P  F4 a! w0 a- }; Y
Bit rate                                 : 25.4 kb/s. h+ o8 c7 a1 I$ u, m( r2 b
Count of elements                        : 2151  p$ r! a" ~, ?2 p
Stream size                              : 20.3 MiB (0%)
, e0 `4 C) v( O9 R; P3 v2 ^Title                                    : English-PGS
  ]+ m' K# Z( TLanguage                                 : English0 J4 L" i9 o( Q3 [6 Z& p& e
Default                                  : No
8 g2 H1 ]! W& S! `8 I$ OForced                                   : No
6 n% a: L. y# NOriginal source medium                   : Blu-ray
: w* e$ S! g- V) ~* _# Q5 K7 u
+ r( f$ L! P/ h3 ?1 \: g6 kText #4* Z# P& T# v/ \: t6 t& a1 R( Z
ID                                       : 6# I& ]6 Q5 P9 c) ~3 _' @
ID in the original source medium         : 4610 (0x1202)9 Q5 c8 M# _) N/ B1 ~
Format                                   : PGS; H6 @1 [: R$ @: H6 k7 \$ b" U
Muxing mode                              : zlib
# G' c7 B& j2 y8 v* c: [2 lCodec ID                                 : S_HDMV/PGS$ m, D" X8 h3 r5 w& y7 l
Codec ID/Info                            : Picture based subtitle format used on BDs/HD-DVDs
& R% d4 g" q* e- lDuration                                 : 15 min 4 s
  J! Q! Y. h* O6 q: B, @Bit rate                                 : 5 100 b/s9 S: d* X$ l) D% }4 {+ \% a
Count of elements                        : 68
/ d, s3 W$ I/ k) p' HStream size                              : 563 KiB (0%)
: E  E/ c1 o' a* j' `Title                                    : Korean-FORCED-PGS5 J2 I5 V6 j5 t% S8 C8 u9 j
Language                                 : Korean
; l( b) a; G% p; l1 pDefault                                  : No
, s2 M. e/ W: ?! Y. D( yForced                                   : No6 w( ]; V" J" R( O
Original source medium                   : Blu-ray
; g7 h- z; F/ ^& A
3 _6 q9 K( _& h% b- D2 `Menu$ f0 Y& ~3 `; p. Y# m
00:00:00.000                             : en:Chapter 01
! U4 p- V# j7 @00:06:39.732                             : en:Chapter 02+ O: |9 E4 J& N  r/ ^& J4 ~9 y
00:18:08.837                             : en:Chapter 03: X3 x0 c: H9 K3 D9 ^
00:28:19.406                             : en:Chapter 04$ X5 ^# i+ S6 ^- M
00:40:24.130                             : en:Chapter 05
) O* }) C. R' K; |% s. Z# K00:47:41.650                             : en:Chapter 06* _% X& A. z9 i+ a. D
00:55:57.103                             : en:Chapter 07, b2 Y% k1 d6 M5 e. Y3 T
01:02:28.786                             : en:Chapter 08
$ Z# G% q; N" K01:14:17.619                             : en:Chapter 09
6 G$ h, v' p1 }$ F# ]01:25:41.803                             : en:Chapter 10
2 V: R$ O' o  J01:34:29.330                             : en:Chapter 110 x) s7 G+ N/ y3 Z6 J
01:42:17.256                             : en:Chapter 12$ P& m* h& b  O) {5 U1 S  \$ A
01:48:57.906                             : en:Chapter 13
  r& X: P  g5 k8 \5 N: U% ^. X
游客,查看本帖隐藏内容请回复 | 加入VIP贵宾组可免积分免回复下载 了解详情 | 还不是会员:点击获取邀请码 Invitation Code

64

主题

1506

帖子

5493

积分

Sponsor

金币
308 枚
体力
2082 点
lanpanshuma 发表于 2020-9-10 11:58:59 | 显示全部楼层
楼主发贴辛苦了,I*老*虎*U!
% R# v. a0 I; U5 {' G4 Y8 TIn fact, I have always felt that the landlord of good taste! Ha ha!
# x3 I% t% o3 O4 Y
该会员没有 ...

本版积分规则

小黑屋|Archiver|蓝光电影资源网

GMT+8, 2020-10-29 05:05

快速回复 返回顶部 返回列表