BluRayCD Forum

 找回密码
 立即注册【分享大片】

QQ登录

只需一步,快速开始

查看: 14|回复: 0
收起左侧

[动作战争] 请寻找我/复仇母亲/找到我/请来找我/来找我 Bring Me Home 2019 KOREAN 1080p BluRaycd x264 DTS-CHD 11.45GB

[复制链接]

3897

主题

4271

帖子

3万

积分

Post Share

金币
7316 枚
体力
6584 点

卓越贡献勋章

mvods 发表于 2020-9-9 21:23:08 | 显示全部楼层 |阅读模式
( [2 Q6 W) {9 j
, @) G: E  s7 Z. j) I7 I
◎译  名 请寻找我/复仇母亲(港/台)/找到我/请来找我/来找我" S! k5 Z9 L7 F+ }
◎片  名 나를 찾아줘  / Bring Me Home$ Z  t' K- }2 C! f
◎年  代 2019
/ J7 P3 t' V- i: T( G; @. z◎产  地 韩国" d: s; d0 ^7 g/ U, d* A& W- J4 R# ^+ A& ?
◎类  别 惊悚/犯罪
5 Y9 S: z5 B" Q1 r◎语  言 韩语
* v8 e) i* A$ F, n6 s6 }$ i+ u# z" Y& a◎上映日期 2019-09-05(多伦多电影节)/2019-11-27(韩国)' K/ `$ T# e: c% B# V
◎IMDb评分  6.3/10 from 473 users
, J# R+ W- ?  Z$ y◎IMDb链接  https://www.imdb.com/title/tt8123618/7 \# e( U0 Q6 j1 e0 k$ N
◎豆瓣评分 6.6/10 from 5,438 users
  W7 u( o6 b$ H+ Q% m4 N◎豆瓣链接 https://movie.douban.com/subject/30151048/+ [7 D3 h9 Z& H5 R
◎片  长 1 h 48 min
- z9 Y; M; k8 J  n9 K( I  f◎导  演 金承宇 Seung-woo Kim
# f5 T- X9 c6 K0 B: O( R, g& q5 s( H3 u◎编  剧 金承宇 Seung-woo Kim
! i: p+ ^/ z3 {3 x8 Y" i◎主  演 李英爱 Yeong-ae Lee
8 k% ~$ Z- {" B# {7 h       刘在明 Jae-myung Yoo
( J, q4 L$ e0 w% J  U( q3 w       李源根 Won-geun Lee5 ]$ ]# `- t6 h, G0 D) A: ?5 }
       朴海俊 Hea-jun Park
! N* V  U, m8 K- I
5 k% X1 |2 j3 q◎标  签 李英爱 | 犯罪 | 韩国 | 人性 | 韩国电影 | 惊悚 | 2019 | 韩影
9 Z( d5 B3 q$ C/ Q6 `- E, I! ]
- C/ q0 u. M  T5 {  `◎简  介  8 D( F7 A9 E- G% b1 l! f0 [8 e* [
# s% Y! {/ n) U; i$ Q4 u5 O
  阔别大银幕14年,大长今李英爱强势回归,饰演一个濒临崩溃边缘的母亲,誓要寻回被掳走的儿子。儿子失踪6年,赫然传来疑惑是孩子如何的消息,母亲决定只身走到渔村,希望找到一个被黑道家族控制的小孩,看他是否失散多年的儿子。奈何冷血的恶人想把孩子留下当生财工具,将她拒诸于门外。母亲唯有在雷雨交加的晚上,以极端手段再闯虎穴。首次执导的金胜友,创造张力到家,造成由心而发的暴力,教人触目惊心。; @" r: ~! x: j2 y+ d% p) q+ f5 Y

6 E6 l- ^7 |: j6 ]' N* `! {  A dedicated mother in search of her missing son follows a tip that leads her to a fishing village where corrupt police officers might have the answers to her mystery.
( [2 M5 r1 e# v7 }: T
Video( C4 {* |' G3 x& V; x5 _2 F
ID                                       : 1
9 ^" |. i- a9 N) ]# c# G" Z0 H5 eFormat                                   : AVC9 p, M/ X; F: e: R( p
Format/Info                              : Advanced Video Codec
# Y. Q1 T% A% ]. PFormat profile                           : High@L4.1
# e+ N1 V: G" a  x' gFormat settings                          : CABAC / 4 Ref Frames
. R5 i3 l8 l, o' g. E+ pFormat settings, CABAC                   : Yes  P, F( H- k9 o* ^& t
Format settings, Reference frames        : 4 frames3 R, t* T+ l" p% R' t. ?. Q( j; c2 b
Codec ID                                 : V_MPEG4/ISO/AVC5 t# t5 I# ]+ c! k' `
Duration                                 : 1 h 48 min) O' d1 h: r, N) U% l/ i. Z# j
Bit rate                                 : 13.7 Mb/s" s+ ~% {7 M4 p" f
Width                                    : 1 920 pixels5 q* i) k$ i$ u% s/ f# T
Height                                   : 804 pixels
, I6 E/ Z+ o9 U- iDisplay aspect ratio                     : 2.40:1
# U, ^* I+ ~6 P9 MFrame rate mode                          : Constant
( x  v8 Y1 W- @% Y5 U' XFrame rate                               : 24.000 FPS
3 C1 s* a* O) JColor space                              : YUV+ s  q; G! M: l+ }( y1 M% U
Chroma subsampling                       : 4:2:0  P. w" F: k8 Y7 `
Bit depth                                : 8 bits1 N. |7 G  M8 G! H
Scan type                                : Progressive9 ~& R- \5 M  o. Q1 f9 M7 a' D: d
Bits/(Pixel*Frame)                       : 0.369
+ `7 ~: `1 `5 L+ ^3 i9 ?Stream size                              : 10.3 GiB (90%), w  y. }& r: j: x9 L3 ^5 w5 N  V# F
Writing library                          : x264 core 157 r2867+150 7e91e0e t_mod_Custom_2 [8-bit@all X86_64]7 z% R% k7 }  E" g
Encoding settings                        : cabac=1 / ref=4 / deblock=1:-3:-3 / analyse=0x3:0x133 / me=umh / subme=11 / psy=1 / fade_compensate=0.00 / psy_rd=0.90:0.10 / mixed_ref=1 / me_range=64 / chroma_me=1 / trellis=2 / 8x8dct=1 / cqm=0 / deadzone=21,11 / fast_pskip=0 / chroma_qp_offset=-4 / threads=25 / lookahead_threads=4 / sliced_threads=0 / nr=0 / decimate=1 / interlaced=0 / bluray_compat=0 / constrained_intra=0 / fgo=0 / bframes=8 / b_pyramid=2 / b_adapt=2 / b_bias=0 / direct=3 / weightb=1 / open_gop=0 / weightp=2 / keyint=250 / keyint_min=24 / scenecut=40 / intra_refresh=0 / rc_lookahead=60 / rc=crf / mbtree=0 / crf=18.0000 / qcomp=0.70 / qpmin=0:0:0 / qpmax=69:69:69 / qpstep=4 / vbv_maxrate=35000 / vbv_bufsize=35000 / crf_max=0.0 / nal_hrd=none / filler=0 / ip_ratio=1.40 / pb_ratio=1.30 / aq=3:1.00 / aq-sensitivity=10.00 / aq-factor=1.00:1.00:1.00 / aq2=0 / aq3=0
: f3 z* T; y  a* WLanguage                                 : Korean5 U, b4 P' \& c6 g7 H' S! V
Default                                  : Yes
7 @+ {. o  T! v- YForced                                   : No
! i1 S, s( n% V# a1 I8 i6 G& N$ p' w6 B
Audio
7 j) {9 C1 Z$ a4 H# DID                                       : 2! G  v5 k& O$ z$ v9 @: d* F
Format                                   : DTS5 q5 I$ x& }1 u
Format/Info                              : Digital Theater Systems5 r( o; S5 ^' e* G
Codec ID                                 : A_DTS" [2 `( C( t+ I; h, r" x' a) k. U  Q( G. @
Duration                                 : 1 h 48 min! ~# e4 W' B6 e4 U
Bit rate mode                            : Constant" {0 g2 B7 ^0 H) Z6 \1 m
Bit rate                                 : 1 509 kb/s! A: s# W: S6 e
Channel(s)                               : 6 channels- g3 D& a; V1 }/ U
Channel layout                           : C L R Ls Rs LFE
. O7 C- A9 Q! J. W% ~# e0 _Sampling rate                            : 48.0 kHz
; X8 T- x# P. }/ S7 ?Frame rate                               : 93.750 FPS (512 SPF)
* g% r* x/ p' E. V0 hBit depth                                : 16 bits% F- t% h  z: c# ^* i0 w
Compression mode                         : Lossy& z! k; \, n4 {9 D' [
Stream size                              : 1.14 GiB (10%)" g( D- k3 K; D0 I) G4 d5 [8 @) L
Language                                 : Korean
4 Q, v& g" O& PDefault                                  : Yes
& t4 I, A8 `! p: vForced                                   : No
: n( M- N2 K. E( f" e5 t
; @, T; y. |- b* ^/ pText% G4 l: _! c# [, Z, r
ID                                       : 3
# O  h6 u0 t6 KFormat                                   : UTF-8
9 Q; F6 q3 i* D: e- N- f7 _Codec ID                                 : S_TEXT/UTF8
1 l4 a( u* k7 X8 }0 h* U/ ?Codec ID/Info                            : UTF-8 Plain Text
1 V& w' y: y1 C  s3 w0 g* A* GDuration                                 : 1 h 41 min
9 N, z9 ~6 L7 O* ZBit rate                                 : 34 b/s
8 c0 R  V# r$ S# XCount of elements                        : 1042
1 V+ s4 C: [* q* U# RStream size                              : 25.3 KiB (0%)4 B- a7 H- G0 c' f6 r3 L5 \5 t1 D
Language                                 : English
( Y! o! H, \6 mDefault                                  : Yes- U& a' k4 C- l* ~6 M2 B/ C
Forced                                   : No

* u2 p3 }; o! e
游客,查看本帖隐藏内容请回复 | 加入VIP贵宾组可免积分免回复下载 了解详情 | 还不是会员:点击获取邀请码 Invitation Code

本版积分规则

小黑屋|Archiver|蓝光电影资源网

GMT+8, 2020-10-29 04:40

快速回复 返回顶部 返回列表