BluRayCD Forum

 找回密码
 立即注册【分享大片】

QQ登录

只需一步,快速开始

查看: 32|回复: 5
收起左侧

[剧情悬疑] 奇迹救援/洞穴 The Cave 2019 THAI 1080p BluRaycd x264 DTS-CHD 10.35GB

[复制链接]

3885

主题

4259

帖子

3万

积分

Post Share

金币
7277 枚
体力
6557 点

卓越贡献勋章

mvods 发表于 2020-9-12 10:20:51 | 显示全部楼层 |阅读模式

$ a8 k1 E; t/ i  C
' y* D, [* X, F6 b◎译  名 洞穴/奇迹救援(港), n; @, [& D6 N9 ]
◎片  名 The Cave
2 W9 G$ @) V" v& {* B' C◎年  代 2019" n1 a% C5 v8 c- i) i2 j
◎产  地 泰国/爱尔兰
+ I) J) x8 I; k! \+ K: Z1 [. K$ p◎类  别 剧情/惊悚/冒险4 s* a$ p; _& W9 z
◎语  言 英语/泰语
: d/ I0 I2 X/ {: h% t* c% `5 Y◎上映日期 2019-10-07(釜山电影节)
: @/ P) l  b0 G  `3 F◎IMDb评分  5.9/10 from 619 users
4 ~0 X. S2 _+ H! v: d/ S# u◎IMDb链接  https://www.imdb.com/title/tt8726180/9 |) r! \! U1 o  C8 c/ P' G7 }
◎豆瓣评分 5.4/10 from 298 users
+ A: e: K/ f6 f: g* f( H' u◎豆瓣链接 https://movie.douban.com/subject/5055371/8 h5 M* ^1 f# [* N
◎片  长 1 h 44 min
: @' e: C1 A/ Q◎导  演 汤姆·沃勒 Tom Waller
) g0 a: t6 q; G# C◎编  剧 汤姆·沃勒 Tom Waller / Katrina Grose / Don Linder
& L3 ?+ K  f; C$ j2 D◎主  演 罗恩·斯穆安伯格 Ron Smoorenburg
* F4 q6 m7 q: g2 y+ o4 L" C# u5 n       约恩·奥布赖恩 Eoin O'Brien
" @( O/ k3 e& d3 G- J* H7 `6 [7 ?       尼鲁·西里詹亚 Nirut Sirichanya3 n5 Q' L, @+ w, `$ u
       罗斯·W·克拉克森 Ross W. Clarkson8 ?% s0 ~/ x* J; A
       宝儿 Treechada Petcharat3 b8 A1 [9 l( n: Z; q
       麦琪·阿帕 Arpa Pawilai
% Y, L: g! G+ G- B& W       Ting Sue$ b$ \0 h" j3 q: {# a0 `+ @
       Kelly B. Jones! z; V) W/ k: _6 t
       Lawrence de Stefano
9 ^, j/ q' M9 W6 k0 P3 J, x: j       Maythavee Burapasing1 a" P$ j( d# e
       Valerie Bentson( W" S1 A$ R: ~8 w6 P# k
       James Edward Holley
% `- g1 _& t! s4 d8 B0 f2 U, }/ w7 \       Michael S. New  O, z, l0 Q' L1 s8 \
       Bobby Gerrits; P( U" l2 P5 t) [
       Zeb Moore9 \, \% t  ]9 x/ d3 g

) n. [/ f- e3 B: D  A* J' C% `9 ]◎标  签 泰国 | 灾难 | 潜水 | 2019 | 泰国电影 | 温情 | 感人 | 无聊8 H& b% y! f, V7 ~! x& @) I# o/ Z/ w

; Q9 T) V4 x7 o+ q' g◎简  介  
; S( R+ e% i5 q) \; `4 o1 j1 u1 Y" G- y# f- |4 T8 X
  真实事件改编。故事源自2018年泰国少年足球队受困山洞,被多国人员救援的新闻。/ Q# B1 \' c2 j% J
  A Thai youth football team is trapped in a cave while rescue workers scramble to save them.
1 H$ k( s4 |+ h9 ^
Video
; P2 j. i% E% ^! QID                                       : 1  i, v% r# c. r) O$ ?5 {
Format                                   : AVC# E2 h4 q( r% ]3 N, A5 y* j, w
Format/Info                              : Advanced Video Codec  n" g) I, U1 V8 v
Format profile                           : High@L4.1
- N' M* o0 y# j* r* ?Format settings                          : CABAC / 4 Ref Frames0 w: F- u  i* x* W
Format settings, CABAC                   : Yes, E7 u$ @9 Q# c# ]" M) a
Format settings, Reference frames        : 4 frames  S! C2 [6 x3 ]. C0 b' M$ e* r
Codec ID                                 : V_MPEG4/ISO/AVC# K) G9 b  o7 \
Duration                                 : 1 h 44 min
( D6 O5 J) q7 ?/ j4 k1 r6 p2 w1 JBit rate                                 : 12.7 Mb/s4 B( I: @/ m# ~5 z4 D$ _! U
Width                                    : 1 920 pixels
5 L0 b/ J% A, B9 GHeight                                   : 804 pixels3 P( l/ i4 q9 w" f, y7 M9 l  ^& e
Display aspect ratio                     : 2.40:1' S; ~) P* D& ~; i  ~) v5 S) ?
Frame rate mode                          : Constant
. H# B. R# y* zFrame rate                               : 24.000 FPS( A- E( Z* f* J: ~' E
Color space                              : YUV& b# E  Z1 c+ M( o" X% ^" [
Chroma subsampling                       : 4:2:03 C& K% a4 g4 {% C2 }# x$ q: R/ W
Bit depth                                : 8 bits* ?/ f; l2 Y& r/ D3 C5 M) b$ W8 J1 Y( g
Scan type                                : Progressive
" ^; ~8 {3 x: WBits/(Pixel*Frame)                       : 0.343! y$ e: H) s, z" s) J2 V
Stream size                              : 9.25 GiB (89%)
  p  m3 f8 G& t) A% a( q, QWriting library                          : x264 core 157 r2867+150 7e91e0e t_mod_Custom_2 [8-bit@all X86_64]. a2 H8 ~0 U) B9 f! o9 U1 C. w
Encoding settings                        : cabac=1 / ref=4 / deblock=1:-3:-3 / analyse=0x3:0x133 / me=umh / subme=11 / psy=1 / fade_compensate=0.00 / psy_rd=0.90:0.10 / mixed_ref=1 / me_range=64 / chroma_me=1 / trellis=2 / 8x8dct=1 / cqm=0 / deadzone=21,11 / fast_pskip=0 / chroma_qp_offset=-4 / threads=25 / lookahead_threads=4 / sliced_threads=0 / nr=0 / decimate=1 / interlaced=0 / bluray_compat=0 / constrained_intra=0 / fgo=0 / bframes=8 / b_pyramid=2 / b_adapt=2 / b_bias=0 / direct=3 / weightb=1 / open_gop=0 / weightp=2 / keyint=250 / keyint_min=24 / scenecut=40 / intra_refresh=0 / rc_lookahead=60 / rc=crf / mbtree=0 / crf=18.0000 / qcomp=0.70 / qpmin=0:0:0 / qpmax=69:69:69 / qpstep=4 / vbv_maxrate=35000 / vbv_bufsize=35000 / crf_max=0.0 / nal_hrd=none / filler=0 / ip_ratio=1.40 / pb_ratio=1.30 / aq=3:1.00 / aq-sensitivity=10.00 / aq-factor=1.00:1.00:1.00 / aq2=0 / aq3=0
. M, ~5 W" u/ `+ A0 Q. [9 {Language                                 : Thai4 P) u. V. \1 a% R
Default                                  : Yes
4 v) A5 }# I- S8 t3 K. IForced                                   : No
0 \9 X: u* X/ g' i2 k8 D& J: N( Q0 A1 F9 z9 o( q7 y' e, v% f1 l
Audio' [( D  `4 L' I$ F$ r' Y
ID                                       : 2
# x0 U$ s( @4 I3 V) c/ P' Z$ VFormat                                   : DTS: M: w  l0 j9 f' g& d; w
Format/Info                              : Digital Theater Systems
7 Q, N- r  q/ S  E3 nCodec ID                                 : A_DTS
: Y: W: G- c/ n. [Duration                                 : 1 h 44 min
$ E, l! V$ l0 a8 ]# \Bit rate mode                            : Constant+ s( B2 ]7 ]2 F9 d3 H: u
Bit rate                                 : 1 509 kb/s5 a; E, b3 F4 c" p9 f
Channel(s)                               : 6 channels) y; l3 B+ A1 ^( }# j# o
Channel layout                           : C L R Ls Rs LFE6 y8 i. r& f% l2 x1 O3 l* L% s" S
Sampling rate                            : 48.0 kHz
0 g+ B) n" k% gFrame rate                               : 93.750 FPS (512 SPF)5 C. m5 D7 @% X5 y
Bit depth                                : 16 bits& c( X, P, q/ J" ]- A
Compression mode                         : Lossy
& V; {7 o" U" Q2 t$ r+ sStream size                              : 1.10 GiB (11%)8 f0 H0 U# P$ Z" W6 f7 a
Language                                 : Thai
& U. A5 I# j0 S& P' [$ TDefault                                  : Yes3 V/ W9 v' j" L, O; {  Z
Forced                                   : No3 f+ L$ Y7 v1 J* J
9 E4 x3 x0 U, _+ B
Text) k7 C9 P4 s9 ~& O
ID                                       : 3
  [- E* \4 \+ O0 z8 {2 R$ YFormat                                   : UTF-8
) i7 ?6 L# A6 N% X. J  Z$ H# gCodec ID                                 : S_TEXT/UTF8# J- @) `2 `2 n% }
Codec ID/Info                            : UTF-8 Plain Text1 q  S5 P" ~" u9 q2 C
Duration                                 : 1 h 38 min8 J4 H9 J" G5 g1 X
Bit rate                                 : 45 b/s; `! ^5 A1 \- a& Y$ a! }7 Q
Count of elements                        : 12059 y$ o8 a& K2 `" M8 ^
Stream size                              : 32.8 KiB (0%)/ Y$ F2 U- S  L) l- e
Language                                 : English0 P  q# X/ K2 f5 O" e+ J) u% @1 Q
Default                                  : Yes* A: H6 G9 A  O5 i
Forced                                   : No- Z. r0 g/ ^6 ~6 S' p  P
! R  [# F+ z, w8 V# o4 n% T9 r1 z
Menu
% S) C' {7 i# b& @9 @00:00:00.000                             : en:绗?01 绔?
0 `/ a5 C1 Y# {* f00:05:25.583                             : en:绗?02 绔?. x9 ~  P( k; L5 e& r
00:09:36.583                             : en:绗?03 绔?
: ^$ `. Q6 `+ u' `8 w00:14:36.667                             : en:绗?04 绔?
. F' X: @2 E2 _0 f00:21:23.250                             : en:绗?05 绔?
3 p( k6 W$ R( B1 b3 v00:25:14.625                             : en:绗?06 绔?1 E/ ]$ l# `+ e6 J
00:29:07.417                             : en:绗?07 绔?- o9 i' v, t+ g" B, h; p, P
00:32:44.875                             : en:绗?08 绔?. s( Z! b6 \" j) `/ P5 q
00:37:58.667                             : en:绗?09 绔?
; O8 e# a9 t' H0 {3 [! a4 S6 K00:42:40.792                             : en:绗?10 绔?% Q; |. O' i% B- l
00:47:30.083                             : en:绗?11 绔?
1 R/ a' A: _9 J" R  P( ]  k5 l00:53:30.333                             : en:绗?12 绔?
% X1 ?! p0 @9 T  D# D1 h) W6 b+ W00:59:36.458                             : en:绗?13 绔?( e- D1 ]0 \$ ]! x: x3 U
01:06:05.708                             : en:绗?14 绔?6 w% k8 t* ^/ z) |3 o
01:11:35.750                             : en:绗?15 绔?5 w2 A/ m) g) \- n! A7 P
01:17:15.000                             : en:绗?16 绔?
: i1 m/ Z& y9 K5 v% |01:29:01.167                             : en:绗?17 绔?: g$ \" t6 `2 f7 p( o8 L
01:38:26.792                             : en:绗?18 绔?
4 w' O9 e4 W( N) L0 u9 [
游客,查看本帖隐藏内容请回复 | 加入VIP贵宾组可免积分免回复下载 了解详情 | 还不是会员:点击获取邀请码 Invitation Code

64

主题

1486

帖子

5413

积分

Sponsor

金币
292 枚
体力
2056 点
lanpanshuma 发表于 2020-9-12 10:42:49 | 显示全部楼层
楼主发贴辛苦了,I*老*虎*U!/ J+ ^, ]. O* s4 U
I love your Blu-ray movies Forum!
' c& h) g7 e" X0 Q2 V
该会员没有 ...

0

主题

445

帖子

2133

积分

Sponsor

金币
21 枚
体力
1255 点
QQ
七喜 发表于 2020-9-13 10:28:57 | 显示全部楼层
啥也不说了,楼主就是给力!9 k( T' D5 I2 p' l- B, r
Blu-ray Film Forum is now my home!
& L- G6 z+ E4 S4 [2 a, G2 h

0

主题

256

帖子

1366

积分

Sponsor

金币
0 枚
体力
812 点
sclzywxl 发表于 2020-9-14 00:31:43 | 显示全部楼层
谢谢楼主分享!

1

主题

64

帖子

373

积分

Sponsor

金币
116 枚
体力
123 点
skyewan 发表于 2020-9-18 16:20:05 | 显示全部楼层
真实改编吗……^

0

主题

445

帖子

2133

积分

Sponsor

金币
21 枚
体力
1255 点
QQ
七喜 发表于 2020-9-29 14:20:25 | 显示全部楼层
楼主发贴辛苦了,I*老*虎*U!' D: I# {9 z0 T, K
Bluraycd.com movie updates really fast, also did not release issued, whether you believe it or not, anyway, I believed!

本版积分规则

小黑屋|Archiver|蓝光电影资源网

GMT+8, 2020-10-23 02:43

快速回复 返回顶部 返回列表