BluRayCD Forum

 找回密码
 立即注册【分享大片】

QQ登录

只需一步,快速开始

查看: 70|回复: 6
收起左侧

[蓝光原盘] 虎胆悍将/绑票追杀令 [REMUX无损版] Hard Kill 2020 1080p BluRaycd REMUX AVC DTS-HD MA 5.1-FGT 18.09GB

[复制链接]

7777

主题

7971

帖子

6万

积分

Forum Moderator

金币
10555 枚
体力
9607 点

卓越贡献勋章

24小时 发表于 2020-9-12 22:01:47 | 显示全部楼层 |阅读模式
02.jpg
5 n  f4 `* X, E- w% _$ A) Z0 a
+ q8 v; b( l, [( d◎译  名 虎胆悍将/绑票追杀令(台)' k( C2 w( w3 n! h
◎片  名 Hard Kill / Open Source2 A/ W( R7 a/ Z1 p$ E/ ?
◎年  代 2020
% \# p3 N! y7 M2 _" d8 H◎产  地 美国% d' ?) F4 U( v" D$ S! _8 _
◎类  别 动作
& G8 |# F2 f( }◎语  言 英语; R4 Y  T8 @  ?# x8 @
◎上映日期 2020-08-21(美国网络)
  d- {9 `) _$ k3 P3 W◎IMDb评分  3.4/10 from 1,829 users
- ~; a, Z( A6 ^# N◎IMDb链接  https://www.imdb.com/title/tt11656172/
3 e5 Q1 d/ Z3 |' J  E' P◎豆瓣评分 3.3/10 from 175 users; K$ g5 U4 p( ~8 J8 P  B
◎豆瓣链接 https://movie.douban.com/subject/34971648/
2 P$ U0 H! f7 H$ F3 s◎文件格式 x264 + DTS9 {$ Q) y/ H! L
◎视频尺寸 1920 x 1080% d; V: }: ^5 V9 p6 {
◎文件大小 1DVD 18.09 GiB3 G2 }; A! C" v% _
◎片  长 1 h 38 min0 M3 B7 n+ P" I- M8 D; {. ^/ s
◎导  演 马特·伊斯坎达里 Matt Eskandari3 s# Q7 K4 {! M8 ~% G
◎编  剧 Chris LaMont# o1 n/ |9 _; o
       乔·罗素 Joe Russo
/ r. X8 X, C1 o4 G* S. H◎主  演 布鲁斯·威利斯 Bruce Willis$ \- C, ]3 V; U2 e3 o% d
       杰西·麦特卡尔菲 Jesse Metcalfe, k) A4 D4 w6 b
       Natalie Eva Marie
% `' L9 t5 M  i! z4 o& ?% i9 q       特夏斯·巴特尔 Texas Battle/ {  S- ~8 B# M% p2 D3 I
       斯温·特梅尔 Swen Temmel
' O- N$ C, L# K1 q+ p' v" X* r1 F1 L( h* I9 t! C; o# b$ w3 D/ k0 M( f+ k
◎简  介  
/ b, }- G4 Q7 A" a' ]/ \1 ?2 o0 J1 o( q# d, \: G
  The work of billionaire CEO Donovan Chalmers is so valuable that he hires mercenaries to protect it, and a terrorist group kidnaps his daughter to get it
" Z, S" A- |/ Y/ @. v
3 Y* m6 |) g1 Q5 L- H) Z  Q. o  亿万富翁科技公司首席执行官多诺万·查尔莫斯的工作非常有价值,他雇佣雇佣兵来保护它,一个恐怖组织为此绑架了他的女儿以求得到它。
. z/ `& A4 ~& F. Q( _1 I4 A  ?# ~# a. l, t) O
  The work of billionaire tech CEO Donovan Chalmers (Willis) is so valuable that he hires mercenaries to protect it, and a terrorist group kidnaps his daughter just to get it.
. X# ]0 e* B2 s$ |+ ~: `* v% z) c' g- q
Video5 }2 R' q- \1 }; K! F2 Z
ID                                       : 1: ^8 s2 ?) V. u1 R; o4 C1 _
ID in the original source medium         : 4113 (0x1011)
- ?2 E# ]' D2 L: I' {; _Format                                   : AVC
& E7 D5 B3 Q9 \9 a$ Y% NFormat/Info                              : Advanced Video Codec) G% b. i. m# A/ e# E5 d! p
Format profile                           : High@L4.11 K) ]9 O: E# l2 b+ Q
Format settings                          : CABAC / 3 Ref Frames
) ?; s2 V3 x( i# }% m9 [* XFormat settings, CABAC                   : Yes
; I  y. A0 A5 m0 f# zFormat settings, Reference frames        : 3 frames* ^0 O% \- L+ Y$ d* V
Codec ID                                 : V_MPEG4/ISO/AVC
: V6 K& I/ L8 i+ R  J5 b( XDuration                                 : 1 h 38 min% `! V$ O9 o  W
Bit rate mode                            : Variable
0 ]  S) e2 }8 h: C: b1 B, ZBit rate                                 : 23.0 Mb/s
) e; a; b5 M0 l* AMaximum bit rate                         : 35.0 Mb/s! ^( f8 e( h8 n4 p
Width                                    : 1 920 pixels8 o% c: C3 \$ t8 \
Height                                   : 1 080 pixels
6 m" s# k8 }6 z2 Y0 C) z8 IDisplay aspect ratio                     : 16:9  h% A4 h* |  R& f& g% C7 Z
Frame rate mode                          : Constant0 r$ |2 ], ?- R' b
Frame rate                               : 23.976 (24000/1001/37687) FPS
- t% p% g4 e% _7 KStandard                                 : NTSC5 {0 r) G2 a; U  {
Color space                              : YUV
5 a+ X, I& z% d# \$ U' D) n* T  EChroma subsampling                       : 4:2:0; h  p$ ?! L+ u/ Q* _( F$ r1 z8 l
Bit depth                                : 8 bits
% H1 V9 J. U  ]7 |1 ^+ G7 e4 aScan type                                : Progressive
* Z5 Y/ m4 V8 E/ bBits/(Pixel*Frame)                       : 0.4627 q9 M7 I1 h" A; ?- C" _; o
Stream size                              : 15.8 GiB (87%)
- O/ P  S* Q0 a' NTitle                                    : Hard.Kill.2020.1080p.BluRayCD.REMUX.AVC.DTS-HD.MA.5.1-FGT
: }- a9 f+ @' t* {8 ~" {Language                                 : English
' r2 K( |+ z. o( V/ nDefault                                  : No
4 C9 X, Q6 t1 FForced                                   : No% t5 N+ M) }& m/ |
Color range                              : Limited
$ y) r: ]1 M: j3 H1 v; k& q; T# W2 AColor primaries                          : BT.709
8 D1 }, m% [2 FTransfer characteristics                 : BT.7097 h* \1 C. Q. j4 S4 C! U$ L
Matrix coefficients                      : BT.709( a9 L/ x! v; N  B
Original source medium                   : Blu-ray
+ D" x6 ~" H6 R6 L% t
& F; ]8 F) ]9 p3 P4 pAudio #1) |1 x+ {, o) a9 D; p) E- l
ID                                       : 2; W: M$ `) P9 d& c
ID in the original source medium         : 4352 (0x1100); C, c, }/ J! V! ~# V% F
Format                                   : DTS XLL
4 P% e/ R* a$ x) A4 f  u$ CFormat/Info                              : Digital Theater Systems
$ L( g! J$ B! VCommercial name                          : DTS-HD Master Audio" e9 p0 W3 z, N) F4 t' m) |5 M
Codec ID                                 : A_DTS
( {" M1 _6 G4 W, {" _; x6 g. ^+ \Duration                                 : 1 h 38 min" T% h! e) s+ p, N
Bit rate mode                            : Variable3 O4 @9 j& E* W' l. i- E4 z
Bit rate                                 : 1 802 kb/s
! D- I! v# N0 YChannel(s)                               : 6 channels
' S* s6 z- ~6 ?! L# F: nChannel layout                           : C L R Ls Rs LFE
9 p; A/ y- s' h( {' dSampling rate                            : 48.0 kHz
# c) U4 s: W! X1 U1 A8 e" HFrame rate                               : 93.750 FPS (512 SPF)
. E- n& r$ d+ e0 A8 O6 ]6 _$ P" |Bit depth                                : 16 bits
# Z( ?# T3 @% ~; M) y! aCompression mode                         : Lossless  R- C9 y3 Z9 }7 C; F, ^" a7 }
Stream size                              : 1.24 GiB (7%)
6 \- t6 p  {& L$ N5 W* h0 hTitle                                    : Hard.Kill.2020.1080p.BluRaycd.REMUX.AVC.DTS-HD.MA.5.1-FGT; J1 n1 N! c, Y$ {1 V/ I; B6 Z  P. G9 H* v
Language                                 : English! j4 q6 q' |2 Y& A( T' Y( J- Y
Default                                  : Yes
6 w& [) w  a: w! J6 t0 PForced                                   : No9 H/ y, y1 F' R9 O+ C
Original source medium                   : Blu-ray
* I/ M1 k" P- b+ R6 s4 B- r- U9 H& y' I8 w6 _4 s
Audio #2. }0 e8 u4 S0 K( X: \2 n/ n
ID                                       : 3
( T1 R$ Q7 _  A/ z4 DID in the original source medium         : 4353 (0x1101)
& f( C2 Y3 b: ]7 M! ~! V9 ^Format                                   : PCM
4 i' N: K. _  k) i( jFormat settings                          : Little / Signed7 Q, l" v& m2 G5 ^
Codec ID                                 : A_PCM/INT/LIT
7 V5 J; m5 P) ^% hDuration                                 : 1 h 38 min
: W5 g( e% P  f& y1 k: p  W& mBit rate mode                            : Constant
. t1 K2 d# Q7 A& d  UBit rate                                 : 1 536 kb/s- L$ Y% v  L- L
Channel(s)                               : 2 channels
5 M# w( m8 L( N$ NSampling rate                            : 48.0 kHz4 A8 U8 w$ y  g. G6 i- q* p1 \7 Y
Frame rate                               : 30.000 FPS (1600 SPF)8 H7 g  _$ {% m! v* g
Bit depth                                : 16 bits
  ]  \, X4 p* v. g$ IStream size                              : 1.06 GiB (6%)7 i8 s9 j6 V* b) M" `" r1 t% l
Title                                    : Hard.Kill.2020.1080p.BluRaycd.REMUX.AVC.DTS-HD.MA.5.1-FGT3 }% G8 w! [4 N& D  f  n* o& Y
Language                                 : English
& @2 v( p! F- s, x# B0 DDefault                                  : No
  q% C% x4 G8 a2 w  i1 tForced                                   : No5 D8 _+ b5 Q: y9 W; b
Original source medium                   : Blu-ray
2 w1 G: ^; t! a- k# ]1 q$ q- `' n9 l/ X# A* L
Text #1# D7 q4 ~8 ^/ k2 H. C3 s
ID                                       : 4
5 |& \  j8 M- q- g8 C4 yFormat                                   : UTF-8) ]! _2 Y# s! Q0 p$ {5 w  d$ {
Codec ID                                 : S_TEXT/UTF8
$ k3 }; \/ z7 Z" @$ x1 }4 ZCodec ID/Info                            : UTF-8 Plain Text
& A* L7 i- z; aDuration                                 : 1 h 30 min2 }, f5 _- w& V+ W. F  S
Bit rate                                 : 40 b/s) k1 e- B- C3 Z3 i* d6 R4 D
Count of elements                        : 1008
) u3 u& @, q; L# RStream size                              : 26.7 KiB (0%)
) A7 w8 }& u2 M- p2 W& UTitle                                    : English-SRT- o# b- H  k# L: u
Language                                 : English
1 V( o+ b3 E" C5 P8 N' a/ e7 `5 `  cDefault                                  : Yes% e+ f+ A( d1 [: G6 j( p
Forced                                   : No
) k- o! A6 n; |1 W# z
. A9 s! z' u* L' hText #2
9 i8 M3 C' m: [( q( _% H# nID                                       : 5* E6 m1 c) W& |+ y
ID in the original source medium         : 4608 (0x1200)
1 M: F: q/ N% g6 y# \Format                                   : PGS( M- l5 @+ f  Y4 E7 |3 x9 [
Muxing mode                              : zlib3 I5 T- M7 V" B8 H# B
Codec ID                                 : S_HDMV/PGS
' h9 V  Y0 t1 F7 @0 nCodec ID/Info                            : Picture based subtitle format used on BDs/HD-DVDs+ T4 w$ J9 c& X, }( C$ o. b( `
Duration                                 : 1 h 30 min4 e0 ^4 J" L* O. G
Bit rate                                 : 24.4 kb/s/ v/ M  E* f: A9 w- o7 L* T
Count of elements                        : 2280; g0 l& O7 A$ ~9 P8 O
Stream size                              : 15.8 MiB (0%)
! ~6 g. Q, b+ Y4 \8 wTitle                                    : English-PGS8 p; K* O+ I/ Z/ V1 K
Language                                 : English
: ^5 D( K& a6 ]( PDefault                                  : No- ]: L) }7 S* \1 Y3 v: g: f; ?
Forced                                   : No
. W  {* I0 W$ jOriginal source medium                   : Blu-ray6 j( {9 B2 K; X2 N# @6 T6 M

3 p3 l3 L5 Q" k6 B* B6 L5 s9 BMenu4 E( x/ [% T" {& s
00:00:00.000                             : en:Chapter 00
& G. z1 ?. R6 f6 I00:16:07.341                             : en:Chapter 016 Z5 M! b4 ]! O- V9 h- W
00:34:45.708                             : en:Chapter 02
7 B" f/ q/ k" w) [$ ~4 j  B) t00:53:51.519                             : en:Chapter 03
, P& {& q5 h8 X+ b1 D; B& U01:09:08.769                             : en:Chapter 04# b9 W. w! f1 Y" Z  h& b6 @1 l$ B, S' M
01:29:56.265                             : en:Chapter 05
9 s$ ^2 U* y% D2 F
游客,查看本帖隐藏内容请回复 | 加入VIP贵宾组可免积分免回复下载 了解详情 | 还不是会员:点击获取邀请码 Invitation Code

600

主题

1989

帖子

1万

积分

VIP advanced

金币
1737 枚
体力
4529 点

公主勋章卓越贡献勋章

21cn 发表于 2020-9-12 23:49:20 | 显示全部楼层
楼主发贴辛苦了,I*老*虎*U!
3 o5 X. C) X. o* x0 i# D, p3 _Your resources, well, I am very satisfied!
' v7 ?3 X7 k# n

64

主题

1486

帖子

5413

积分

Sponsor

金币
292 枚
体力
2056 点
lanpanshuma 发表于 2020-9-13 08:23:52 | 显示全部楼层
楼主发贴辛苦了,I*老*虎*U!: a0 h  C) }$ b; P. L9 e, r
Your resources, well, I am very satisfied!! `9 Z7 f/ Z9 \3 q' o" X
该会员没有 ...

0

主题

343

帖子

1405

积分

Sponsor

金币
10 枚
体力
751 点
luyife 发表于 2020-9-13 12:55:44 | 显示全部楼层
谢谢楼主的分享

0

主题

256

帖子

1366

积分

Sponsor

金币
0 枚
体力
812 点
sclzywxl 发表于 2020-9-25 10:33:15 | 显示全部楼层
谢谢楼主分享!

11

主题

185

帖子

945

积分

Sponsor

金币
75 枚
体力
442 点
wyyo 发表于 2020-9-25 11:02:13 | 显示全部楼层
膜拜神人,后来者请保持队列……!
8 {4 o+ d0 [" }  p! jI love your Blu-ray movies Forum!  d! |5 y, g) F& w2 V9 _, A

0

主题

366

帖子

1878

积分

Sponsor

金币
20 枚
体力
1184 点
QQ
sunday_119 发表于 2020-9-30 16:52:47 | 显示全部楼层
啥也不说了,楼主就是给力!
; e- S9 |, w- p: R9 G! yBlu-ray Film Forum: I will always support you!3 x/ ^8 B2 E5 K( F" o

本版积分规则

小黑屋|Archiver|蓝光电影资源网

GMT+8, 2020-10-23 02:21

快速回复 返回顶部 返回列表