BluRayCD Forum

 找回密码
 立即注册【分享大片】

QQ登录

只需一步,快速开始

查看: 42|回复: 5
收起左侧

[蓝光原盘] 近身 [REMUX无损版] They Reach 2020 1080p BluRaycd REMUX AVC DTS-HD MA 5.1-FGT 16.56GB

[复制链接]

7777

主题

7971

帖子

6万

积分

Forum Moderator

金币
10555 枚
体力
9607 点

卓越贡献勋章

24小时 发表于 2020-9-12 22:37:44 | 显示全部楼层 |阅读模式

, S; W6 q6 L' B5 R, O
8 R- u# t5 O" X◎译  名 近身
5 O. \" \/ t' S2 H8 W" n& t◎片  名 They Reach5 G" d0 o7 G" w. [* Y( `
◎年  代 2020
2 @) B# Z4 k) j◎产  地 美国9 A9 u# c0 J) \$ i
◎类  别 恐怖/冒险/ n2 v/ U! E/ N9 }2 s3 R
◎语  言 英语0 ?( x. y; `0 _6 g/ R5 j
◎上映日期 2020-05-29(美国)
8 [( V5 z& a' D  W8 M% {◎IMDb评分  3.9/10 from 486 users3 [( r# G0 I& l7 |
◎IMDb链接  https://www.imdb.com/title/tt6483422/
; A, A( \8 o; V5 n( L  E◎豆瓣评分 0/10 from 0 users7 z& ^6 u9 Q8 J. Z/ J- A# Z; N
◎豆瓣链接 https://movie.douban.com/subject/34853291/
# O& ?/ Q4 ?6 K! f1 z  ?+ L◎文件格式 x264 + DTS
8 |! n7 O5 |+ C4 M! [◎视频尺寸 1920 x 1080
% ^8 ~" m2 Y( E. i◎文件大小 1DVD 16.56 GiB+ I5 Z- s! |. `7 h/ r% M  z% H
◎片  长 1 h 27 min
0 r$ a$ R0 s$ u7 E# R* H◎导  演 塞拉斯·多尔 Sylas Dall
( V& Y. ~# [9 R' l6 x8 D! z◎编  剧 塞拉斯·多尔 Sylas Dall  
# \& ^$ u/ Q9 V; H+ q       Bry Troyer# M8 w0 P  p" z6 k! [
◎主  演 玛丽·马戴林·露 Mary Madaline Roe
3 o2 L$ A/ y' D# p       摩根·钱德勒 Morgan Chandler8 q  M3 s. R; m
       伊登·坎贝尔 Eden Campbell/ \) q2 N7 A) i* v6 v  q) V5 [
' h2 u- B+ V1 m* E. q2 ~5 m( z: E
◎简  介  
' I; m. J0 e. x! q% F
, }7 }6 X! G7 u$ n& P3 s" @  1979年,一个年轻女孩偶然发现了一台附身的录音机。她在不知不觉中释放了一个恶魔实体,这个恶魔实体在慢慢将克拉克斯顿小镇拖入地狱的同时困扰着她的家人。6 s9 j& ]7 A* Z7 ~# z

/ @6 ^. @# q9 r4 R; W8 k  In 1979, a young girl stumbles upon a possessed tape player. She unknowingly unleashes a demonic entity that haunts her family while slowly dragging the small town of Clarkston to Hell.& j$ r: c" r4 g7 ~" A
Video
4 _9 ]: _- }* P: IID                                       : 1
4 f+ A1 r7 ~" A# s; Y) {ID in the original source medium         : 4113 (0x1011)
4 r0 c" h- t6 v4 A9 L. hFormat                                   : AVC
: j+ @! @1 K( t* w! Q$ M1 p- ?3 @Format/Info                              : Advanced Video Codec; `6 G/ Y- W* d( I
Format profile                           : High@L4.1# \' n5 H; {2 l1 j( j# M8 z2 z( Z
Format settings                          : CABAC / 4 Ref Frames7 g2 F- s$ |: G$ g" x
Format settings, CABAC                   : Yes
  G+ @% M3 D$ T' L6 jFormat settings, Reference frames        : 4 frames8 e2 U" w* h' h
Codec ID                                 : V_MPEG4/ISO/AVC
+ w1 z6 p8 L9 _8 uDuration                                 : 1 h 27 min
2 r4 J) ~  N, d, }5 U$ ?( |2 M( `# rBit rate mode                            : Variable* l+ |$ ]3 N5 _6 B* h0 {4 i) ?8 N
Bit rate                                 : 25.0 Mb/s9 p6 I- R% \1 r' ^
Maximum bit rate                         : 35.0 Mb/s
3 x) f; M3 M3 {6 w6 A& K/ xWidth                                    : 1 920 pixels
* I# M/ m% t# d3 t* w! }Height                                   : 1 080 pixels7 G6 }. x1 N3 z- A$ l% k
Display aspect ratio                     : 16:9
  |' P) w& K* K+ l* w. @Frame rate mode                          : Constant" T3 i/ O5 c' t+ n
Frame rate                               : 23.976 (24000/1001/37687) FPS
& F3 b9 J+ L' O1 ^0 E# [Standard                                 : Component
/ H; g8 i+ ~8 AColor space                              : YUV
& E' _& K" [; `/ ~4 gChroma subsampling                       : 4:2:0
. j; l( W# O: q! xBit depth                                : 8 bits
4 U/ U& X9 G' S" T/ i. qScan type                                : Progressive
+ V& B% r: y: x- a& I4 [: D; K- c3 vBits/(Pixel*Frame)                       : 0.5031 ~1 \" x4 ]3 Y  Q
Stream size                              : 15.4 GiB (93%)
; Q, f5 u4 R; e% _; d! OTitle                                    : They.Reach.2020.1080p.BluRayCD.REMUX.AVC.DTS-HD.MA.5.1-FGT
4 T: i$ {& q) j9 e" ~# YWriting library                          : x264 core 155
! x) Q2 w! N2 I1 o+ t4 q7 w' UEncoding settings                        : cabac=1 / ref=4 / deblock=1:0:0 / analyse=0x3:0x133 / me=umh / subme=9 / psy=1 / psy_rd=1.00:0.00 / mixed_ref=1 / me_range=16 / chroma_me=1 / trellis=2 / 8x8dct=1 / cqm=1 / deadzone=21,11 / fast_pskip=1 / chroma_qp_offset=-2 / threads=24 / lookahead_threads=2 / sliced_threads=0 / slices=4 / nr=0 / decimate=1 / interlaced=0 / minigop=1 / stitchable=1 / constrained_intra=0 / bframes=3 / b_pyramid=0 / b_adapt=2 / b_bias=0 / direct=3 / weightb=1 / open_gop=1 / weightp=1 / keyint=24 / keyint_min=1 / scenecut=40 / intra_refresh=0 / rc_lookahead=24 / rc=2pass / mbtree=1 / bitrate=25000 / ratetol=1.0 / qcomp=0.60 / qpmin=3 / qpmax=69 / qpstep=4 / cplxblur=20.0 / qblur=0.5 / vbv_maxrate=35000 / vbv_bufsize=30000 / nal_hrd=vbr / filler=0 / ip_ratio=1.40 / aq=1:1.007 t& T7 J" [4 c2 ~$ o% j
Language                                 : English6 {" L! y( J' b3 i: H& l$ N
Default                                  : No
; ?9 Y/ m  Q1 t" |# e/ G+ e* b5 cForced                                   : No* Q/ W! Q* r, D- H$ w4 P0 B: V; ]9 `
Color range                              : Limited) Z. q$ b& q. _( A
Color primaries                          : BT.7099 ~* a( ^: d* r/ f; `
Transfer characteristics                 : BT.709, p2 T" m1 D3 x3 {9 Z% K  z8 q+ s8 H
Matrix coefficients                      : BT.7099 t6 C: W$ u( b% t3 L, \
Original source medium                   : Blu-ray
7 K1 G1 R" x! n/ f
# H! T2 ^- e" P/ j4 C2 ]Audio  x9 a8 E2 I% U: [5 A
ID                                       : 2
, A" d8 |7 \' Y1 r; Q# a; ?1 T/ DID in the original source medium         : 4353 (0x1101)1 K, G, O' r; J9 C8 m; i4 d
Format                                   : DTS XLL
/ Y/ C% ?8 e3 m4 c0 p3 IFormat/Info                              : Digital Theater Systems4 E+ G% v) P$ U6 P( Y2 C- i% D/ u
Commercial name                          : DTS-HD Master Audio' {+ _+ D0 b- o
Codec ID                                 : A_DTS( |/ F$ t3 P: y2 R( L! `
Duration                                 : 1 h 27 min3 W0 f( w# t, W  H& C" L3 E/ Z) u
Bit rate mode                            : Variable7 G9 O7 D  l5 Y0 c7 I9 u: j+ ~8 }
Bit rate                                 : 1 949 kb/s
: a. [% h5 F& k1 L0 x' FChannel(s)                               : 6 channels" h1 O) h4 M6 r9 s! m3 Z
Channel layout                           : C L R Ls Rs LFE
2 g0 F. H0 e  e! y" K/ MSampling rate                            : 48.0 kHz
9 m9 s4 O; S- HFrame rate                               : 93.750 FPS (512 SPF)
3 ]! j% d7 h3 |  I2 eBit depth                                : 16 bits( j+ ?- D8 D  E
Compression mode                         : Lossless' s. c9 t; ?- c: _8 j4 q
Stream size                              : 1.20 GiB (7%)
  T! q2 {7 [/ ^) MTitle                                    : They.Reach.2020.1080p.BluRaycd.REMUX.AVC.DTS-HD.MA.5.1-FGT' _1 q( D" f: N" ^2 ]
Language                                 : English  k+ L6 w, y+ T8 ^2 K2 k* [
Default                                  : Yes0 P( R, @) p5 O7 s
Forced                                   : No
' X! Q' h$ B+ p' T9 u% F- ]Original source medium                   : Blu-ray
/ p4 F- _$ k$ k) Z8 m/ ^& t4 L' q# f
Menu% v0 R# n  Z/ w& N4 j/ T. j0 j
00:00:00.000                             : en:Chapter 01
, w( _5 F/ R) @' N/ w3 N00:11:52.670                             : en:Chapter 02/ ^7 t, ]; F, v# W
00:26:41.850                             : en:Chapter 03
+ j2 k* g- B* K  H) }  M00:36:30.688                             : en:Chapter 043 z+ p. h+ Q  w3 J2 g( I
00:46:30.746                             : en:Chapter 05
$ w( ]! o0 s0 I" M1 _8 j00:57:37.245                             : en:Chapter 06
+ M3 c  W! I) G+ x1 z01:02:37.587                             : en:Chapter 07
1 m% Y- _9 W" T01:15:32.486                             : en:Chapter 08
* \, R( p/ _$ L9 V
游客,查看本帖隐藏内容请回复 | 加入VIP贵宾组可免积分免回复下载 了解详情 | 还不是会员:点击获取邀请码 Invitation Code

0

主题

445

帖子

2133

积分

Sponsor

金币
21 枚
体力
1255 点
QQ
七喜 发表于 2020-9-13 00:24:17 | 显示全部楼层
每天都来蓝光论坛看看,我爱蓝光电影。
8 ?3 u4 C( E4 ~* x* b! c5 \, bBlu-ray movies Community: my favorite!& b3 \0 R* ^7 j. Y1 g  p2 @6 P

600

主题

1989

帖子

1万

积分

VIP advanced

金币
1737 枚
体力
4529 点

公主勋章卓越贡献勋章

21cn 发表于 2020-9-14 01:09:27 | 显示全部楼层
楼主发贴辛苦了,I*老*虎*U!
: u9 L( G4 K( q' M" R$ }After reading the posts have nothing to do I Amoy posts!, y$ N+ C5 T( c! S0 o3 l* n7 r$ s

64

主题

1486

帖子

5413

积分

Sponsor

金币
292 枚
体力
2056 点
lanpanshuma 发表于 2020-9-18 20:28:00 | 显示全部楼层
楼主发贴辛苦了,I*老*虎*U!. G! H  H0 G7 N) Z
要想蓝光电影论坛发展好,资源多,就靠你我他!To the development of Blu-ray movies forum, resources and more depend on you and me!# C3 I; [: ^# S! P! H
该会员没有 ...

0

主题

256

帖子

1366

积分

Sponsor

金币
0 枚
体力
812 点
sclzywxl 发表于 2020-9-19 10:22:38 | 显示全部楼层
谢谢楼主分享!

0

主题

186

帖子

993

积分

Sponsor

金币
152 枚
体力
482 点
2475017 发表于 2020-9-19 18:23:15 | 显示全部楼层
多謝分享
. U8 F) z% I$ [% {7 V7 Y! H多謝分享
0 s7 [" u6 T  f5 U3 V
该会员没有 ...

本版积分规则

小黑屋|Archiver|蓝光电影资源网

GMT+8, 2020-10-23 02:38

快速回复 返回顶部 返回列表