BluRayCD Forum

 找回密码
 立即注册【分享大片】

QQ登录

只需一步,快速开始

查看: 28|回复: 0
收起左侧

[2160P极清] 一个国家的诞生 [4K SDR高码版] The Birth of a Nation 2016 2160p BluRaycd x265 10bit & 8bit SDR DTS-HD MA 5.1-SWTYBLZ 21.30GB & 23.51GB

[复制链接]

4491

主题

4663

帖子

6万

积分

Post Share

金币
8525 枚
体力
16644 点

卓越贡献勋章

黄金嫖客 发表于 2020-9-13 23:45:53 | 显示全部楼层 |阅读模式
01.jpg
9 D; t, {$ O! p* s! _, u' l. [, H( {. i: d
◎片  名 The Birth of a Nation$ [# U9 L, O6 f  D" M
◎译  名 一个国家的诞生/国家的诞生(台)6 Z. q- Z. B8 B+ `
◎年  代 20161 ^: O, e) E5 H! z
◎国  家 美国: D' H4 s# i1 C% q! b
◎类  别 剧情/传记
# ]) p; J2 R2 q5 i; b! X◎语  言 英语
+ B9 Q4 l8 ?9 _1 ]◎上映日期 2016-01-25(圣丹斯电影节)/2016-10-07(美国)" e$ `  u7 B+ {5 ?$ b
◎IMDb评分  6.4/10 from 19,676 users
( {/ U6 p& ], o7 n4 c. V0 V7 k  ]◎IMDb链接  https://www.imdb.com/title/tt4196450/
: R5 K8 e/ S; a) E& P◎豆瓣评分 5.7/10 from 1,501 users; m/ x$ ~2 O6 n4 Z- D
◎豆瓣链接 https://movie.douban.com/subject/26600422/
2 K0 ^3 X8 e6 s4 [% _' F◎文件格式 x265 + DTS7 F" l& [& n5 d% t$ @3 Q
◎视频尺寸 3840 x 16009 W. J2 L6 R: o! j) u) e. y) U
◎文件大小 1DVD 21.30 GiB & 23.51 GiB2 e3 z5 Y3 P5 ]7 g0 o* L
◎片  长 1 h 59 min
/ M5 A8 T2 b5 c& q+ P◎导  演 内特·派克 Nate Parker
1 Q7 a& p6 Z% _◎编  剧 内特·派克 Nate Parker
% `7 \1 A; S8 `◎主  演 内特·派克 Nate Parker2 U# F; t" g5 t0 I. _
       阿米·汉莫 Armie Hammer. e% j$ O$ i) O  q, b8 M% S
       佩内洛普·安·米勒 Penelope Ann Miller
. p7 f6 B" d& j7 c       杰基·厄尔·哈利 Jackie Earle Haley
' o1 v" u" U8 ~0 _3 z6 e  W       小马克·布恩 Mark Boone Junior! m6 O8 c& h7 k5 M3 q" _+ X
       科尔曼·多明戈 Colman Domingo9 S# o6 }- b2 C8 k; S4 h! n
       安洁纽·艾莉丝 Aunjanue Ellis
6 O! J7 j; F  F% A3 ~! n2 M# b       德怀特·亨利 Dwight Henry2 c& F+ H# A1 b" e' f# u
       阿雅·娜奥米·金 Aja Naomi King
6 N4 v7 {: r, f6 o5 L  o: z2 e       伊斯特·斯高特 Esther Scott
# m# _' ]; T6 ^" E8 q: a       罗杰·格午埃文·史密斯 Roger Guenveur Smith
% w2 ]  e& t: j6 P5 o       加布里埃尔·尤尼恩 Gabrielle Union0 a2 G/ t' }- E
       托尼1埃斯皮诺萨 Tony Espinosa
; S( Q& b2 L2 w, h' W* l       杰森·华纳·史密斯 Jayson Warner Smith" U9 q' u6 [$ J, z
       杰森·斯图尔特 Jason Stuart) g- H8 |, b; r8 i& u# d
6 c; Z0 w( Z* N# b) Q7 Z
◎简  介
0 m: g- \& S0 a8 L0 |, D
* h+ [3 r+ j# d8 F2 z3 Q  故事描述于1831年,黑人牧师奈特于美国弗吉尼亚洲,率领黑奴解放非裔美国人的自由运动,最终成为引发内战爆发的导火线。
$ @. G9 B" W3 q/ l' B0 O8 w
% P& d  R! }) R8 M, D4 g( D  Set against the antebellum South THE BIRTH OF A NATION follows Nat Turner (Nate Parker)| a literate slave and preacher whose financially strained owner Samuel Turner (Armie Hammer) accepts an offer to use Nat's preaching to subdue unruly slaves. As he witnesses countless atrocities - against himself and his fellow slaves - Nat orchestrates an uprising in the hopes of leading his people to freedom.
- v: I) F/ J/ r/ a- U* i
: P' C: m! y, Q/ y# I5 J◎获奖情况
  L. h" [2 P2 G; T# D8 C# d
! M. l# g+ ~. v; c: o$ \8 p  第32届圣丹斯电影节  (2016)' K, i& ?  |  h1 x
  评审团大奖 剧情片; {/ A- G8 {' B, r- i
+ a4 r: a1 [3 r0 I9 _. d
  第69届美国导演工会奖  (2017), _1 [  D5 T0 P0 I5 h. B! N
  最佳新人导演奖(提名) 内特·派克
1 ]* q, N3 Y3 ?# }0 Z3 D" y9 I
0 Q4 o4 d6 A+ N  M6 J5 O0 D/ C) _  第21届金卫星奖  (2017)
/ [0 T& z) X" f& [  电影部门 最佳剪辑(提名) Steven Rosenblum
# ^& K: m& B5 j. m) |- G. H) A5 }
SWEATY BALLZ presents8 }% y" S% ?# ?( D* A. X
" T, p8 V# E# Y- j9 b3 R  M
The.Birth.of.a.Nation.2016.2160p.BluRayCD.x265.10bit.SDR.DTS-HD.MA.5.1-SWTYBLZ; H  V" H! ?4 o7 O3 u% J8 E
Converted from 10 bit HDR to 10 bit SDR using tripple mixed Hable-Reinhard-JJ per scene+frame analysis algorithm
" \2 `% w  }* r8 s: B& ]: cScreenshots are 8bit SDR because browsers dont support HDR or 10bit files3 A1 Y1 ~  A$ P# Q! M/ z

7 _* x1 a% D7 T- [3 L1 J& rVideo
+ u  y# Y. z# L8 Z/ K0 WID                                       : 1
5 {* D/ P: F  E: |Format                                   : HEVC/ s8 f5 ~0 i- y, D
Format/Info                              : High Efficiency Video Coding( i# }( t* `6 p3 \: y" d/ _
Format profile                           : Main 10@L5.1@High9 m+ @0 g: j4 [. n
Codec ID                                 : V_MPEGH/ISO/HEVC: W& M+ H' `" M- S9 c( A* C6 O+ F
Duration                                 : 1 h 59 min# |( {" a! d5 M5 y" K# @
Bit rate                                 : 21.2 Mb/s% J6 b6 y* T) S' W3 K
Width                                    : 3 840 pixels
0 Z5 S! y9 Z: ~# m0 z6 F2 k0 b" THeight                                   : 1 600 pixels5 b. k6 ]$ n% x; s3 y2 G/ V& Q
Display aspect ratio                     : 2.40:1
2 I; C4 J4 _8 {) OFrame rate mode                          : Constant
& z+ Y; B4 z( _* rFrame rate                               : 23.976 (24000/1001/37687) FPS
% f: c* n: f1 g8 p8 O4 f6 w$ `6 oColor space                              : YUV
# o9 z5 X9 _1 z* G; MChroma subsampling                       : 4:2:0
' S8 \9 ~  V$ d8 Y2 k4 x( t! x- xBit depth                                : 10 bits+ Y1 q3 Y9 U/ a) A# _
Bits/(Pixel*Frame)                       : 0.144
( s" x( f7 e# c& o5 qStream size                              : 17.7GB (84%)
8 i4 G, P. Q8 MTitle                                    : The.Birth.of.a.Nation.2016.2160p.BluRaycd.x265.10bit.SDR.DTS-HD.MA.5.1-SWTYBLZ
' {; M( g4 U8 |5 YWriting library                          : x265 2.5+4-b4a5bcfe29c7:[Windows][GCC 4.9.3][64 bit] 10bit
2 K' E8 c; }& p# L) ?5 V- g# O) @Encoding settings                        : cpuid=1173503 / frame-threads=16 / numa-pools=24,24,24,24 / wpp / no-pmode / no-pme / no-psnr / no-ssim / log-level=2 / input-csp=1 / input-res=3840x1600 / interlace=0 / total-frames=0 / level-idc=51 / high-tier=1 / uhd-bd=0 / ref=3 / no-allow-non-conformance / repeat-headers / annexb / aud / hrd / info / hash=0 / no-temporal-layers / no-open-gop / min-keyint=1 / keyint=24 / bframes=4 / b-adapt=2 / b-pyramid / bframe-bias=0 / rc-lookahead=25 / lookahead-slices=4 / scenecut=40 / no-intra-refresh / ctu=64 / min-cu-size=8 / no-rect / no-amp / max-tu-size=32 / tu-inter-depth=1 / tu-intra-depth=1 / limit-tu=0 / rdoq-level=0 / dynamic-rd=0.00 / no-ssim-rd / signhide / no-tskip / nr-intra=0 / nr-inter=0 / no-constrained-intra / strong-intra-smoothing / max-merge=2 / limit-refs=3 / no-limit-modes / me=1 / subme=2 / merange=57 / temporal-mvp / weightp / no-weightb / no-analyze-src-pics / deblock=0:0 / no-sao / no-sao-non-deblock / rd=3 / no-early-skip / rskip / no-fast-intra / no-tskip-fast / no-cu-lossless / no-b-intra / rdpenalty=0 / psy-rd=2.00 / psy-rdoq=0.00 / no-rd-refine / analysis-reuse-mode=0 / no-lossless / cbqpoffs=0 / crqpoffs=0 / rc=crf / crf=16.0 / qcomp=0.60 / qpstep=4 / stats-write=0 / stats-read=0 / vbv-maxrate=160000 / vbv-bufsize=160000 / vbv-init=0.9 / crf-max=0.0 / crf-min=0.0 / ipratio=1.40 / pbratio=1.30 / aq-mode=1 / aq-strength=1.00 / cutree / zone-count=0 / no-strict-cbr / qg-size=32 / no-rc-grain / qpmax=69 / qpmin=0 / no-const-vbv / sar=1 / overscan=0 / videoformat=5 / range=0 / colorprim=2 / transfer=2 / colormatrix=2 / chromaloc=0 / display-window=0 / max-cll=0,0 / min-luma=0 / max-luma=1023 / log2-max-poc-lsb=8 / vui-timing-info / vui-hrd-info / slices=1 / opt-qp-pps / opt-ref-list-length-pps / no-multi-pass-opt-rps / scenecut-bias=0.05 / no-opt-cu-delta-qp / no-aq-motion / no-hdr / no-hdr-opt / no-dhdr10-opt / analysis-reuse-level=5 / scale-factor=0 / refine-intra=0 / refine-inter=0 / refine-mv=0 / no-limit-sao / ctu-info=0/ t" M1 _9 h! U7 _
Default                                  : Yes
$ g* {: m, f* v& o% M4 B1 l5 iForced                                   : No
! j4 q% B, b6 I& m6 O, {' ]8 r4 c8 x
Audio #10 m. I- \/ k. F
ID                                       : 2
6 p2 p, P! V4 I7 QFormat                                   : DTS
1 R4 E+ U8 z0 u/ p; W) IFormat/Info                              : Digital Theater Systems' u" h, o9 |3 m. I3 U- ?8 x; S
Format profile                           : MA / Core; N4 e0 X* |2 ?$ M8 O
Codec ID                                 : A_DTS
8 N7 B9 _4 Z6 I1 Q+ ]4 L. tDuration                                 : 1 h 59 min
; h- _% l  H- HBit rate mode                            : Variable / Constant0 |. W, w5 d, s+ W; _
Bit rate                                 : 3 483 kb/s / 1 509 kb/s
2 F( Z, q7 E& dChannel(s)                               : 6 channels
6 ]  m0 d! O0 B9 E: f' U, U  lChannel positions                        : Front: L C R, Side: L R, LFE
6 y* h% N7 A) t0 ISampling rate                            : 48.0 kHz
3 A- R# w8 V. w. f( a" n2 F( H; WFrame rate                               : 93.750 FPS (512 SPF)& h* M$ `, ~  }) M2 P$ k8 l
Bit depth                                : 24 bits' Z2 {' B5 b* h
Compression mode                         : Lossless / Lossy! y. |3 t. ]7 `8 q8 K
Stream size                              : 2.92GB (14%)
9 Z" w0 |, u. ZTitle                                    : The.Birth.of.a.Nation.2016.2160p.BluRaycd.x265.10bit.SDR.DTS-HD.MA.5.1-SWTYBLZ$ I, z' j0 A  d* e2 R; r
Language                                 : English
  L) T$ Y2 B, a7 W7 Y9 ]2 wDefault                                  : Yes+ y( t% _$ z& S3 w3 v6 I3 z
Forced                                   : No
6 k+ b/ S9 t' X4 \; l: U/ l+ o2 v5 h
Audio #2
: X$ w0 C& m9 ^ID                                       : 3
/ ^- E: ]8 t8 tFormat                                   : AC-3
% F) }  ^: K, I1 HFormat/Info                              : Audio Coding 3# D7 s# B8 c! N6 t) B. }- ^
Codec ID                                 : A_AC3
, C0 E* J2 |1 t9 v8 b2 u8 {Duration                                 : 1 h 59 min
! E8 p' Q4 v" r/ R* J2 I: y) WBit rate mode                            : Constant
0 I" W% Q6 K- @: Z9 LBit rate                                 : 640 kb/s
! p# E% D6 s; OChannel(s)                               : 6 channels3 o  }3 A/ j) A2 H5 z+ r" @; E
Channel positions                        : Front: L C R, Side: L R, LFE3 b! ?: W  H7 X) X' k1 z' k1 `
Sampling rate                            : 48.0 kHz
+ M* w( J: l  H' E  HFrame rate                               : 31.250 FPS (1536 SPF)
& q# B0 G, S" L/ SBit depth                                : 16 bits
$ D+ ^$ Z) k, J' R7 \Compression mode                         : Lossy
* f$ z8 z% \3 z6 R( A' \/ {Stream size                              : 549 MiB (3%)" j# H5 g% U" ]4 J( [5 S8 ^
Title                                    : The.Birth.of.a.Nation.2016.2160p.BluRaycd.x265.10bit.SDR.DTS-HD.MA.5.1-SWTYBLZ
; E3 F" X' ]4 K) c. F2 NLanguage                                 : English
* V5 a  y7 n* s* V" S. FService kind                             : Complete Main
- ~9 p. g) [$ o  UDefault                                  : No
" ]& x% I/ n  vForced                                   : No
( ^' u' S! H8 g- E* D
) s6 w! b1 q) k& i) J. `Text #1# R0 D* h' o9 P! P' T% W, g! Y% |
ID                                       : 44 a) h& W/ ~9 O8 ?
Format                                   : UTF-8
6 e+ z4 j- c% l) [0 j2 C4 C) SCodec ID                                 : S_TEXT/UTF8. `. D: E3 ?7 M0 K. f8 l* Y
Codec ID/Info                            : UTF-8 Plain Text
/ \# E! J$ r1 r+ m6 N' k% nDuration                                 : 1 h 46 min; d! V( b& ]' z( \  L2 a
Bit rate                                 : 40 b/s" @& E. S6 k: P) n, ^: m
Count of elements                        : 1163  O5 ^* U3 e, V: {2 z& O  r
Stream size                              : 31.2 KiB (0%)
0 a5 {2 N! d' o- uTitle                                    : English-SRT& W# K; z# h# t
Language                                 : English
/ y% h4 x' U- [) c" N2 XDefault                                  : Yes# p) G& \+ I2 t1 P7 e
Forced                                   : No* U  N( N: J9 F2 s% e; d' N

2 Q$ G, i, `1 D/ s+ v9 kText #22 b1 D4 V* ~) u1 Z7 D1 G) B
ID                                       : 5
2 E8 }2 U/ |, aFormat                                   : PGS
$ B( o, l' l- O% P/ f9 MMuxing mode                              : zlib5 }  i9 {/ [' _/ P8 }: y
Codec ID                                 : S_HDMV/PGS
9 p4 `# T) U, tCodec ID/Info                            : Picture based subtitle format used on BDs/HD-DVDs
- h( ^5 L. ?8 V, |6 Q7 ~3 B5 eDuration                                 : 1 h 50 min0 b' l, I6 B4 e8 @
Bit rate                                 : 29.1 kb/s
  V0 m  J8 Q9 |Count of elements                        : 2662
) ^/ G2 a  f( N2 aStream size                              : 22.9 MiB (0%)
1 e, g/ s  e, R+ qTitle                                    : English-PGS0 J; X# ]- j3 R( g
Language                                 : English
% L) p" O/ C/ W" y0 y' lDefault                                  : No. A& X( c& ^7 U7 X
Forced                                   : No
$ g7 r& a! ~" e/ C1 U" R: m3 {" [
( [0 U/ x' X; n" q8 Z) ]) TText #3
, G+ T( z) ~4 S: I, \ID                                       : 6
: B1 C) G7 A) B! b! }& sFormat                                   : PGS) z5 @# M, ]% U7 i! ]' E
Muxing mode                              : zlib
4 k6 h8 {. V( n9 U2 ]! NCodec ID                                 : S_HDMV/PGS/ x( \) b6 j5 p% V
Codec ID/Info                            : Picture based subtitle format used on BDs/HD-DVDs
& K/ k5 v3 O8 L, a* M& \Duration                                 : 1 min 7 s
* h* ]& c! @$ S" u) d' pBit rate                                 : 12.1 kb/s
6 v" X, J: M! V* @& zCount of elements                        : 32
$ f. S' ^( H2 J. \, d' f" L5 FStream size                              : 99.7 KiB (0%)
! A) Z3 A# L. R+ JTitle                                    : English-SDH-PGS! ^) p/ e8 T( U. M( Y; m
Language                                 : English
, P" h1 Z2 j  E1 V& A6 ZDefault                                  : No
  u- T2 G: Z! g( ]2 A! a; xForced                                   : No- C' B' O% O2 s6 l$ A% S9 @* i

2 [1 z" P& X$ O+ L+ O: |- m5 gText #4* S; g" q  I/ p
ID                                       : 7( W& T6 s3 h2 F; L$ T" T2 A, l
Format                                   : PGS
7 q% `. Q2 Y0 P" R; h; A. EMuxing mode                              : zlib
, Y: K8 P& |/ }4 j6 n: c: m' B5 }Codec ID                                 : S_HDMV/PGS
7 @+ q7 Q' k2 H. c9 VCodec ID/Info                            : Picture based subtitle format used on BDs/HD-DVDs  J+ W: B) `8 f# j6 b) {
Duration                                 : 1 h 58 min
( B1 s1 e! u6 C' C2 w( o+ o2 EBit rate                                 : 21.8 kb/s( l! e! V: d' r6 u0 O
Count of elements                        : 2074
- G( U- C/ r( s2 kStream size                              : 18.5 MiB (0%)
! ~: T. A; {9 F* w9 z, d9 u  E9 [& qTitle                                    : Spanish-PGS
) x# e! s* \. n' Q0 n4 GLanguage                                 : Spanish0 o8 R% r4 ~+ F: R
Default                                  : No' ^) t: l* i* _+ \6 ]8 ]; K% M
Forced                                   : No& m  O, t1 a$ o0 C' o% [0 B# S

8 k- q+ ]* ?, P' y" ^5 eText #5- F, v' m  @4 [
ID                                       : 82 J3 x( s2 y: U$ n2 u
Format                                   : PGS8 ?5 f8 g0 d( @/ f+ A* g
Muxing mode                              : zlib
# h- O6 }2 S# J1 ]3 CCodec ID                                 : S_HDMV/PGS
- Z6 v% e- ?: j  w- w5 y  KCodec ID/Info                            : Picture based subtitle format used on BDs/HD-DVDs
# ^: R" u- z& R% kDuration                                 : 1 h 58 min: f4 E! C- Z8 S$ S2 @& A
Bit rate                                 : 22.4 kb/s
& C" C, Q- V" f; kCount of elements                        : 1890
) ~, D5 V) j; E+ s5 }0 z9 a$ C! y& yStream size                              : 19.0 MiB (0%)6 U0 ^/ M2 `7 U
Title                                    : French-PGS# p, ^; [: [5 O3 U1 J5 q
Language                                 : French" d) }$ _/ |/ N- T; l! n- ?. {
Default                                  : No6 K+ \# a/ e- I& c
Forced                                   : No
, i' v& y7 J+ s: a( G6 U% ~4 s7 v& c% W
Text #6
/ Q  P  b  c! S$ p/ }. ]ID                                       : 9  P9 {; }! n' L6 P0 E- \5 ]
Format                                   : PGS
' W( ]- P; M) t) H) _7 TMuxing mode                              : zlib
% b- z" f2 j$ D+ _5 j3 kCodec ID                                 : S_HDMV/PGS
" [/ @  t8 F0 `  \8 |- T$ nCodec ID/Info                            : Picture based subtitle format used on BDs/HD-DVDs
' f5 [8 M% d0 ZDuration                                 : 1 h 58 min
; y! v3 |+ Y8 a# G+ z: ^  EBit rate                                 : 1 084 b/s, U0 _$ o  g; t% x
Count of elements                        : 106- D; Z# H4 f) [  Q) O
Stream size                              : 943 KiB (0%)
7 O5 ?+ p+ ~; w( b& I4 H; YTitle                                    : French-PGS: z- N- w" A4 R2 H
Language                                 : French6 w8 k( S  k; L. t7 Q# ~
Default                                  : No6 l& I* @1 h) `3 L0 g7 D6 o
Forced                                   : No
5 {* a) d7 \! {( ~# P4 [: K) @6 k* R( b* c
Menu) X) s1 U* @; R
00:00:00.000                             : en:Chapter 1! b9 E3 \4 K* X) x. ~
00:04:18.758                             : en:Chapter 2) d# ]0 _6 v$ p: V5 v0 V- O9 ]
00:07:45.465                             : en:Chapter 3' D9 K! u- h2 p+ \, B2 m
00:10:05.062                             : en:Chapter 49 y, Y# S4 x8 f- C( U5 F: q
00:14:37.877                             : en:Chapter 5  ~6 U- n% e0 R5 a' Q) k" }
00:17:42.811                             : en:Chapter 6
  M# h, G' n4 J/ f6 r/ C( E00:23:06.927                             : en:Chapter 71 j* C4 [  p: U- d
00:28:35.171                             : en:Chapter 8
% D0 x3 C% E" s9 r( i5 V6 e00:32:13.973                             : en:Chapter 9
5 _  ^8 e5 l  F& _" x/ o' J00:37:09.227                             : en:Chapter 10
+ X' P7 w; h' i* b- T6 v" `/ [00:39:50.429                             : en:Chapter 11& T& Q; b/ t- l1 d
00:42:53.571                             : en:Chapter 12; R" x* \: o- f: c( r3 O: z
00:46:46.386                             : en:Chapter 13
: _3 l/ }/ C# H: s00:51:11.151                             : en:Chapter 14, E3 q4 H/ M# [" O' ?3 l! A+ K9 M
00:54:41.152                             : en:Chapter 15; E' I# K' ]. S  K) y0 y1 l1 M( l( y
00:59:01.412                             : en:Chapter 161 m5 c/ G, i  {1 C& k# c0 \" q
01:03:21.714                             : en:Chapter 17
* `, r; F* J7 S6 g. `1 U1 L01:08:42.201                             : en:Chapter 184 R4 P6 q/ U/ b0 a: G
01:13:05.422                             : en:Chapter 19& z1 J% S% B+ c5 M
01:17:02.909                             : en:Chapter 20
, ]0 P' m6 i0 a6 o; X01:22:13.094                             : en:Chapter 21
8 D- Y4 o9 M$ p; }3 H01:26:56.920                             : en:Chapter 22
$ H2 x4 g1 N. s! q( [0 ^01:30:54.740                             : en:Chapter 23% r! z( }4 G4 |* Z8 M
01:37:59.039                             : en:Chapter 24
& I: t2 N0 L2 f5 L2 q01:41:42.971                             : en:Chapter 25
  @! w' [  }) z. _' U1 K! _01:43:57.648                             : en:Chapter 26$ b) ~- B3 N- |
01:47:25.939                             : en:Chapter 278 k# ?$ e' S* f
01:50:41.051                             : en:Chapter 28
SWEATY BALLZ presents2 k1 k2 ~0 n; V& V
" a& z: Z& K3 n
The.Birth.of.a.Nation.2016.2160p.BluRaycd.x264.8bit.SDR.DTS-HD.MA.5.1-SWTYBLZ; g) c8 J) ?" l9 A8 o( ?& t
Converted from 10 bit HDR to 8 bit SDR using tripple mixed Hable-Reinhard-JJ per scene+frame analysis algorithm2 C1 Q4 r8 E* ^4 ^

) X* i9 J$ i! ?5 I8 cVideo
3 s, ~( Y* \5 Q/ X  w  S% PID                                       : 1
& }/ P) c3 x; T% y( FFormat                                   : AVC$ s6 J; Z  J- F/ I
Format/Info                              : Advanced Video Codec
, O6 w3 }2 q# vFormat profile                           : High@L5.1+ C. i8 Q" m6 z3 H( ^5 e
Format settings                          : CABAC / 5 Ref Frames' P, j3 H  x' N! t2 O: O% K
Format settings, CABAC                   : Yes! P/ {. E( b* J6 R* O9 C1 s
Format settings, RefFrames               : 5 frames/ G$ I+ Z, E8 b( {  K! E
Codec ID                                 : V_MPEG4/ISO/AVC' R4 l- h- P6 F, P5 }7 t
Duration                                 : 1 h 59 min
* D) P& _6 t: c3 W. V  c! qBit rate                                 : 23.8 Mb/s
! @! t% B' B6 H$ VWidth                                    : 3 840 pixels# n" u2 C' z: n5 I, e
Height                                   : 1 600 pixels
: {0 n* p: h/ O  gDisplay aspect ratio                     : 2.40:1
; F* B6 V: d5 c5 u3 L0 B4 bFrame rate mode                          : Constant0 W4 Y/ C# T0 J0 T% {  _
Frame rate                               : 23.976 (24000/1001/37687) FPS
+ ~5 f% ], i! Y8 q' MColor space                              : YUV! z5 V' J$ ^) h. O2 n0 N
Chroma subsampling                       : 4:2:0- |. @" o8 ~# f; B5 T/ b
Bit depth                                : 8 bits
7 U) H/ e" u/ a3 \# z; hScan type                                : Progressive  e4 I3 e" t" }" L% j
Bits/(Pixel*Frame)                       : 0.161
, f; f% m( T) W! A3 q3 PStream size                              : 19.9GB (85%): w# v2 f# V$ L6 s
Title                                    : The.Birth.of.a.Nation.2016.2160p.BluRaycd.x264.8bit.SDR.DTS-HD.MA.5.1-SWTYBLZ. d, X, l- G' p" S+ X  z8 p% j
Writing library                          : x264 core 148 r2748 97eaef29 l1 m% u* R* G6 |. @) f$ d2 d
Encoding settings                        : cabac=1 / ref=5 / deblock=1:-1:-1 / analyse=0x3:0x113 / me=umh / subme=10 / psy=1 / psy_rd=1.00:0.15 / mixed_ref=1 / me_range=48 / chroma_me=1 / trellis=2 / 8x8dct=1 / cqm=0 / deadzone=21,11 / fast_pskip=1 / chroma_qp_offset=-3 / threads=50 / lookahead_threads=4 / sliced_threads=0 / nr=0 / decimate=0 / interlaced=0 / bluray_compat=0 / constrained_intra=0 / bframes=3 / b_pyramid=2 / b_adapt=2 / b_bias=0 / direct=3 / weightb=1 / open_gop=0 / weightp=2 / keyint=250 / keyint_min=23 / scenecut=40 / intra_refresh=0 / rc_lookahead=50 / rc=crf / mbtree=1 / crf=18.0 / qcomp=0.60 / qpmin=0 / qpmax=69 / qpstep=4 / ip_ratio=1.40 / aq=1:1.00
  h- p$ G6 h$ mDefault                                  : Yes% l( I& x3 N3 j  Z. O: W" `# g( t6 I
Forced                                   : No# ~* T) l4 \$ V. z: Q' \2 V

) y" Q6 h0 _3 N) v2 f8 v! O! {Audio #1
/ I/ t# ?3 t% \8 C. [! c$ CID                                       : 2
8 |9 M0 F, O1 _, F- p* VFormat                                   : DTS0 U6 W- y2 ~! U( R4 p
Format/Info                              : Digital Theater Systems
+ f( t1 p3 J: Z8 Q7 r1 qFormat profile                           : MA / Core. `' ^" o; G9 S7 h! i; ^: \3 u% p
Codec ID                                 : A_DTS
" y; T: K* g" }" T7 @6 w& ]0 fDuration                                 : 1 h 59 min4 J% f$ S. U. }0 E' |
Bit rate mode                            : Variable / Constant
8 ~8 N( v" u" DBit rate                                 : 3 483 kb/s / 1 509 kb/s
5 ]; ^; [5 |& N& e: j( |- qChannel(s)                               : 6 channels
' O- g0 u' [' U' MChannel positions                        : Front: L C R, Side: L R, LFE6 U$ Y$ o' E5 H$ ~$ o# T( v& d
Sampling rate                            : 48.0 kHz8 `& t( J% ^: K( k4 ?
Frame rate                               : 93.750 FPS (512 SPF)
3 R' [) W% D# K! ]) w( ~Bit depth                                : 24 bits9 Q6 Y: A/ M  z, v
Compression mode                         : Lossless / Lossy+ _3 q  H+ s! \' I9 `
Stream size                              : 2.92GB (12%)5 v0 R% e6 h8 c0 T+ k9 I
Title                                    : The.Birth.of.a.Nation.2016.2160p.BluRaycd.x264.8bit.SDR.DTS-HD.MA.5.1-SWTYBLZ
3 R0 \( |0 R: J( k) ALanguage                                 : English
& L& s# _( C+ k  o, p1 ]# |5 x! y( _Default                                  : Yes4 L* V0 I& t; ~6 c, V3 U$ o
Forced                                   : No
3 W8 ^+ y' u5 \; T
" f7 W8 H5 q$ l3 X3 k. fAudio #2
4 n2 Y4 o% g7 I% V& n) iID                                       : 3
" I- v9 X) G( jFormat                                   : AC-3
& E# P7 t6 O( h4 }& _# x& }# EFormat/Info                              : Audio Coding 3
% f; R7 p. N7 r: ^( f% W* ]Codec ID                                 : A_AC3
6 M, p6 }! c  VDuration                                 : 1 h 59 min
0 Y9 K5 |9 B( A: |, Q! dBit rate mode                            : Constant& P! l! H) M5 l) @: T+ E: v4 |
Bit rate                                 : 640 kb/s
: ^- a0 d- c7 R1 W. D8 @* J  \Channel(s)                               : 6 channels
% L; U. F3 @  I7 ]0 c" o4 hChannel positions                        : Front: L C R, Side: L R, LFE
1 w3 x7 D6 R. z9 B( kSampling rate                            : 48.0 kHz" p+ z$ N% `1 K3 W" @
Frame rate                               : 31.250 FPS (1536 SPF)
* s9 ]/ S" q  F" IBit depth                                : 16 bits
- d* f8 j; I" M/ L6 L1 GCompression mode                         : Lossy) ^  D" g" A  l7 h# y
Stream size                              : 549 MiB (2%)
: X. L* Z, l, k/ B6 wTitle                                    : The.Birth.of.a.Nation.2016.2160p.BluRaycd.x264.8bit.SDR.DTS-HD.MA.5.1-SWTYBLZ
" S. h9 X" Z" x. m* ]3 q0 F! ZLanguage                                 : English
/ {* z7 Z6 x( J" R' J2 _) }Service kind                             : Complete Main
) j" \# {: {8 w5 f  k- A/ Q3 i! o1 wDefault                                  : No
0 `. r+ D" D* v6 Y1 ?% L& M: vForced                                   : No) t# D! ?1 t; [$ c: z+ h0 ]7 Z5 G
0 s  J9 z6 R1 I. \3 A! _
Text #1
* ~+ h5 o5 G6 A9 [, mID                                       : 4
- S9 a7 j1 l4 ]4 \* TFormat                                   : UTF-8$ [5 l) s& t$ u2 u; t; J# R$ G
Codec ID                                 : S_TEXT/UTF8) [7 [7 x" H* R+ t
Codec ID/Info                            : UTF-8 Plain Text
- {- n; R+ e" O' ?, N5 V# k& JDuration                                 : 1 h 46 min+ Y0 V6 q8 |2 M* ^( v
Bit rate                                 : 40 b/s0 T  ?$ s$ i. Z0 g
Count of elements                        : 11631 Q  \" `* L9 f1 ~
Stream size                              : 31.2 KiB (0%)
; H% ^' n: E; q. J: K" ZTitle                                    : English-SRT
% N: b" o2 D: V9 SLanguage                                 : English! x# R$ v6 g! d' k
Default                                  : Yes
& B" F$ ~  s2 WForced                                   : No
0 h+ C/ V" b. Y) P# y" R/ l9 n& S& J9 l
Text #2. u6 @- d! q: r) z# l
ID                                       : 5
) ~0 m8 h2 ?2 I" S) E7 O; ^8 n/ H9 BFormat                                   : PGS. P$ @6 D. G/ z* K; Z% g+ x/ `
Muxing mode                              : zlib! Q9 r- n0 {  o5 c
Codec ID                                 : S_HDMV/PGS3 O- g0 L: U* n6 u: D: a) [2 \
Codec ID/Info                            : Picture based subtitle format used on BDs/HD-DVDs3 w9 T3 S6 O! S+ n9 H0 j2 U
Duration                                 : 1 h 50 min
+ h, z- Q5 @$ SBit rate                                 : 29.1 kb/s
) T2 J  N4 f" w3 P$ @0 M, k& PCount of elements                        : 2662
  f" |* r$ j! z* w" h4 g8 ]Stream size                              : 22.9 MiB (0%)
! y" V; @" F/ v# R, ETitle                                    : English-PGS
# C# `! e! X0 N, OLanguage                                 : English
4 n* s" A0 h9 J% W: K9 J" T  NDefault                                  : No
, t# o& d: _& OForced                                   : No# o* Q2 G0 m  {& s# ^% U( K) a
2 k7 q' a  `; F; T
Text #3
. l3 }/ l  n# a0 p* a: Q- R6 _ID                                       : 6
! |- i  i4 r  ?5 mFormat                                   : PGS
7 G6 b& `1 s" P+ C! x+ PMuxing mode                              : zlib- B" A) `- _: }9 L/ Q  _& F1 l# F
Codec ID                                 : S_HDMV/PGS
; \$ X% X: ]4 p- M# V- fCodec ID/Info                            : Picture based subtitle format used on BDs/HD-DVDs; ]& d% m6 r4 D$ P. ]0 |
Duration                                 : 1 min 7 s) D* U7 l" w4 C/ |  W9 @/ `
Bit rate                                 : 12.1 kb/s. _# R9 [/ F  D7 y& ^' P
Count of elements                        : 32
( y7 z9 Q7 c3 O' u+ p$ p4 cStream size                              : 99.7 KiB (0%)
( R- [0 ^  a! ?/ d! l- \3 k# dTitle                                    : English-SDH-PGS
9 @- p7 N$ l# i  _* JLanguage                                 : English8 u' |; g' ]8 O3 K. `
Default                                  : No
' M- ?0 a1 g' ^Forced                                   : No: E9 B; T+ l$ E
. c$ d5 r+ b( _5 Q* v
Text #4
1 I% I' g9 E" M" C3 u- O) aID                                       : 7
" p3 {% P7 n9 B% n- d/ ?Format                                   : PGS
* n& ^* n& l2 ~) b" ~$ n6 i! tMuxing mode                              : zlib: g0 w3 v0 z% }
Codec ID                                 : S_HDMV/PGS  o- E) z5 Z# u- g
Codec ID/Info                            : Picture based subtitle format used on BDs/HD-DVDs
$ O+ U1 q6 {4 p5 KDuration                                 : 1 h 58 min7 O( \. O" t! Q. F' @
Bit rate                                 : 21.8 kb/s8 b2 R( o; r  m! z5 D
Count of elements                        : 2074
0 P9 }( @. T" }0 s- }3 v9 wStream size                              : 18.5 MiB (0%)
5 b8 ]) r1 Z( B8 ?Title                                    : Spanish-PGS
- I5 ]% Z7 r% w2 f+ U$ p4 z+ \Language                                 : Spanish
# |& [' `/ S2 A& a% Y: h0 @: E$ N3 yDefault                                  : No# C8 m2 m% @5 @2 \9 F0 \* @
Forced                                   : No
  m9 n1 R2 k6 b$ g
2 j. f% y/ K0 E: S) P2 yText #5
9 K; Z! @7 w& M( B% CID                                       : 8. l( a" {& p+ g/ P
Format                                   : PGS+ I9 w& [) D5 e5 ^+ B, z
Muxing mode                              : zlib
* C1 o$ a! Q* R; v7 ~8 t2 _+ uCodec ID                                 : S_HDMV/PGS' x1 G; Q  H7 a$ w: z) \6 p) D
Codec ID/Info                            : Picture based subtitle format used on BDs/HD-DVDs- K9 K* o( v0 T& f# M3 M& c
Duration                                 : 1 h 58 min! a' s) O/ ?3 Y0 E9 h
Bit rate                                 : 22.4 kb/s
* c& A9 K2 N9 ]/ G! R  ACount of elements                        : 18905 o9 E5 T- F) {& i
Stream size                              : 19.0 MiB (0%)
# m- }  d1 o& A- g1 eTitle                                    : French-PGS* E1 ?2 J2 N0 G( c, `$ c
Language                                 : French; V. i5 F9 b" A; O0 Z' A3 n
Default                                  : No# A8 K. y. }, s! |7 E4 A6 q
Forced                                   : No* l5 p1 c- a5 Z" e

. R4 t* i7 x" A3 p" `7 R" nText #6( e* i( K, f% z& Q3 n
ID                                       : 9. l% T3 ~2 a2 `+ i) x' o  V8 O% {
Format                                   : PGS
, H- @/ H0 A8 `8 D: r' B. ?0 ~Muxing mode                              : zlib
# S3 ?4 V( H0 ~/ hCodec ID                                 : S_HDMV/PGS
; g/ H. d7 \  b5 p$ gCodec ID/Info                            : Picture based subtitle format used on BDs/HD-DVDs
5 s+ H8 E( s5 O7 S, Q8 Q* ODuration                                 : 1 h 58 min
+ u4 W+ f& L5 @9 f& N% o$ dBit rate                                 : 1 084 b/s
8 @$ P: W2 ~  Y7 Y! |" Z9 HCount of elements                        : 106
% C: f0 l+ c: h3 w( p/ JStream size                              : 943 KiB (0%)
4 V$ E0 X3 R7 _0 u. Q3 dTitle                                    : French-PGS
* {6 F4 X% f$ T9 T# sLanguage                                 : French
" b9 V- B& ^  ~) F$ w- SDefault                                  : No* H- h2 Y5 h$ g' n  Y
Forced                                   : No
9 ^. [1 v! g7 V9 m8 ]! j; P" p3 D& f' F3 P  V
Menu
7 D: V& ^; S4 ^& P# i, Z! N00:00:00.000                             : en:Chapter 1
1 u6 f& |2 c2 ~% A, u) \! b- N6 F- [00:04:18.758                             : en:Chapter 27 H7 b- k) _, B  t0 P7 B' @, H
00:07:45.465                             : en:Chapter 3& M7 {  U3 ?" V6 I) ~
00:10:05.062                             : en:Chapter 4
6 B8 m0 i7 ^$ D- R9 W00:14:37.877                             : en:Chapter 5
" j: l, ~+ Y/ l0 a% R, k* @+ i00:17:42.811                             : en:Chapter 6
( n" S* g9 R& n5 s; q4 Q! ?/ Y00:23:06.927                             : en:Chapter 73 X3 b9 z! }& a; |
00:28:35.171                             : en:Chapter 8
- P4 M+ s* x% n& ~0 S, C& l00:32:13.973                             : en:Chapter 94 B9 f7 G: z8 E" l6 V: [3 P: `
00:37:09.227                             : en:Chapter 10: G. l& I* Q2 s# I* c) F1 z& c
00:39:50.429                             : en:Chapter 11% D3 s  N" a  W9 ?' f8 b) \" b
00:42:53.571                             : en:Chapter 12
1 G: a: w6 S% @9 c4 r00:46:46.386                             : en:Chapter 13; i$ l8 U5 E' f) d3 @9 K
00:51:11.151                             : en:Chapter 14
8 H- i/ J) r& |/ J9 d  i% b00:54:41.152                             : en:Chapter 154 L- a, b' L# x. \2 E5 y2 ]
00:59:01.412                             : en:Chapter 163 Q' H" P( O8 _7 \3 t! r( J/ q$ k
01:03:21.714                             : en:Chapter 17
5 u% m  T# P$ o( p' O01:08:42.201                             : en:Chapter 188 ~: ?( y  W0 R3 J8 N7 V. L
01:13:05.422                             : en:Chapter 191 q, L( x! Y7 o$ r# i9 N, ?  B4 D
01:17:02.909                             : en:Chapter 20
- e1 y1 Q5 v8 L3 T9 V5 Y3 F7 R01:22:13.094                             : en:Chapter 21* i& R, |% I$ @2 i
01:26:56.920                             : en:Chapter 22" B2 e" c! B& v# [. g1 n, K9 j$ f
01:30:54.740                             : en:Chapter 238 {+ h) y6 l$ A, L7 J
01:37:59.039                             : en:Chapter 24
, j+ u5 H4 c. L+ E% L0 [01:41:42.971                             : en:Chapter 25" _! o- q5 Y& I; ]" k
01:43:57.648                             : en:Chapter 264 N3 k1 t  U! j$ `0 x. z3 A
01:47:25.939                             : en:Chapter 272 ~8 P5 V' e1 W1 l/ M6 D- U
01:50:41.051                             : en:Chapter 28
- d" l* [, A/ B$ o$ L: V1 K
游客,查看本帖隐藏内容请回复 | 加入VIP贵宾组可免积分免回复下载 了解详情 | 还不是会员:点击获取邀请码 Invitation Code

本版积分规则

小黑屋|Archiver|蓝光电影资源网

GMT+8, 2020-9-22 03:18

快速回复 返回顶部 返回列表