BluRayCD Forum

 找回密码
 立即注册【分享大片】

QQ登录

只需一步,快速开始

查看: 25|回复: 2
收起左侧

[蓝光原盘] 摩登吸血王子 [REMUX无损重制版] Dracula A D 1972 1972 REMASTERED 1080p BluRaycd REMUX AVC DTS-HD MA 2.0-FGT 24.68GB

[复制链接]

4550

主题

4722

帖子

6万

积分

Post Share

金币
8727 枚
体力
16795 点

卓越贡献勋章

黄金嫖客 发表于 2020-9-17 00:50:25 | 显示全部楼层 |阅读模式
Johnny Alucard raises Count Dracula from the dead in London in 1972. The Count goes after the descendants of Van Helsing.
% L5 M' |8 h- k8 }0 a* S" |, K: F* @( u
01.jpg - Z2 L$ j9 w* k/ Y! {- K7 k9 a" H
( E/ f/ \$ h* _& T
◎译  名 摩登吸血王子& O" t) z# h! C2 `
◎片  名 Dracula A.D. 1972 / Dracula 1972 / Dracula Chases the Mini Girls. v$ `' Q& k7 V: Y4 ]  x
◎年  代 1972. o2 S$ {* V2 L1 a7 P; O
◎产  地 英国
0 n( L6 g( @! ?* B( b◎类  别 恐怖
' P1 E7 @( @4 ?1 B5 e# Z◎语  言 英语3 k0 |, i( y9 g4 Q8 E; T
◎上映日期 1972-06-30
+ n2 K0 A4 @; @2 Z3 _◎IMDb评分  6.0/10 from 5,364 users& U9 f: K* I. t; @
◎IMDb链接  https://www.imdb.com/title/tt0068505/& w0 ?) @/ [. b2 s6 F2 B, b' |( n
◎豆瓣评分 0/10 from 0 users+ s: Z- n: [# v9 I' {* _
◎豆瓣链接 https://movie.douban.com/subject/2242822/
" b0 }! z2 u  {$ Q◎文件格式 x264 + DTS
. o( f- R, J- L5 W( Z0 x; e8 O◎视频尺寸 1920 x 10806 [4 I0 O; P0 \( d0 z. T" K
◎文件大小 1DVD 24.68 GiB
6 r# g; Q! m! x. T& V+ x◎片  长 1 h 35 min
& O) _; q' H' \! V◎导  演 艾伦·吉布森 Alan Gibson2 T* @5 ?9 E- v0 e! S- y! d9 Q- `' `
◎编  剧 Don Houghton
5 P$ d4 M6 j% [, Z* s◎主  演 克里斯托弗·李 Christopher Lee* Z7 ^* n0 U5 Q0 H% ?' N( g% C/ N
       彼得·库欣 Peter Cushing
7 X6 A, ?5 ?& L- e! I5 f4 N' @       斯蒂法妮·比彻姆 Stephanie Beacham
7 Q6 l; X( o* U  U* s       Christopher Neame% I; o1 v9 Y5 M& T
       珍妮特·基 Janet Key
' U. F1 \, Q. y6 I       Marsha A. Hunt
) ?% ^  \/ ]; G# F3 O       约翰·福兰克林·罗宾斯 John Franklyn-Robbins  n* c2 c7 ?, y4 t) a  @
       William Ellis- s! s* Z2 p, q& `* B) |" }6 e5 m& G
       克里斯托弗·尼姆 Christopher Neame7 u& e  w6 ?4 x% @+ p8 p
( k" u# z6 o. ~  W6 }- g. a7 D' d0 {& X
◎标  签 吸血鬼 | 恐怖 | 惊悚 | 英国 | 德古拉 | dracula | PeterCushing | 19721 _1 M! l8 f3 u& E7 x4 B/ k/ N8 R

; A$ P5 Y- {6 P8 A# N0 x) B◎简  介  
, e; T. f  e( V0 N; c" E: T- x3 v" C4 A# S5 E) d) g$ }# X
  1972年,约翰尼·阿卢卡德在伦敦让德古拉伯爵起死回生。伯爵追捕凡·赫尔辛的后代。% Z! p0 b1 Z/ o! P2 _

. L5 ?0 B- |: B! F) f  London's become a small town for a handful of jaded psychedelic-era hipsters. But Johnny Alucard has a groovy new way for his pals to get their kicks. A certain ritual will be the living end, he insists. And if you still wonder where Johnny's coming from, try spelling his last name backwards.2 @" x) g, t% E
$ u" i& ^+ |; |7 B! c  M
Video
/ Z2 w! b. u# Q* E* f5 qID                                       : 14 I% N5 _0 q7 I- v0 A. m
Format                                   : AVC0 O4 d; W0 U+ j; D$ t5 R# [
Format/Info                              : Advanced Video Codec
" G: V- u6 L; H$ lFormat profile                           : High@L4.13 M& G5 a- G& y. g  j  g
Format settings                          : CABAC / 4 Ref Frames
5 H+ k5 O( F9 g. u* A: X4 J3 `Format settings, CABAC                   : Yes8 i0 i$ T/ d3 d7 @$ d
Format settings, Reference frames        : 4 frames
" b5 i; ~! I# T7 ?$ s4 ECodec ID                                 : V_MPEG4/ISO/AVC$ F' B' ^& @$ B0 N1 _
Duration                                 : 1 h 35 min
% f0 g" ~6 _; HBit rate mode                            : Variable  R; Q2 [* K' r
Bit rate                                 : 34.9 Mb/s
, [" `; r7 q0 g+ N' H0 }3 B& RMaximum bit rate                         : 38.0 Mb/s& f4 `' t- x, r# g) h2 I4 B
Width                                    : 1 920 pixels$ z. I6 v7 d  P
Height                                   : 1 080 pixels
+ n! p: \1 R; d8 R# B* S* ]; eDisplay aspect ratio                     : 16:9
; e6 B+ }; H$ s' b7 P# \+ ~Frame rate mode                          : Constant0 S' v0 a$ _# ~- q7 \
Frame rate                               : 23.976 (24000/1001/37687) FPS8 x  W0 t) \: O& n0 k
Color space                              : YUV* w* \/ y+ g2 {* Q; {! [0 I( |
Chroma subsampling                       : 4:2:0  b9 R# C$ q% M# n& U
Bit depth                                : 8 bits# L$ p) P( t5 W" V/ s8 u/ Z! s) Z
Scan type                                : Progressive1 {5 o! @7 B7 V) X( l: R$ M0 o6 u: S
Bits/(Pixel*Frame)                       : 0.702
  m- t" T4 r. X8 ^  y5 @% D7 PStream size                              : 23.3 GiB (94%)
$ Z8 O5 H% w  U# O5 ATitle                                    : Dracula.A.D.1972.1972.REMASTERED.1080p.BluRayCD.REMUX.AVC.DTS-HD.MA.2.0-FGT
% ?2 r/ _9 ]; TLanguage                                 : English
3 S. A3 u, A( n% O' a, LDefault                                  : No
+ ^1 c3 P4 Q9 q6 B0 ^6 t  @Forced                                   : No$ l, {5 R" v$ G( \+ C& U" ?

3 P, H7 G5 U* U% Y# a' gAudio3 c: Q5 d0 y; a' K2 y& h3 ~
ID                                       : 2/ s# R( h8 v- O4 Q4 o% x$ n% s
Format                                   : DTS XLL
# n) L$ {) Y: ?# Y, xFormat/Info                              : Digital Theater Systems
5 {+ @3 j. r6 p  p! UCommercial name                          : DTS-HD Master Audio
+ ~7 G5 D9 Z+ t$ ^+ _4 ^0 ?# |7 U* DCodec ID                                 : A_DTS
& V  A7 ]  d$ g7 a- r3 p6 L, T/ G) KDuration                                 : 1 h 35 min& S/ w0 c3 N; W" l$ K) e
Bit rate mode                            : Variable% A0 B- K; a: S& T/ ]8 M
Bit rate                                 : 1 992 kb/s
5 Q& L6 X0 I/ U% @: K* P8 R! {Channel(s)                               : 2 channels# @/ C2 ^  Z$ U6 S& `4 |
Channel layout                           : L R* F% i  z8 n/ N  j9 Q2 Q' d
Sampling rate                            : 48.0 kHz- s2 r9 n* s( O: r; z; J  b8 G
Frame rate                               : 93.750 FPS (512 SPF)
' t! k5 _% P. X. _( yBit depth                                : 24 bits
" D9 `7 S$ h  t, v$ ]: F: W3 g- QCompression mode                         : Lossless
) u, i9 h" J- R% l7 B' LStream size                              : 1.33 GiB (5%)
8 H* k# S! u# F3 M1 QTitle                                    : Dracula.A.D.1972.1972.REMASTERED.1080p.BluRaycd.REMUX.AVC.DTS-HD.MA.2.0-FGT5 J( [  S  Y. R6 O- `) D9 U6 {3 G
Language                                 : English  G$ L! u) O8 F! d' V2 C: E
Default                                  : Yes
( M7 M  @; U) ^1 t  NForced                                   : No
1 p  c6 j3 D  ]0 Z, Y
, D4 Z+ I) o+ k5 S" h, T( @Text
  `) F3 X% N7 u% m+ {  hID                                       : 3
+ f* a3 }1 z( M: XFormat                                   : PGS6 X5 l% ^- ?  J1 @3 c9 k8 x% d
Muxing mode                              : zlib
7 V/ _3 X+ F; ACodec ID                                 : S_HDMV/PGS
% j( _: C) @: w  hCodec ID/Info                            : Picture based subtitle format used on BDs/HD-DVDs8 l1 m1 ~( b$ _# E2 c
Duration                                 : 1 h 34 min9 n1 t4 n8 ?+ u- C3 E
Bit rate                                 : 80.9 kb/s
6 l4 _2 z, ]* {7 x; ^& d# o) GCount of elements                        : 2760
, b  g2 a/ d, v$ c# H+ N5 K& CStream size                              : 54.6 MiB (0%)5 d. s7 `2 f& O3 b0 h* Y
Title                                    : English-PGS4 u4 w; J' @; ~' m4 Z) S0 H
Language                                 : English
$ ]! p' @% T& R& q' E# eDefault                                  : Yes8 U' }6 n1 G% B( [3 z0 C  x
Forced                                   : No" G4 q* j: ?# u

6 R& k0 a8 R/ T4 ?5 c3 v8 ?7 |Menu) x$ m, T( g9 `  c6 i
00:00:00.000                             : en:Chapter 01
8 o+ P+ }4 n# J( K  @- D3 m00:04:34.649                             : en:Chapter 02
0 V/ U" R1 `  X6 t1 v- m; C00:07:48.176                             : en:Chapter 03
4 K% N- d* z* I; ^1 X4 \00:12:42.511                             : en:Chapter 04
; Q5 |/ s; ]% K- ?6 X00:14:18.232                             : en:Chapter 05: ?) W' _* q  ^; }5 b* d- W
00:18:05.751                             : en:Chapter 06
% x/ B, O) R  w9 M# r00:23:28.198                             : en:Chapter 076 q3 U6 {( M! g1 S
00:27:06.416                             : en:Chapter 08# w3 y. g1 f+ b
00:31:25.091                             : en:Chapter 09, b5 c1 ?9 o3 n( e% r, y% L% H8 k& M
00:36:27.685                             : en:Chapter 10* m6 u# e. F7 q- ]# {" p
00:39:17.021                             : en:Chapter 11+ X. a) t4 W( [8 o( B
00:44:10.397                             : en:Chapter 12
, i/ d( D" U; Q+ T) g& y4 F6 t00:48:27.029                             : en:Chapter 13, q8 r2 w4 M. B- M2 D# O, h6 f3 g
00:51:55.987                             : en:Chapter 14
, W8 _) z. P! W. T- q! D00:56:54.119                             : en:Chapter 15
( I  r7 [. G3 l7 B2 m2 @1 V0 r00:59:38.866                             : en:Chapter 16# K: \2 O' T* }" R
01:03:59.335                             : en:Chapter 17. t1 M" \. p5 L2 r# W! p# U( b: U6 W+ S
01:06:46.127                             : en:Chapter 181 S# Q) y, q; |* q
01:12:48.739                             : en:Chapter 19+ f, r7 T' ]4 n$ n4 g
01:17:24.765                             : en:Chapter 20
  d! A- O  m3 u6 c% [$ k6 a01:20:17.521                             : en:Chapter 214 u& c9 W+ M0 X+ u8 c" L% n' d8 i
01:24:00.577                             : en:Chapter 22
! g) o# I0 d, o3 X01:28:12.078                             : en:Chapter 23
5 Q: P. f# r$ w. i. k01:32:16.155                             : en:Chapter 24
- e( S9 b4 H. y4 \01:34:56.399                             : en:Chapter 25- z3 T# e& h& T
01:35:39.525                             : en:Chapter 26
Dracula A.D. 1972 Blu-ray, Video Quality   % k' [3 |- W8 U' [, \
( ~" A: D6 n2 C

  K2 L, {8 \8 E+ L% r8 j9 ~Dracula A.D. 1972 was previously released on a German Blu-ray based on the same transfer created for the 2005 DVD released in multiple regions. The Warner Archive Collection reviewed that transfer and rejected it as unusable. WAC's 1080p, AVC-encoded Blu-ray has been made from a new 2K scan by Warner's MPI facility of a recently manufactured interpositive. Color correction was performed using Ektrachrome transparencies as a reference, and thousands of instances of dirt, scratches and age-related damage were repaired by hand, frame by frame. The resulting image is comparable to the later three films in the previously released Hammer Horror Classics collection, which were shot in roughly the same time period (though by a different DP; here, it was Dick Bush, whose later credits include Victor/Victoria). The Blu-ray aptly captures the colorfully stylized artificiality of the film's version of early Seventies London, which contrasts sharply with the more familiar Hammer horror style of the church in which Dracula is reborn (and where, it seems, he must remain). Detail, blacks and densities are all superior, and the film's grain pattern has been finely rendered. Capable compression at WAC's customarily high rate of just under 35 Mbps completes the film's 1080p resurrection.
( L, E! z: |/ g: H) N1 w$ U: e3 |. ]: D7 E( E+ K5 ?1 z' o- {
Dracula A.D. 1972 Blu-ray, Audio Quality   9 y& g; Z" I& q+ I8 Q
9 R" I- ^( c  ^0 S& I9 ^! D( q/ S
2 J. O4 n5 i0 J3 y9 |# H
The film's mono soundtrack has been taken from the magnetic master and encoded in lossless DTS-HD MA 2.0. I am told that the source was in excellent shape and required minimal cleanup. The dialogue is clearly rendered, as are the basic sound effects. By far the best audio element is the lively score by Michael Vickers (At the Earth's Core), who sounds like he's channeling Henry Mancini (in a good way).( I+ _: }  @, j5 e! F  l3 N3 u
游客,查看本帖隐藏内容请回复 | 加入VIP贵宾组可免积分免回复下载 了解详情 | 还不是会员:点击获取邀请码 Invitation Code

64

主题

1486

帖子

5413

积分

Sponsor

金币
292 枚
体力
2056 点
lanpanshuma 发表于 2020-9-19 08:57:53 | 显示全部楼层
楼主发贴辛苦了,I*老*虎*U!
0 V" [+ }" P: M4 s/ w( h3 fThe decisive Replies sink is I get the sinking feeling great sense of accomplishment!2 u8 Q' U9 L; |3 K' H' o6 ]
该会员没有 ...

0

主题

186

帖子

993

积分

Sponsor

金币
152 枚
体力
482 点
2475017 发表于 2020-9-19 14:55:14 | 显示全部楼层
楼主发贴辛苦了多謝分享
! u* B' X9 E; [' k8 d; b
该会员没有 ...

本版积分规则

小黑屋|Archiver|蓝光电影资源网

GMT+8, 2020-10-23 02:32

快速回复 返回顶部 返回列表