BluRayCD Forum

 找回密码
 立即注册【分享大片】

QQ登录

只需一步,快速开始

查看: 19|回复: 0
收起左侧

[动作战争] 士兵复仇记/将士之心:复仇 A Soldiers Revenge 2020 1080p BluRaycd x264-LATENCY 12.09GB

[复制链接]

3883

主题

4257

帖子

3万

积分

Post Share

金币
7269 枚
体力
6550 点

卓越贡献勋章

mvods 发表于 2020-9-19 21:11:41 | 显示全部楼层 |阅读模式

: B2 l- i6 R9 r& D* V1 m' X. u. a- Y* {( e9 V6 ?' _; i6 v
◎译  名 士兵复仇记/将士之心:复仇
( }- G$ Z) j" k6 u) S; M◎片  名 Soldier's Heart; u& A& h& I# M5 N# y
◎年  代 20218 {6 R7 n1 W' I3 c9 p0 j- F7 q+ Y
◎产  地 美国- P0 x: h6 Q  v. p
◎类  别 西部
6 F; Z" z/ j% N) R8 ~: \6 y1 o' f9 |◎语  言 英语
$ K  w" E8 c8 o. d" s- Z◎上映日期 2020-06-11(美国)" m6 N. I3 j5 }, Z" \$ c
◎IMDb评分  6.3/10 from 731 users
1 I+ E' y6 {) H, x◎IMDb链接  https://www.imdb.com/title/tt9302994/
) D& g+ I! _8 Q4 j  b; `7 O◎豆瓣评分 0/10 from 0 users2 l# D- \" @( N2 `( P, \- t
◎豆瓣链接 https://movie.douban.com/subject/34935812/
! @6 E* N1 i. O◎片  长 2 h 19 min
( G* v; Y$ T; M& F8 [7 G# S◎导  演 迈克尔·费法 Michael Feifer/ S+ U2 e. X( e
◎编  剧 迈克尔·费法 Michael Feifer2 {1 l/ e6 x% w! h3 k& l6 G3 }
◎主  演 尼尔·布莱德森 Neal Bledsoe
9 J! g0 t1 {0 x       罗勃·梅耶斯 Rob Mayes
% [5 u/ R) ]% ^* s2 H, h       安娜琳·麦考德 AnnaLynne McCord
+ C7 R  J7 j0 i8 z       方·基默 Val Kilmer3 a$ {& l( ]$ i- ^
       Jake Busey2 B+ H! e: o$ t: x8 C( x& v
       迈克尔·鲍文 Michael Bowen
7 X/ V, s" M: [4 j       Jay Pickett
' V7 b2 [, n( P- J4 I       迈克·韦尔奇 Michael Welch6 H( q" G# T* U0 i; ~, u$ N
       詹姆斯·拉索 James Russo2 O; `8 s0 n4 x" Q0 q, J
       卢克·朱迪 Luke Judy, {3 E2 I8 @1 S1 J) y/ Q. @5 X; i' f* F! s
7 f, R: A2 |4 }# _) e- E/ u+ \
◎简  介  0 C* i7 z% ?8 z  r- M& L; q

# H+ i5 V' ?6 X  饱受战时恐怖的困扰,南北战争士兵出身的赏金猎人弗兰克·康纳(尼尔·布莱索饰)战后花时间擦干两样东西:威士忌和逃犯。当两个绝望的孩子来到他的家门口,并寻求他的帮助寻找他们失踪的母亲(安娜琳·麦考德饰)时,弗兰克必须面对自己的过去,才能扳倒臭名昭著的布里格斯少校(罗布·梅耶斯饰),他与布里格斯少校之间有一笔自己的恩怨要了结。, _& _. c  o& n. V4 ?- @7 p
5 [- K3 K( {* Q, C, R5 J2 F
  Haunted by wartime horrors, Civil War soldier-turned-bounty-hunter Frank Connor (Neal Bledsoe) spends his time post-war polishing off two things: whiskey and fugitives. When two desperate children arrive on his doorstep and enlist his help to find their missing mother (AnnaLynne McCord), Frank must face his past in order to take down the notorious Major Briggs (Rob Mayes), with whom he has a score all his own to settle.
" G0 n5 V% s7 J# J) l
Video2 @& A0 z+ X6 h  v) h7 K% F+ o- d5 ?: q
ID                                       : 17 f' _- x3 \( \/ Y2 q
Format                                   : AVC! p( ^2 E" y$ p
Format/Info                              : Advanced Video Codec
" [. V; i6 S1 t1 bFormat profile                           : High@L4.1
4 v7 [. W! }8 t( ]2 N0 H- eFormat settings                          : CABAC / 8 Ref Frames
, E, t/ s3 ?5 J0 }$ B$ vFormat settings, CABAC                   : Yes1 D) H1 ~2 }! d  R, P
Format settings, Reference frames        : 8 frames  L9 D% `. F0 I, j
Codec ID                                 : V_MPEG4/ISO/AVC
+ S/ w& I/ j' E- }# N- MDuration                                 : 2 h 19 min
! G" D7 D. f5 v' C  T0 M! BBit rate                                 : 4 091 kb/s7 l6 o# Z1 `3 M7 }$ H7 }; k, b$ z- A
Width                                    : 1 920 pixels
1 j0 ]$ T5 f4 e2 \Height                                   : 816 pixels! D# s* ~1 U3 B8 k7 ^9 T
Display aspect ratio                     : 2.35:1) }% V- l2 h" ?& J$ n
Frame rate mode                          : Constant* Z# Z! w( A: E1 R* M: t8 V! D
Frame rate                               : 23.976 (24000/1001/37687) FPS
# h9 `# O) a* _% }5 Y+ T; ?" CColor space                              : YUV( a- c" b% s: E1 A1 ]% y% C
Chroma subsampling                       : 4:2:0
) Q7 ^& A8 m7 j8 g* KBit depth                                : 8 bits
( \! ]0 u/ B2 ]( b6 \+ P' tScan type                                : Progressive- w( A: C. K  m1 [6 m$ r! y6 a
Bits/(Pixel*Frame)                       : 0.245: n) E9 b! l/ m* \9 p+ }
Stream size                              : 3.99 GiB (86%)1 I9 d, m: a, c' A
Writing library                          : x264 core 161 r3018 db0d417* ^& Q$ [* g% \) W; r4 Y6 D
Encoding settings                        : cabac=1 / ref=8 / deblock=1:-3:-3 / analyse=0x3:0 / me=umh / subme=9 / psy=1 / psy_rd=1.00:0.00 / mixed_ref=1 / me_range=16 / chroma_me=1 / trellis=2 / 8x8dct=1 / cqm=0 / deadzone=21,11 / fast_pskip=1 / chroma_qp_offset=-2 / threads=17 / lookahead_threads=2 / sliced_threads=0 / nr=0 / decimate=1 / interlaced=0 / bluray_compat=0 / constrained_intra=0 / bframes=9 / b_pyramid=2 / b_adapt=2 / b_bias=0 / direct=3 / weightb=0 / open_gop=0 / weightp=2 / keyint=250 / keyint_min=23 / scenecut=40 / intra_refresh=0 / rc=crf / mbtree=0 / crf=17.0 / qcomp=0.60 / qpmin=0 / qpmax=69 / qpstep=4 / ip_ratio=1.40 / pb_ratio=1.30 / aq=3:0.88/ z8 B) p1 X' e" I
Default                                  : Yes+ U) m* K/ d% \8 b$ p" d  }: P
Forced                                   : No: g( @: Y+ N& d6 e: ]" ~3 p  Z7 n! j
Color range                              : Limited/ Z+ V: p! _9 R4 V
Color primaries                          : BT.709
4 s' [. `0 y: d1 [. z: ]Transfer characteristics                 : BT.709- N! b! U, t) f% m- ~$ A; v
Matrix coefficients                      : BT.709
& t* K+ ^' y/ P+ g  C% ?Audio
, H9 Y# |4 Q2 ?, D5 uID                                       : 2
; {) w! ^6 A& ?% K$ lFormat                                   : AC-3( {5 I& g" ^/ G$ V  \0 q) \. e
Format/Info                              : Audio Coding 30 y, `* L" Q* |
Commercial name                          : Dolby Digital
" C& y8 P/ l$ z' x" FCodec ID                                 : A_AC3, [9 X1 f- J+ `
Duration                                 : 2 h 19 min+ g; Q4 T# n: F' `& r
Bit rate mode                            : Constant. ]6 ?& K% Q; I4 Q
Bit rate                                 : 640 kb/s8 s. }3 w# k+ O9 D0 z3 n
Channel(s)                               : 6 channels% [# C5 T! c& Y. N& g+ U+ j6 @
Channel layout                           : L R C LFE Ls Rs4 h/ `+ K4 c; S- ?
Sampling rate                            : 48.0 kHz
" Y- O; s& p2 q* F& RFrame rate                               : 31.250 FPS (1536 SPF)
  i/ K$ U# f) |& V- A/ E- kBit depth                                : 16 bits* @# x* p4 p2 M" W% c
Compression mode                         : Lossy
% e9 z1 u; d, w' t2 K. QStream size                              : 640 MiB (13%); t" v  o  n" y( i# z: Z
Title                                    : English
3 M2 w* S; a+ ^# {2 FLanguage                                 : English, n. i0 h& c4 t6 _; A0 m% ~! H
Service kind                             : Complete Main0 q4 ?+ k  [2 C+ L3 R6 A
Default                                  : No9 C6 A+ |7 {; w# t' q  Q" G  w
Forced                                   : No. B, Z2 ?: w( j  b( t6 d$ \5 M$ q
Text
3 n- r! v1 T7 l  |ID                                       : 34 r6 Z' \4 y* e2 V9 J. ?
Format                                   : PGS& Q" T8 ^1 p* W# f! M
Muxing mode                              : zlib
1 `' q+ a5 i6 C% ~Codec ID                                 : S_HDMV/PGS$ l' ]4 U1 Q  Y4 s5 X
Codec ID/Info                            : Picture based subtitle format used on BDs/HD-DVDs) v3 Z: g: U9 U  V
Duration                                 : 2 h 12 min1 _1 n" ~$ `" P9 L
Bit rate                                 : 28.4 kb/s. I  i8 I! v" g9 y
Count of elements                        : 27080 o" ?) O9 ?& j& H& ^. i
Stream size                              : 27.0 MiB (1%)" a# K' C7 ?6 Q9 b
Title                                    : English# k, n/ S! p: r! X/ w4 T0 K1 m: P
Language                                 : English
7 m) k" V) [8 G" W, \% p) i7 XDefault                                  : No$ ^* _) ~  [0 m& x
Forced                                   : No
! i) w% k: t3 U& C) i7 uMenu
) X" e8 r$ ~$ {3 c* q& \! q00:00:00.000                             : en:Chapter 01
6 n! {( Q% v& i3 a1 R00:13:26.806                             : en:Chapter 022 s; [$ c( u) O: ?
00:20:39.947                             : en:Chapter 03
/ T/ ^# k- q/ b% U00:32:30.991                             : en:Chapter 046 k7 Q: X8 j  g- N) m2 x( H5 V
00:44:25.746                             : en:Chapter 05
: ^& C5 u& S) k  z+ l00:57:17.309                             : en:Chapter 060 ^3 i9 j2 \5 K! @2 @& n& N# w
01:09:32.043                             : en:Chapter 07
9 q. v9 o$ g) M( K3 W01:17:57.715                             : en:Chapter 08
4 i6 `9 G$ [8 l8 |2 ?6 x01:29:27.028                             : en:Chapter 090 A5 ^( u9 ?1 |" b/ W
01:43:40.339                             : en:Chapter 10
$ E. b5 Y% G- o01:59:42.217                             : en:Chapter 118 R8 L" b4 x6 Z/ S4 h
02:14:32.982                             : en:Chapter 12
  L- u- \5 ?2 K2 M8 C
; J" @$ X7 l$ _) YA.Soliders.Revenge.2020.1080p.BluRayCD.x264-LATENCY- A- B' |5 ~6 V  O! K

5 ^0 h$ L; L$ L4 N9 Dimdb  : https://www.imdb.com/title/tt5929654/
5 \0 U; X6 }6 G2 h; z, y5 E) h' ^. B
video :1920x816 @ 9969kb/s - crf: 17.0
: p9 \) u. y5 O% i2 bsource: 17000kb/s9 b' G7 m7 U' q/ b
%-age :58.64%
5 o0 \. ~! Q; R# e  L, ^audio :English DTS-HD MA 2396kb/s
: k2 Y; j/ o/ j" b0 L9 Esubs  :English (PGS)5 l& }  W  S& R# t0 P
time  :2 h 19 min% C% Z0 u3 ?! a. I
size  :12.1GB1 t: B& e+ I  v' X& F+ D. A0 q
notes :
' a" R+ Y; m  E
, X1 E' g% m$ m4 h+ gNFO by LATENCY (v.1.0)

% h. p- z% S2 {8 t6 F
游客,查看本帖隐藏内容请回复 | 加入VIP贵宾组可免积分免回复下载 了解详情 | 还不是会员:点击获取邀请码 Invitation Code

本版积分规则

小黑屋|Archiver|蓝光电影资源网

GMT+8, 2020-10-21 06:31

快速回复 返回顶部 返回列表