BluRayCD Forum

 找回密码
 立即注册【分享大片】

QQ登录

只需一步,快速开始

查看: 23|回复: 1
收起左侧

[动作战争] 职业枪手/職業鎗手 The Specialists 1969 ITALIAN 1080p BluRaycd x264 DTS-FGT 9.49GB & 14.94GB

[复制链接]

3883

主题

4257

帖子

3万

积分

Post Share

金币
7269 枚
体力
6550 点

卓越贡献勋章

mvods 发表于 2020-9-19 21:27:17 | 显示全部楼层 |阅读模式

4 a# K2 M; e. G/ u: u
; d0 ^& \1 Q: u1 \◎译  名 职业枪手/職業鎗手(港)
( N3 g, A0 P% d, P! s) B" T' M◎片  名 Gli specialisti / Le Specialiste / The Specialists ) J0 ~7 ~! g+ B9 {
◎年  代 1969
1 M# A/ l' ^0 g& f. ]8 U, J9 b◎产  地 意大利/法国/西德
9 v- S# N/ w: L" I◎类  别 西部
) [4 h5 J" f6 D1 P! r7 t  m! N, f◎语  言 意大利语
. p+ S1 W% q2 I6 t: E◎上映日期 1969, H/ p; d8 m, l$ {5 e& k0 Q$ r
◎IMDb评分  6.3/10 from 755 users
/ O/ `8 e: k$ E: ?3 L◎IMDb链接  https://www.imdb.com/title/tt0065026/
' {3 C& y! P8 ~& L1 ]* z' I, _◎豆瓣评分 0/10 from 0 users% A6 m! t; Q, |" S5 q0 p, C- s$ T8 b
◎豆瓣链接 https://movie.douban.com/subject/5156643/
; c& h+ {" C( O4 C◎片  长 1 h 45 min
9 b0 N  T) a1 ^' w1 S4 m2 I: Y◎导  演 赛尔乔·科尔布奇 Sergio Corbucci
3 R) b/ j$ G7 _( X8 B◎编  剧 赛尔乔·科尔布奇 Sergio Corbucci; E. c. w& H7 {+ v( {
       Sabatino Ciuffini  \2 B; _  V2 p2 C
◎主  演 约翰尼·哈里戴 Johnny Hallyday
3 [  w" x! N) Q- F7 M/ l9 t& d% R! k       弗兰西丝·法比安 Françoise Fabian
/ m" m9 S2 L/ m" h       吉诺·佩尔尼切 Gino Pernice
% o* l. d- Z( ]5 [       Riccardo Pizzuti
  d3 x: P3 z  k& C: H6 ?9 r       雷纳托·平奇罗利 Renato Pinciroli
7 v2 [& x% h' x8 Z# X5 F' o% K       加斯通·莫辛 Gastone Moschin$ `- M5 H+ M7 W# ?5 E4 z
       贝里奇·蒙迪纳罗 Brizio Montinaro
( B4 c/ w4 e6 s7 J
  K  J, r; ^6 D◎标  签 西部 | SergioCorbucci | 1969 | 被忽视的片子 | 欧洲 | 意大利电影 | 意大利 | western1 r9 O% B# Y  r+ t
, e* O8 D) @1 M- t3 [; w1 z& ?
◎简  介  * s& t0 z  J! o8 p( J4 C8 a

) M- b. C7 q. U  一名戴着锁链的枪手试图了解据称被他的弟弟私刑偷走的钱的秘密,同时与一名和平主义治安官、一名诱人的银行家、一名独臂墨西哥土匪、腐败的商人和嬉皮士争斗。, [; z# l5 [3 L! ~7 H4 y

3 Y8 b7 |! l6 O  A chain mail-clad gunfighter contends with a pacifist sheriff, a seductive banker, a one-armed Mexican bandit, corrupt businessmen and hippies while trying to learn the secret of the money allegedly stolen by his lynched brother.- m" ~: V$ B! g3 M( H
Video
7 C: z, p' h) w6 y2 I  ~ID                                       : 12 [0 b# n1 U) \. `3 e1 v( v
Format                                   : AVC6 I! h! @3 F+ {9 ?5 E" v6 p6 Q
Format/Info                              : Advanced Video Codec, ?: k* R1 y: P+ \' h% j
Format profile                           : High@L4.12 b: r) S& \: O. D! |+ n6 `
Format settings                          : CABAC / 4 Ref Frames) Q. F% d. a' i) w( [
Format settings, CABAC                   : Yes, I- j0 u) [4 B' m2 Y# o% }8 I' y
Format settings, Reference frames        : 4 frames
! P8 f  q- [( w9 o. `4 zCodec ID                                 : V_MPEG4/ISO/AVC( m! n( E  e6 B
Duration                                 : 1 h 44 min
' C& }% n3 u' c* E4 g5 ^1 q1 @Bit rate                                 : 11.5 Mb/s! v4 U% z# O3 v
Width                                    : 1 920 pixels& V( Z2 P3 h: W: G
Height                                   : 816 pixels
& p7 B7 b' }/ |/ M' }6 jDisplay aspect ratio                     : 2.35:1
8 p7 n- {$ J3 Z5 H/ r- ]0 WFrame rate mode                          : Constant2 R3 R7 E9 n4 U. s+ U- Q
Frame rate                               : 24.000 FPS" o8 ?' ]/ g/ o# r0 R+ }0 Y
Color space                              : YUV" U  m. `/ {+ Y4 M- Z
Chroma subsampling                       : 4:2:00 u% r/ I1 a+ h5 j# F
Bit depth                                : 8 bits: x- r. j. L8 `
Scan type                                : Progressive
; S4 y& E( v6 y& s/ U0 ZBits/(Pixel*Frame)                       : 0.306
! T% j( X3 B3 J2 nStream size                              : 8.39 GiB (88%)
( W! k2 q  B5 L9 _Title                                    : The.Specialists.1969.ITALIAN.1080p.BluRayCD.x264.DTS-FGT
& ], y* W9 f6 Z- Y( VWriting library                          : x264 core 148 r2748 97eaef2
* g; p  v5 |  E3 MEncoding settings                        : cabac=1 / ref=4 / deblock=1:-2:-2 / analyse=0x3:0x113 / me=umh / subme=9 / psy=1 / psy_rd=1.00:0.15 / mixed_ref=1 / me_range=16 / chroma_me=1 / trellis=2 / 8x8dct=1 / cqm=0 / deadzone=21,11 / fast_pskip=1 / chroma_qp_offset=-3 / threads=24 / lookahead_threads=3 / sliced_threads=0 / nr=0 / decimate=1 / interlaced=0 / bluray_compat=0 / constrained_intra=0 / bframes=3 / b_pyramid=2 / b_adapt=1 / b_bias=0 / direct=3 / weightb=1 / open_gop=0 / weightp=2 / keyint=250 / keyint_min=25 / scenecut=40 / intra_refresh=0 / rc_lookahead=50 / rc=2pass / mbtree=1 / bitrate=11500 / ratetol=1.0 / qcomp=0.60 / qpmin=0 / qpmax=69 / qpstep=4 / cplxblur=20.0 / qblur=0.5 / vbv_maxrate=31250 / vbv_bufsize=31250 / nal_hrd=none / filler=0 / ip_ratio=1.40 / aq=1:1.006 L0 s6 B, l8 W, [0 \: c
Language                                 : Italian5 N, h7 W8 S1 _
Default                                  : Yes
; _. a1 f( h: ], Y  _, bForced                                   : No6 R2 k& w( F* ~4 ^* }" z

) ?- B  S$ _9 y. e! F+ mAudio( g% a* ~% F" N/ O6 h( s, Q: e# k
ID                                       : 2
& X0 ?) H' z; X( [3 ^* LFormat                                   : DTS2 ?, P) a2 Q( l
Format/Info                              : Digital Theater Systems6 _/ O/ ]  @. X5 f' s
Codec ID                                 : A_DTS
2 Q! c  O1 _& b3 {, b. d% R+ fDuration                                 : 1 h 44 min. z1 F/ A  P! }# m
Bit rate mode                            : Constant- Q' L" B! x0 ^5 y& E* T/ t/ u
Bit rate                                 : 1 509 kb/s7 S" B0 C$ m" |  g: j$ g% P
Channel(s)                               : 2 channels. N: ~7 w: Y  w  H4 k: l) Y) O
Channel layout                           : L R
+ P- l7 d' T. m, r/ BSampling rate                            : 48.0 kHz
) g6 S1 ]8 @, U( Z" P! K% EFrame rate                               : 93.750 FPS (512 SPF)  L  `* y! k) l  v
Bit depth                                : 16 bits
; M# s; J) Q' b" y- B* r+ ICompression mode                         : Lossy7 Q' L$ D0 a$ Y, o) X
Stream size                              : 1.10 GiB (12%)* g# }; l/ r7 s1 n5 f/ K9 n
Title                                    : The.Specialists.1969.ITALIAN.1080p.BluRaycd.x264.DTS-FGT
& [6 {9 i, N4 h$ @3 ^Language                                 : Italian5 q# \- _  Q3 k0 @8 y% o
Default                                  : Yes
* j/ n5 a9 S8 M0 W$ B/ `+ |* @Forced                                   : No' I  `& @+ g+ i% w: g6 W8 |) f- F
! \& ^' ^" \4 G  h6 H  V* z; y; p
Text: ]" T$ u) t# A
ID                                       : 30 a$ c! x6 ~. W! m) L
Format                                   : UTF-8; d+ t7 R5 i; i! D, l- M5 ~
Codec ID                                 : S_TEXT/UTF8$ {: A, X. s+ w4 n8 ^; L7 V
Codec ID/Info                            : UTF-8 Plain Text
. j( Z% _' o1 [Duration                                 : 1 h 39 min
7 e  F! E. T/ ?+ WBit rate                                 : 43 b/s- \( \( J1 u! k. L# s. O3 S
Count of elements                        : 1263
, E' D' m& a. YStream size                              : 31.4 KiB (0%)* n6 F6 ]% n# N: I2 z# [5 k
Language                                 : English
  k6 b: E/ F' @/ M9 x2 i+ b% X+ UDefault                                  : Yes
! G+ I3 ~% C/ H  I& aForced                                   : No
6 q* h) M$ o! P0 q0 E
0 A/ k  R' }9 A) T, v+ [4 FMenu$ C+ ]2 h- _  I  L# ?7 J
00:00:00.000                             : en:Chapter 1
5 R1 A! u) V& x. f" w- F9 J00:08:25.332                             : en:Chapter 2
2 F' ?  Y, ^9 {, {00:16:35.125                             : en:Chapter 3
' K8 D3 H0 c# h. {; e. v2 ~00:23:51.458                             : en:Chapter 4
9 j; A; N: T6 x8 c5 {1 |00:31:20.415                             : en:Chapter 5
! V" x- I* P$ ?  q2 {00:42:01.625                             : en:Chapter 6
* Y- {0 X( p/ a' h4 g( K+ I00:53:36.458                             : en:Chapter 7
9 q% E% ?9 q7 R6 L/ x' Q/ Z01:01:30.958                             : en:Chapter 8) E! S) o( X4 m. I
01:09:36.582                             : en:Chapter 9
: n: E+ ?% u! D% d, ]. A: |01:17:17.166                             : en:Chapter 10
3 S7 p" j2 f, T3 r1 q/ E( i' A01:25:27.916                             : en:Chapter 11
& Y! f5 J' o# b, Z8 X$ U* q+ P01:34:18.457                             : en:Chapter 12

4 j9 h6 ^5 h2 i# W- @: J
! n2 @4 I7 H3 j. ^! F/ E+ o
Video3 s  {9 G1 b- I. }* I
ID                                       : 1
9 o! U: ]$ n- fFormat                                   : AVC
! r0 A( t: g' b  _9 |4 ~Format/Info                              : Advanced Video Codec/ T! N- @5 l! v
Format profile                           : High@L4.1
. y/ l8 e" {0 X7 }5 YFormat settings                          : CABAC / 5 Ref Frames9 S! c! T% g  o2 Y
Format settings, CABAC                   : Yes% s3 Y* t/ H/ l* _2 Q8 R/ ~
Format settings, Reference frames        : 5 frames+ K$ j) d$ l& |5 e. X
Codec ID                                 : V_MPEG4/ISO/AVC
& c4 ?2 H* W6 g+ g5 X. p' Z# ADuration                                 : 1 h 45 min. Q+ [2 L8 J& f% s' A/ v7 Y9 |
Bit rate                                 : 18.8 Mb/s
" d0 x/ T! a1 v5 _Width                                    : 1 920 pixels
% j9 B0 Q# x3 M6 e$ zHeight                                   : 816 pixels& R, }! x) V' M
Display aspect ratio                     : 2.35:1
* |6 ?1 N$ G! P6 pFrame rate mode                          : Constant  ]5 B* Y% x) @7 B
Frame rate                               : 23.976 (24000/1001/37687) FPS
  V1 w+ i: d; h$ I, v3 Z! D. zColor space                              : YUV
+ q+ r  U( b  O1 U7 v, JChroma subsampling                       : 4:2:0! ^+ ~& W! E! V) S) ]6 ^+ G2 Z- a2 b
Bit depth                                : 8 bits0 T; j: z  i% O* D1 ?9 G/ N, Y
Scan type                                : Progressive
+ ~8 c. ^$ s* J$ @Bits/(Pixel*Frame)                       : 0.500
8 Y. \9 i0 A. E! G9 G" D% C" Z' GStream size                              : 13.8 GiB (92%)
! n1 t) d  Z3 t& `# u0 {- rWriting library                          : x264 core 160 r3000 33f9e14% P+ U! p  v1 J1 C" I
Encoding settings                        : cabac=1 / ref=5 / deblock=1:-3:-3 / analyse=0x3:0x133 / me=umh / subme=10 / psy=1 / psy_rd=1.20:0.00 / mixed_ref=1 / me_range=24 / chroma_me=1 / trellis=2 / 8x8dct=1 / cqm=0 / deadzone=21,11 / fast_pskip=0 / chroma_qp_offset=-2 / threads=24 / lookahead_threads=4 / sliced_threads=0 / nr=0 / decimate=0 / interlaced=0 / bluray_compat=0 / constrained_intra=0 / bframes=8 / b_pyramid=2 / b_adapt=2 / b_bias=0 / direct=3 / weightb=1 / open_gop=0 / weightp=2 / keyint=250 / keyint_min=23 / scenecut=40 / intra_refresh=0 / rc=crf / mbtree=0 / crf=16.0 / qcomp=0.60 / qpmin=0 / qpmax=69 / qpstep=4 / ip_ratio=1.40 / pb_ratio=1.30 / aq=3:0.90! s4 H5 r* Q6 o2 F) Y: I+ K
Default                                  : Yes2 [/ H/ J! L# h1 i
Forced                                   : No8 w( _# N+ a  \
Color range                              : Limited' `7 j- m) w" x
Matrix coefficients                      : BT.709
! r. n- k$ H8 ]5 H% G- r0 s1 w, IAudio #15 x" M- U! A: Z
ID                                       : 2* m( _) T5 O9 Q& b9 g, O
Format                                   : FLAC
7 F7 B! F- H# ^# Y1 zFormat/Info                              : Free Lossless Audio Codec& w* i" k8 F' Q; b: N  e
Codec ID                                 : A_FLAC
1 K2 O6 ]% b: p9 j4 o4 S  \Duration                                 : 1 h 45 min) I# I" h2 m' d0 G4 Z
Bit rate mode                            : Variable: ~8 O* x- {- l1 m0 f$ u" d
Bit rate                                 : 880 kb/s
+ y! n; X! r! M! A; ~, Q& g- v* W& rChannel(s)                               : 2 channels
  k3 K9 p. k% OChannel layout                           : L R' o% l8 ~4 Z% Y
Sampling rate                            : 48.0 kHz+ T4 c2 Y' E7 e" _; ~
Frame rate                               : 11.719 FPS (4096 SPF)
8 E7 c5 \& i9 Y% s/ a, aBit depth                                : 24 bits6 T2 e6 d+ V6 k, P  w6 N
Compression mode                         : Lossless* C) I8 a" J2 p" a2 Q: ^2 V; M- y- [
Stream size                              : 662 MiB (4%)
2 P; W; p# i" UWriting library                          : libFLAC 1.3.2 (UTC 2017-01-01)
( ^# K& f% [' [Language                                 : English9 }$ V1 p1 o% W$ V7 D
Default                                  : No
0 h' r" V2 t# O; `! [# c% Y( ZForced                                   : No
: G$ r) Z: d, Q5 MAudio #2
) ?9 o/ t  j  V) Z9 r$ {ID                                       : 3
, e9 B: x- ?! p7 _: U* Z8 ^Format                                   : FLAC
& f) G' e; L, p2 q1 j% r1 i' BFormat/Info                              : Free Lossless Audio Codec
# C6 A: g6 Q) \; ICodec ID                                 : A_FLAC9 J$ s% Z' r0 l0 }% n
Duration                                 : 1 h 45 min$ ?# a. y) N0 i) |; q: |
Bit rate mode                            : Variable
2 U/ \. U1 ]( u6 g1 C' Z0 F% I# bBit rate                                 : 567 kb/s( _5 M0 N+ w$ m0 i* q
Channel(s)                               : 2 channels2 b7 B" E0 R; W7 |  b
Channel layout                           : L R( d/ s5 g" m0 p- [2 J
Sampling rate                            : 48.0 kHz
7 p7 M& m6 y" [) HFrame rate                               : 11.719 FPS (4096 SPF)1 }; l8 z; b- Y3 |) d& C/ h/ C
Bit depth                                : 24 bits7 o$ {3 A7 ~" U$ j7 O" P# a: X
Compression mode                         : Lossless+ A8 q4 x* H, j2 E
Stream size                              : 427 MiB (3%)
0 t& C$ B$ H; X, o( p- qWriting library                          : libFLAC 1.3.2 (UTC 2017-01-01)# \& Z% U6 o7 v3 p$ n
Language                                 : Italian6 l8 y+ D! P$ [
Default                                  : Yes3 x, f+ P# a! B* U6 ?' v3 D
Forced                                   : No0 y9 v, @% ^+ ]$ S3 \* m
Audio #3
5 T  f  G1 p6 b4 s5 ^( ]# Z0 mID                                       : 4
8 j" o; a1 @; R- q. \Format                                   : AAC LC6 w/ x% f$ z. a; J! m2 T% ~
Format/Info                              : Advanced Audio Codec Low Complexity8 ]1 m2 h& ^* b6 y7 s
Codec ID                                 : A_AAC-2; O) `+ I0 Z9 Q
Duration                                 : 1 h 45 min: Q0 T$ }- r6 [# s& G( \
Bit rate                                 : 116 kb/s
. `/ a# f, i' v( `% t% H  xChannel(s)                               : 2 channels
3 {0 r8 t+ m% ?$ V6 D3 P5 z# v' YChannel layout                           : L R
0 Q6 E. T. _5 X) `7 ZSampling rate                            : 48.0 kHz. K% R2 x8 F$ C1 _2 u7 M4 h7 T
Frame rate                               : 46.875 FPS (1024 SPF)8 v( K9 f* _5 B& @8 g
Compression mode                         : Lossy. T5 Y7 }: I0 a4 L/ {  l& n. V- A
Delay relative to video                  : 20 ms
& q! I" ]: z3 l# i/ K" RStream size                              : 87.5 MiB (1%)1 y( V0 @" z! O/ Q) [! h7 i
Title                                    : Commentary
: N, \6 d" L) L% Z" iLanguage                                 : English! E' d2 v1 f! t' _3 q
Default                                  : No. P- v" `" Z* a, G4 S
Forced                                   : No
/ C3 k1 r% m  e5 p* |8 OText #18 E8 A7 ~, d  z  B
ID                                       : 5, y* z1 n3 v# I1 S
Format                                   : UTF-8
( E9 \& y" Y; u+ {8 ]  e5 gCodec ID                                 : S_TEXT/UTF8( v0 r$ k2 _; W3 x7 t
Codec ID/Info                            : UTF-8 Plain Text
; {& l3 ?# ?9 r( l# ?Duration                                 : 1 h 44 min9 ^' c; e! d, ?! x
Bit rate                                 : 41 b/s
# m  m- \: I7 |* P6 F6 d; O2 x$ mCount of elements                        : 1273
" ^; \8 P8 @; S5 v  ^3 G& v6 tStream size                              : 32.0 KiB (0%)
! n* s& \$ o6 J! TTitle                                    : English (Forced). K$ f" j1 P  d4 S2 R  N9 ~. B7 @
Language                                 : English
+ U* N- Z9 g6 p; t9 O7 mDefault                                  : Yes
, S# P) x+ t) XForced                                   : Yes: ]9 ^- H4 U; E; D1 }  m
Text #25 u( {0 Q1 q9 M# R) P. [
ID                                       : 6- I  D4 G! f9 t3 U, Z% W
Format                                   : UTF-81 i: Q# A0 a# Z9 Q+ W$ Y% I  v
Codec ID                                 : S_TEXT/UTF8: E: ^" k/ X5 R+ T" M, b' n/ H* z& h
Codec ID/Info                            : UTF-8 Plain Text6 Z0 i$ W' Y2 E( [' B3 F7 M
Duration                                 : 1 h 44 min
# K* d; |; P- r; tBit rate                                 : 12 b/s# |+ b4 [% m( V& a
Count of elements                        : 365
6 ]; f3 s6 D2 s. yStream size                              : 9.50 KiB (0%)
" l1 V3 X9 s/ e8 v6 DTitle                                    : English (Forced)4 M! g/ i$ Q+ c9 M
Language                                 : English9 H8 x; s& B1 H! k) v6 Q
Default                                  : No; ~  u' d/ s9 m
Forced                                   : No/ w. I5 ~: h9 T2 e8 y2 q$ p! d
Text #3
3 P$ w. M( A9 }: j! hID                                       : 7! J0 l$ G2 p) h$ d
Format                                   : PGS. G, O+ ?- R& x! l& c* A. B" ?
Muxing mode                              : zlib
0 W) j& u! y9 F' s- W# {9 b) sCodec ID                                 : S_HDMV/PGS' G) P  p1 ^- K2 U2 b% t5 d
Codec ID/Info                            : Picture based subtitle format used on BDs/HD-DVDs6 A2 R/ [0 u# d" u; k
Duration                                 : 1 h 44 min
! ]: N8 X; M) q3 g! N5 O0 d4 DBit rate                                 : 31.2 kb/s
+ M, i, w% J& ~0 q+ cCount of elements                        : 2546
; I5 V8 F6 y- Y) I3 T! x2 eStream size                              : 23.2 MiB (0%)
! D, a& ^4 o+ q% B/ d4 ?9 U9 dLanguage                                 : English' k0 {, a! L) D( }: m
Default                                  : No
8 O$ m/ K5 f6 b" Y' ~) L& G9 IForced                                   : No( h$ L: B& ~; q. Z
Text #4
. T( I) `5 h+ }3 m' u, Z0 ]ID                                       : 8
+ N0 ]3 X1 L1 \- _Format                                   : PGS
! R- ?1 n* m: n5 R7 RMuxing mode                              : zlib5 ^0 `, }! V6 C$ q2 W
Codec ID                                 : S_HDMV/PGS% L3 `1 d/ D1 D# W# H6 {0 w+ m3 @
Codec ID/Info                            : Picture based subtitle format used on BDs/HD-DVDs
2 t+ W" s) T) x0 u4 {8 dDuration                                 : 1 h 44 min
9 G- o; e+ q8 G1 xBit rate                                 : 9 184 b/s
( j& e' D* F" ^' JCount of elements                        : 730# X! y* Q7 e" u
Stream size                              : 6.84 MiB (0%)
  W# V  v% f; N) D$ nLanguage                                 : English
! v) G  O) r7 P- n0 p! fDefault                                  : No
7 [4 P: \: r' P( f0 fForced                                   : No& @7 x3 L# n0 A9 H
Menu& s! h& B& A2 p1 J, e/ s( x2 ?4 w9 l
00:00:00.000                             : en:Chapter 01' m2 a5 B5 E1 h* i# ~
00:11:55.173                             : en:Chapter 02
5 |2 b. Z# h6 W! `- s3 g0 R( D00:23:52.723                             : en:Chapter 03$ O. E$ [% v6 x4 w. [
00:31:22.089                             : en:Chapter 04
1 l& m# q9 I9 r6 T% \0 e00:42:02.729                             : en:Chapter 05
  n# H+ c; A# p# F00:53:39.466                             : en:Chapter 065 @; Z+ U2 l" J) u, d# Y6 U* e! Z; w
01:05:54.909                             : en:Chapter 07
: T: x0 ?$ w+ f01:17:21.595                             : en:Chapter 08
; M. g+ C8 U* @) H3 P01:28:38.230                             : en:Chapter 09
. D+ `+ \) o9 \5 `5 S) C( d  u01:35:17.670                             : en:Chapter 10
( c% }4 C! }2 |' }8 f+ B6 d9 Q: a+ L* B2 ^% Z' s8 J3 H- Z8 g7 r
The.Specialists.1969.1080p.BluRaycd.x264-GHOULS
  x+ M( j1 |0 s2 L  F
( B; P1 D# j& a1 U2 l" H1 H) yRating..: 6.3/10 from 671 users& T. q4 M6 s8 D% b0 i
Genre...: Western
9 L* c' S7 x# _URL.....: https://www.imdb.com/title/tt00650266 C: X: A& x, }

& m) ^! k( ]! u: d. P8 V- ~Duration...: 1 h 45 min* T0 B5 {" o* }$ g# p9 M
Video......: x264 @ CRF 16 (18763 Kbps)$ t! Y$ q1 o" A1 a% T0 r) Q
Source.....: 34866 Kbps
4 {3 d% ]9 |7 G- a! G2 lLanguage...: English 2ch, Italian 2ch
# I  k: y- A7 `; RAudio......: FLAC 880 Kbps / 567 Kbps! l: r/ O3 q' {1 a+ Z
Resolution.: 1920x8162 g, f9 [, e0 \" T
Frame Rate.: 23.976 fps
4 a2 w2 a$ H$ F2 ]% r( T2 A; ]Subs.......: English
9 H  \- q2 p' b) `! q& RSize.......: 14.9 GB
2 J. U! G; D# V5 r, ~5 n/ dNotes......: Commentary included.
- g4 }7 U) V6 _. _!vcc

7 G1 G, e* @  p5 z1 l0 t1 b( @
游客,查看本帖隐藏内容请回复 | 加入VIP贵宾组可免积分免回复下载 了解详情 | 还不是会员:点击获取邀请码 Invitation Code

3

主题

81

帖子

370

积分

Sponsor

金币
36 枚
体力
164 点
2360090999 发表于 2020-9-27 22:50:26 | 显示全部楼层
职业枪手很好看
又有新片了 ...

本版积分规则

小黑屋|Archiver|蓝光电影资源网

GMT+8, 2020-10-21 07:22

快速回复 返回顶部 返回列表