BluRayCD Forum

 找回密码
 立即注册【分享大片】

QQ登录

只需一步,快速开始

查看: 37|回复: 2
收起左侧

[剧情悬疑] 陌生人的慰藉/迷情杀机/陌生人的安慰 The Comfort of Strangers 1990 1080p BluRay x264-PSYCHD 7.94GB

[复制链接]

503

主题

884

帖子

9311

积分

VIP advanced

金币
1146 枚
体力
4333 点

卓越贡献勋章诚信会员勋章签到达人勋章

ytweb 发表于 2020-9-22 22:23:34 | 显示全部楼层 |阅读模式
8 c5 ?/ P3 @) f/ k8 Y
3 D1 }( ^  R; H; e3 T- }
◎译  名 陌生人的慰藉/迷情杀机/陌生人的安慰
1 a/ u) _' ~3 E; K, H! q# t◎片  名 The Comfort of Strangers
3 b$ T% h; v6 e$ Q2 U◎年  代 1990
+ I+ o# a: B( y' y* R◎产  地 美国 / 意大利 / 英国
) c% p2 k8 ^/ _& f4 U& n◎类  别 剧情 / 惊悚
! Z9 _& y/ `2 L* j- ~/ e◎语  言 英语* |' f4 r  O" e& R0 L* ~7 `
◎上映日期 1990-11-01* l6 N' r; \' L& I* I
◎IMDb评分  6.3/10 from 4,503 users2 ~' p# o- Q8 y5 {) I# Z
◎IMDb链接  https://www.imdb.com/title/tt00992920 ^. u% {: d1 u* q  m3 V8 B
◎豆瓣评分 6.5/10 from 396 users
" R' I( i7 X$ a& n/ `; M. P◎豆瓣链接 https://movie.douban.com/subject/1303595/! }2 v/ A* R! |% l7 t3 ^1 A
◎片  长 1 h 44 min
, M% O, `. f: r6 Z◎导  演 保罗·施拉德 Paul Schrader
/ |4 A5 H! F- C◎编  剧 哈罗德·品特 Harold Pinter / 伊恩·麦克尤恩 Ian McEwan
9 K8 Q4 c+ E: v9 `3 ^- Q◎主  演 鲁伯特·艾弗雷特 Rupert Everett' `4 J! Q9 B* K- i+ [
       娜塔莎·理查德森 Natasha Richardson0 {3 h- V( t8 \+ }5 A
       海伦·米伦 Helen Mirren6 M( `& \: z1 g7 [. U
       克里斯托弗·沃肯 Christopher Walken
4 a5 v8 ]# K" w- y. c& V6 Q       安东尼奥·萨拉诺 Antonio Serrano
# u2 S0 k' A. d$ F; J, J       Giancarlo Previati
  J: \+ f# x; i4 U6 Z) D5 J" m' u       Daniel Franco
" i2 c* B7 R" [       Manfredi Aliquo
) q9 C5 Q3 M! y. Q8 O
1 x& c0 c/ o+ D◎标  签 英国 | 意大利 | RupertEverett | 1990 | 美国 | 惊悚 | 剧情 | 海伦·米伦
0 w, V7 W5 u+ B" A
' G  v* F0 A% E- g" M1 h◎简  介 6 B  e7 c, n1 }, M5 Z; A8 S

8 a! R3 Q2 ^# v& O1 Y9 @& G8 ?  情感关系已陷入僵局的科林(鲁伯特•艾弗雷特 Rupert Everett 饰)与玛丽(娜塔莎•理查德森 Natasha Richardson 饰),来到威尼斯度假,试图使他们慵懒无趣的生活有所改观。9 z1 L6 U; P: `* A
  一夜,他们邂逅了当地的罗伯特先生(克里斯托弗•沃肯 Christopher Walken 饰),他向这对陌生的恋人自揭童年的伤痕,并宣扬极端的男权主义。科林与玛丽感受到了某种难以名状的威胁,但对平淡生活的厌倦与追求刺激的心理,让他们不由自主地接受了罗伯特的邀请来到他家中。罗伯特的妻子卡洛琳(海伦•米伦 Helen Mirren 饰)向玛丽诉说着她与罗伯特复杂的虐恋关系,令玛丽的心理产生了一些暧昧的转变,加上这种不安的刺激,竟奇妙地重燃起她与科林之间久已熄灭的爱欲之火。1 f6 R4 _% i! ^" F9 d$ C
  于是,与罗伯特夫妇再度相遇后,科林与玛丽不可自控地紧随而去,即便他们知道自己有可能会成为这段畸恋的祭品……2 Y9 m: U2 R+ Y8 b0 Z$ Q, n
  本片改编自英国小说家伊恩•迈克温的同名作品,由“新好莱坞”主将(作为马丁•斯科塞斯的金牌编剧而闻名于世)保罗•施拉德执导。
, X9 G+ b8 ?6 R4 O5 T
Video
" n! {! o/ [' h7 B- G3 vID : 1" F* M$ m' K2 d% D/ E9 `& C
Format : AVC6 ?0 }8 E& q% e1 B* L9 I" P7 b# N
Format/Info : Advanced Video Codec
/ N* C1 Z3 E6 W! y) qFormat profile : High@L4.1
7 @( A& D& P0 _# U- uFormat settings : CABAC / 4 Ref Frames" ~. f2 S+ d. g! v; c0 n& V6 v
Format settings, CABAC : Yes( Q' K. X. E6 h
Format settings, Reference frames : 4 frames
" K! j8 S; {  K; ]Codec ID : V_MPEG4/ISO/AVC1 ]( N; Q3 `7 ?1 t
Duration : 1 h 44 min* }8 |* u) H; R1 S3 i5 l' O
Bit rate : 10.1 Mb/s
; L$ m$ i" W: {Width : 1 920 pixels
# t( \7 \1 w5 Z8 N' h# o; }' ^Height : 1 040 pixels0 o: d8 x  u; d0 R2 J( M
Display aspect ratio : 1.85:1
( K" e7 A+ r5 r# m' JFrame rate mode : Constant
) e2 l$ F2 Z/ i# MFrame rate : 23.976 (24000/1001/189150) FPS; M: n3 J/ l2 K+ z3 @% i
Color space : YUV, k, u# E5 N( k8 p3 e
Chroma subsampling : 4:2:0  `( Z4 `; y1 H6 r2 {- F
Bit depth : 8 bits
6 E. k9 t* a4 H! SScan type : Progressive% F$ |( m2 @8 t8 n5 s, F
Bits/(Pixel*Frame) : 0.211" ~$ [0 B# ^) |- k
Stream size : 7.22 GiB (91%)
' [! A, f3 z0 [' B5 n9 C) ZWriting library : x264 core 146 r2538 121396c
" @' t& R5 _" `+ OEncoding settings : cabac=1 / ref=4 / deblock=1:-3:-3 / analyse=0x3:0x113 / me=umh / subme=8 / psy=1 / psy_rd=1.00:0.00 / mixed_ref=1 / me_range=16 / chroma_me=1 / trellis=1 / 8x8dct=1 / cqm=0 / deadzone=21,11 / fast_pskip=0 / chroma_qp_offset=-2 / threads=18 / lookahead_threads=3 / sliced_threads=0 / nr=0 / decimate=1 / interlaced=0 / bluray_compat=0 / constrained_intra=0 / bframes=3 / b_pyramid=2 / b_adapt=2 / b_bias=0 / direct=3 / weightb=1 / open_gop=0 / weightp=2 / keyint=240 / keyint_min=24 / scenecut=40 / intra_refresh=0 / rc_lookahead=50 / rc=2pass / mbtree=1 / bitrate=10100 / ratetol=1.0 / qcomp=0.60 / qpmin=0 / qpmax=69 / qpstep=4 / cplxblur=20.0 / qblur=0.5 / ip_ratio=1.40 / aq=1:1.00, j" O, _4 y7 a/ }! N) J
Language : English% d* n! E4 ^& e4 V- v
Default : Yes& n+ A/ y  i8 ?0 I5 T- Q; }! \
Forced : No. a" S6 T- g% _3 \  Q

/ D$ v! Y8 z0 R7 ]4 F: @Audio
) y+ f" q( a  tID : 2+ t, k/ w$ N# U
Format : DTS, }: |5 G" Y6 v0 a- S! R
Format/Info : Digital Theater Systems
6 e+ {) O; [; D6 b# }' j* p" T4 JCodec ID : A_DTS
6 A& e4 N/ Q4 A. IDuration : 1 h 44 min) d; x# w8 |. m8 X2 q
Bit rate mode : Constant
# C& g( B0 R' I+ U1 ]$ s1 y5 N4 w; IBit rate : 768 kb/s/ U* d5 E6 ]7 V3 L
Channel(s) : 2 channels
( S4 H- b/ a4 |! G% I: cChannel layout : L R
/ I  C2 a6 c% m1 e: ESampling rate : 48.0 kHz
! D7 L3 |9 v4 L$ t0 n4 i1 x5 bFrame rate : 93.750 FPS (512 SPF)
7 M4 _, H4 E1 C2 dBit depth : 24 bits
6 g+ k4 Q$ A' f( ~) U7 b3 VCompression mode : Lossy$ t# J7 ?' S/ N3 h( N1 c( ~" j
Stream size : 575 MiB (7%)* W; l3 O  n- v
Language : English
, }( }. H) r) B/ h. lDefault : Yes) a$ c8 d1 U) `7 o6 v6 a
Forced : No9 ~* X6 m7 c* c+ m- r( R0 _* n

) O  N8 f# i. z, l' CText #1
4 @$ R- J* W, yID : 32 V( q3 k9 s. y  S* W1 L
Format : UTF-8
4 c2 h/ B) z7 O6 MCodec ID : S_TEXT/UTF8
5 l% K3 E5 V1 e+ z4 ~' FCodec ID/Info : UTF-8 Plain Text' t: S/ G$ m! P0 i! v
Language : English
4 b: o9 t# {/ R  j! k5 S$ t# N, `Default : No
* K# w# H( T/ o1 UForced : No
, h! R6 g! T5 t  b6 M& N
6 K# ], j% e- P9 J# qText #25 Q# t8 i$ W7 ]: d+ [+ t  y
ID : 4) K1 ?* c( ?- S8 ?4 M
Format : UTF-83 c+ V3 ]6 W( k8 z' w; c
Codec ID : S_TEXT/UTF82 O, [" M! N$ i6 H' e* s, i1 T
Codec ID/Info : UTF-8 Plain Text
/ ]2 y7 D# \; s! D) O: yTitle : SDH! Y. V1 v" X' {6 R( a( |  h3 t
Language : English
* d) {8 l+ C9 E1 f5 bDefault : No
& Z' u- e; u9 s, JForced : No' @- j0 t9 Z5 F/ ?

1 L/ l9 K- M  b) @+ K! F; h; F% CMenu
0 @; F2 T, ^1 q9 {% K1 K" v; K4 r00:00:00.000 : en:00:00:00.000
1 M& O3 j" \+ C" Q% q1 A00:09:17.098 : en:00:09:17.098
6 R, u1 t5 c+ E' u7 G* I2 p3 n! `1 O00:17:06.025 : en:00:17:06.0257 y! B+ y$ p6 d5 l: e' q: S
00:25:10.759 : en:00:25:10.759
8 z& [  S% J9 x2 `' y# I4 ?00:35:52.609 : en:00:35:52.609+ v: G5 ]% C& |, W9 }1 K9 O! g
00:43:30.191 : en:00:43:30.191
3 u( k* k( N: E: O- }9 N* [00:52:54.922 : en:00:52:54.922" D% ]0 S* B% D+ l' M. T8 f
01:00:55.068 : en:01:00:55.068* u: A# j9 ~: Q8 ^$ c
01:10:25.930 : en:01:10:25.930
0 [5 O6 d( W: z' }- B01:17:55.546 : en:01:17:55.546
; o: Z( K) L) B9 R$ Q$ ?2 G01:26:14.378 : en:01:26:14.378
. v+ f: ^7 Z7 {  S! q01:33:20.845 : en:01:33:20.845

: F  ]% A, B$ ?6 c
游客,查看本帖隐藏内容请回复 | 加入VIP贵宾组可免积分免回复下载 了解详情 | 还不是会员:点击获取邀请码 Invitation Code
做人厚道些吧!我想还是好的……就是爱看美女的回复下 ...

2

主题

481

帖子

2188

积分

Sponsor

金币
0 枚
体力
1103 点
myg0123 发表于 2020-9-25 08:55:12 | 显示全部楼层
感谢楼主无私分享
蓝光论坛里 ...

19

主题

1318

帖子

7072

积分

Sponsor

金币
941 枚
体力
3512 点
QQ
shiji1973 发表于 2020-9-28 09:15:15 | 显示全部楼层
感谢分享精彩电影

本版积分规则

小黑屋|Archiver|蓝光电影资源网

GMT+8, 2020-10-26 15:14

快速回复 返回顶部 返回列表