BluRayCD Forum

 找回密码
 立即注册【分享大片】
查看: 358|回复: 2
收起左侧

[剧情悬疑] 被投石处死的索拉雅·M The Stoning of Soraya M 2008 1080p BluRaycd x264 DD5.1-FGT 7.94GB

[复制链接]

5280

主题

222

回帖

4万

积分

Forum Admin

金币
247 枚
体力
18086 点

最高荣誉勋章

kmvodys 发表于 2010-9-22 03:24:17 | 显示全部楼层 |阅读模式
01.jpg " d- m9 L$ [, p4 Q5 y7 U
0 D, ~5 s; e. p
◎译  名 被投石处死的索拉雅·M4 n7 ]2 s( f" o. E
◎片  名 The Stoning of Soraya M.
1 @& h" W, U$ D; p+ m( _◎年  代 2008- N* \9 T! Z4 c) L0 M
◎产  地 美国
. ?. e* o& l' i! F◎类  别 剧情/犯罪
3 a! ]5 B1 o% ^  G◎语  言 波斯语/英语. H$ T0 c  Z2 P6 W! d8 s
◎上映日期 2008-06-26(美国)
( g+ H$ A4 P( Y; s◎IMDb评分  8.0/10 from 20,887 users
! `$ [8 |3 ^$ Q5 ^9 N; I% Q- y+ o◎IMDb链接  https://www.imdb.com/title/tt1277737/+ s1 {5 L4 k) b' }
◎豆瓣评分 8.3/10 from 4,278 users
+ P" Z  Q; `, F0 ^! \9 L◎豆瓣链接 https://movie.douban.com/subject/3263472/6 s7 X) w0 z& u- N0 m" N8 |
◎片  长 1 h 54 min
* z9 B9 ?" @3 E2 @+ r◎导  演 赛勒斯·诺拉斯特 Cyrus Nowrasteh' D* W7 s  ]' }5 t
◎编  剧 贝特西·吉芬·诺拉斯特 Betsy Giffen Nowrasteh
; R. C/ p: f0 m% T2 M+ K9 R       赛勒斯·诺拉斯特 Cyrus Nowrasteh
1 v8 L6 U  G- e% J◎主  演 吉姆·卡维泽 Jim Caviezel7 |. b" n' s- h
       莫赞·玛诺 Mozhan Marnò2 J+ V, d8 D! [
       索瑞·安达斯鲁 Shohreh Aghdashloo
% g  Z, r" j8 F% z2 v! v: x: r       Parviz Sayyad
4 k% L6 U4 I6 K9 K6 A/ j  n3 `# y: Y       David Diaan
7 |  w; m1 E; `) a& O8 k/ |8 x6 J* d
◎标  签 伊朗 | 人性 | 女权 | 中东 | 美国 | 剧情 | 宗教 | 美国电影
. Z% i  v, V# Y
( {: H# H! }9 O) `* i◎简  介   5 `$ Z0 {$ b# \. U+ ^

+ s# S. i* @/ A. \5 O  影片改编于真实的故事,1994年一位记者首次将一个被错误判了通奸罪的索拉雅投石处死的详细资料公布于世。曾获奥斯卡提名的美国女演员索瑞·安达斯鲁扮演被处死者的好友,她冒着巨大的风险让世人知道自己朋友索拉雅被残害致死的真相。- F# G7 m- ^% ~2 F

3 M4 M$ J9 M4 K  D. a) k) H  A desperate woman asks for a meeting with a journalist to disclose the cruel and inhumane punishment of her niece.
6 j: F8 Q( w; L5 y
. f' g" D5 k  J! M: n$ P◎获奖情况) f$ C% U7 \0 |4 q( D1 ^5 @

* Z) r6 x7 r  d/ ]) j0 Z  第14届圣地亚哥影评人协会奖(2009)
- k0 ^: n3 H; {; c  \3 ~  最佳外语片(提名)
6 v, o9 A2 P! c
The.Stoning.of.Soraya.M.2008.1080p.BluRayCD.x264.DD5.1-FGT 7.94 GB# v' ?5 a- T) B& {' C! P; R
6 d% k/ C$ g! H  }8 e
Video+ y& E/ C* e$ n: S' U0 ~, V( Q9 f: p6 w
ID : 1
0 m# B; M/ q! ]2 M0 y0 ]Format : AVC
2 M3 c1 S. Y+ v/ W3 s1 IFormat/Info : Advanced Video Codec
* Z- r. {; ]! P9 E: M1 K- y% IFormat profile : High@L4( e4 J4 c6 p" i5 W- t% C
Format settings, CABAC : Yes
' B( R3 A) V3 ?6 @& OFormat settings, ReFrames : 5 frames
4 L) @+ W! V8 ?* W& Z, Q+ QCodec ID : V_MPEG4/ISO/AVC
4 V& @: z/ r5 q$ |$ ~: V9 c% ^Duration : 1h 54mn% D+ ?; I7 g- b% v/ H$ u$ j
Bit rate : 9 501 Kbps
; A1 M: Z& O% NWidth : 1 920 pixels- P' `  E2 s/ r/ w! a2 b
Height : 816 pixels
% j! L' |& o8 k5 YDisplay aspect ratio : 2.35:1; c3 D' S& s. y( W, G
Frame rate mode : Constant% K) E) a- {/ Q: ~% a. w8 I
Frame rate : 23.976 fps
1 Q* `7 _( \, Y. e3 j9 e- H3 L2 }: eColor space : YUV& W: y& _/ p/ @
Chroma subsampling : 4:2:0
7 h: h  W7 O9 [9 cBit depth : 8 bits
( }0 R  ^" x' H. T- SScan type : Progressive' S4 w% R* w+ r# T
Bits/(Pixel*Frame) : 0.253' `5 D6 b  e# X
Stream size : 7.42 GiB (94%)% P+ f( k5 l" j. o
Writing library : x264 core 88 r1462 7fcffde
; v/ E; y& i9 a" [Encoding settings : cabac=1 / ref=5 / deblock=1:0:0 / analyse=0x3:0x133 / me=umh / subme=7 / psy=1 / psy_rd=1.00:0.00 / mixed_ref=1 / me_range=16 / chroma_me=1 / trellis=1 / 8x8dct=1 / cqm=0 / deadzone=21,11 / fast_pskip=1 / chroma_qp_offset=-2 / threads=6 / sliced_threads=0 / nr=0 / decimate=1 / mbaff=0 / constrained_intra=0 / bframes=3 / b_pyramid=2 / b_adapt=1 / b_bias=0 / direct=3 / wpredb=1 / wpredp=2 / keyint=250 / keyint_min=25 / scenecut=40 / intra_refresh=0 / rc=2pass / mbtree=0 / bitrate=9501 / ratetol=1.0 / qcomp=0.60 / qpmin=10 / qpmax=51 / qpstep=4 / cplxblur=20.0 / qblur=0.5 / ip_ratio=1.40 / pb_ratio=1.30 / aq=1:1.00
3 j4 ~* X+ A/ Y0 m2 {8 z& d5 [6 G$ dLanguage : English
% g- I; i, s" ~Default : Yes
; t) x: u+ Z1 K4 p9 H, ^/ ZForced : No2 G. n8 }9 ]4 p8 J. [! y8 x

& ^2 K9 d  N2 C4 ^" ^4 lAudio- q! j1 O4 p% A
ID : 20 _! U- R( m$ [+ K$ ]
Format : AC-3
: l  `& b  Q/ M6 }- V- k, e( HFormat/Info : Audio Coding 3
. O+ Y2 |& m8 F& E7 ?6 T5 yMode extension : CM (complete main)
( X" ?% a) [  S" k- j7 t# aFormat settings, Endianness : Big
2 X. Z% H% U  GCodec ID : A_AC3
# P, [# w. O. `" jDuration : 1h 54mn
" r5 _8 J1 {$ i$ W3 z  p. IBit rate mode : Constant
( [. y7 t% U# M% @/ BBit rate : 448 Kbps
* M# E4 `- ]; d4 u( TChannel(s) : 6 channels7 o( w8 a' P' f- C# g& N$ n
Channel positions : Front: L C R, Side: L R, LFE
5 u9 N8 f5 n) B" j, ^; {# {Sampling rate : 48.0 KHz
. m# u0 N, Q1 yCompression mode : Lossy
3 [9 z1 `; |5 X( J' M5 Q7 ZStream size : 366 MiB (5%)- f4 p. u9 ?/ K1 [
Language : English" @2 b2 W! |5 Y. x3 d) Y
Default : Yes
8 }& |' K' V+ RForced : No

: c5 }) u, S$ w" Y2 ~0 [
  1. gvod://dy.kmxm.net:8080/6A6AB84B2210CD80B2EBC29A4EE54DBA82CC0EF1/1033714157/被投石处死的索拉雅BD中字.rmvb
    $ ^" D" i5 j5 x! o# Q
  2. qvod://1033714157|10EF766A0E71CD3F5C207883D0D93C98430B6828|被投石处死的索拉雅BD中字.rmvb|
复制代码

0 X  o. j# e2 ?8 p, u$ i
游客,查看本帖隐藏内容请回复 | 加入VIP可免积分免回复 了解详情 | 还不是会员:点击获取邀请码 Invitation Code

0

主题

1735

回帖

7069

积分

Sponsor

金币
2 枚
体力
3131 点

VIP蓝光勋章

QQ
jiyugen8180 发表于 2022-12-16 20:10:37 | 显示全部楼层
每天都来蓝光论坛看看,我爱蓝光电影。: i+ J- o5 j! L/ [. N
After reading the posts have nothing to do I Amoy posts!: c( Q- d+ c" y# e* q! M7 Q$ O0 j

0

主题

1933

回帖

7920

积分

Sponsor

金币
668 枚
体力
3455 点
zzk980220 发表于 2022-12-16 20:23:03 | 显示全部楼层
啥也不说了,楼主就是给力!
- p, ~# k' Z( f7 h8 {& a% i6 v至少是现在,我一天没有访问蓝光电影论坛就不爽!At least now, my day did not visit the Blu-ray Film Forum on unhappy!% I/ p8 s  b7 }1 N# A' y( m! ?3 u  d

本版积分规则

小黑屋|手机版|Archiver|4K蓝光论坛

GMT+8, 2024-4-15 14:49

Copyright © 2001-2021, Gadaddy Cloud.

快速回复 返回顶部 返回列表