BluRayCD Forum

 找回密码
 立即注册【分享大片】

QQ登录

只需一步,快速开始

查看: 28|回复: 3
收起左侧

[4K极清电影] 罗伯特·布鲁斯 [4K REMUX无损版] Robert the Bruce 2019 2160p BluRaycd REMUX HEVC DTS-HD MA 5.1-FGT 50.72GB

[复制链接]

5411

主题

5765

帖子

6万

积分

Forum Moderator

金币
3859 枚
体力
25445 点

卓越贡献勋章VIP蓝光勋章

迅雷电影 发表于 2020-10-9 21:59:36 | 显示全部楼层 |阅读模式
The story of nobleman-turned-outlaw hero who was crowned king of Scots in the 14th century.  [6 ]- I$ T. {: w
( M; {: p5 A- v
01.jpg ( X, X2 c! H- ^( j

$ L) g0 U1 B/ o% a◎译  名 罗伯特·布鲁斯/苏格兰之王 布鲁斯一世
$ l3 O3 L- ?, N1 C◎片  名 Robert the Bruce
! z  x/ G4 L. F' q2 P◎年  代 2019: Q  J2 t; ~. p7 ^) W
◎产  地 美国
. s( [  C5 Q3 ^2 P: }; N6 C2 f8 {◎类  别 历史4 ]( l4 G2 {- B, Z
◎语  言 英语) R' P3 `" W# X# X7 T
◎上映日期 2019-06-28(英国)8 F9 k9 `3 q( F3 f
◎IMDb评分  5.4/10 from 1,846 users. b5 V5 E/ T4 B- z
◎IMDb链接  https://www.imdb.com/title/tt8000908/6 c: y+ d8 l4 M4 {- v& w1 ~* E
◎豆瓣评分 0/10 from 0 users& Y" n6 F! O4 N( A$ {, @0 @
◎豆瓣链接 https://movie.douban.com/subject/30199661/
" i. M. q8 i5 z" |( U◎文件格式 x265 + DTS6 ]; `+ B6 i) u% z, e; V8 `" E
◎视频尺寸 3840 x 21601 z4 y- ~- d9 m# j7 r
◎文件大小 1DVD 50.72 GiB
. w, m! ~6 U. h! `( X◎片  长 2 h 3 min0 w9 i1 c  ^$ l% I$ K- ]* h1 q
◎导  演 理查德·格雷 Richard Gray$ x; q9 u% b7 ~- Z0 B
◎编  剧 安古斯·麦克菲登 Angus Macfadyen
" ], W$ a# y3 J) x* {◎主  演 艾玛·肯尼 Emma Kenney6 j5 J  m7 u6 u: g
       扎克·麦克格温 Zach McGowan2 a' m# E' x3 F/ D
       杰瑞德·哈里斯 Jared Harris
9 P; w  `! g) {* M       派屈克·福吉特 Patrick Fugit
) X3 D- J4 [/ v  ~! Q       凯文·麦克纳利 Kevin McNally
: e4 n" h5 \  Z5 ]! c       安娜·哈彻森 Anna Hutchison# x" ~, }  h9 [6 D. K- ?$ _5 m& q
       梅洛拉·沃尔特斯 Melora Walters
+ {; U  i' D" n: M       特丽莎·贝特曼 Talitha Bateman2 t; \9 ?6 L+ E& p7 k; L6 g9 J/ K! a
       安古斯·麦克菲登 Angus Macfadyen$ r- H0 z+ q5 O& l7 L4 {+ y' O5 G
       Mhairi Calvey+ V) A/ I+ M- J; V
       加布里埃尔·贝特曼 Gabriel Bateman' L4 E) o" A5 ^, ]9 R, p
       迪尔梅德·默塔 Diarmaid Murtagh
( \2 V; N" `" X$ F4 d       沙恩·科费 Shane Coffey
1 s$ z  i, A1 C# E
; W9 p( F% a# B2 E( \8 T. r1 b◎标  签 战争 | 历史 | [歐美] | 2019 | BDMV9 d. U9 @0 c, F, ~/ A' B' Y8 a5 |

( U3 ^6 p; }6 h% g◎简  介  
; t4 Z/ m8 b; \' p4 m
  k6 L; Y& f: X/ M# l# R* E2 Z% f6 c  这个故事讲的是14世纪被加冕为苏格兰国王的贵族出身的亡命之徒英雄的故事。( ]) I7 l. t+ C) S$ A1 K
  The story of nobleman-turned-outlaw hero who was was crowned king of Scots in the 14th century.
' V- A# [- _$ {$ M4 U9 i* u
Video
+ Z9 L) a- L# _3 q6 U% ~ID                                       : 1) u1 T' r$ D' t: q
ID in the original source medium         : 4113 (0x1011)1 \  w) Q0 R1 @' A* Y- v# T
Format                                   : HEVC
8 s! F9 u0 l0 hFormat/Info                              : High Efficiency Video Coding
) j. [0 K& Z9 X- I$ w9 x+ Z0 bFormat profile                           : Main 10@L5.1@High) K4 R5 z3 p% h! p9 A
HDR format                               : SMPTE ST 2094 App 4, Version 1, HDR10+ Profile B compatible5 Y0 `1 j' `+ i. ^9 [: T3 j
Codec ID                                 : V_MPEGH/ISO/HEVC' n4 j! k0 T! N) ^+ J( }& q! R' g' `
Duration                                 : 2 h 3 min3 }, {& w; e2 f9 ^
Bit rate                                 : 53.9 Mb/s! B# U( W8 A1 ^. M% i8 n+ f1 K9 a
Width                                    : 3 840 pixels
) l4 O* V# p8 I& `9 eHeight                                   : 2 160 pixels# f1 \0 z# C2 F0 ^  z7 L* u
Display aspect ratio                     : 16:9
  B6 g* |" b5 `- c+ w9 ?4 K2 O0 z4 xFrame rate mode                          : Constant
# a, X, J4 ~5 w3 v! j1 Z1 yFrame rate                               : 23.976 (24000/1001/37687) FPS
# J+ n0 `) u6 o9 C- N  B9 @( |Color space                              : YUV
5 r8 A+ K0 |$ z* J( [/ j4 {Chroma subsampling                       : 4:2:0 (Type 2)
8 M# }3 I7 j* C$ g  b5 ?% L$ ABit depth                                : 10 bits
& G; m3 P6 z; w) |1 _4 N/ K% _Bits/(Pixel*Frame)                       : 0.271
0 S4 s. U7 L# V: |+ {- P! i4 |& KStream size                              : 46.6 GiB (92%)0 |8 v9 K4 ^/ t4 |
Title                                    : Robert.the.Bruce.2019.2160p.BluRayCD.REMUX.HEVC.DTS-HD.MA.5.1-FGT0 |: q+ U) _# e4 N+ I
Language                                 : English% W; O( ~% o$ m# }9 j% Y& A2 R
Default                                  : No
- r9 t, f( p/ D  n4 KForced                                   : No1 @9 s) ^' j+ {! U
Color range                              : Limited
" D0 K; T3 z9 r0 d) x/ nColor primaries                          : BT.2020, }. l# ~) {# E0 j/ A  c0 B5 J
Transfer characteristics                 : PQ. f9 q2 P. h$ P3 A( O: _" H, K
Matrix coefficients                      : BT.2020 non-constant- P! B, x; N' [& Z8 W$ ]9 o
Mastering display color primaries        : Display P3
2 E2 @0 L" W+ [' C- w! ^/ d, |Mastering display luminance              : min: 0.0050 cd/m2, max: 1000 cd/m2
% C$ i$ M* h6 Q* _! V) L# u) `Maximum Content Light Level              : 1000 cd/m2( u9 s4 W( q% ?( q0 r4 y% A
Maximum Frame-Average Light Level        : 400 cd/m2. S: \2 |% f; F! g+ L7 `2 n
Original source medium                   : Blu-ray6 s2 x6 ?2 m  C3 ?. o: `+ C

9 \& Y1 q% }4 w# |1 v6 k; K+ vAudio #1: n& L5 Z0 a' H) [# ~6 j
ID                                       : 2; a7 ~8 ]6 Q% @/ g9 q0 X" l
ID in the original source medium         : 4353 (0x1101)+ c# E9 Q$ q; ]# P8 z; X! v- E# R
Format                                   : DTS XLL
/ ~) m5 \8 u0 P! PFormat/Info                              : Digital Theater Systems
$ d  c( Z8 S4 ~% XCommercial name                          : DTS-HD Master Audio. N7 v1 Q7 @: _8 c9 c; P
Codec ID                                 : A_DTS2 B( q7 I: v  o# S1 Y
Duration                                 : 2 h 3 min4 M/ C5 X# k' L9 E
Bit rate mode                            : Variable
) P1 X8 F7 {% h# cBit rate                                 : 2 353 kb/s  ~9 p1 M) ^( v7 W: Z
Channel(s)                               : 6 channels" W$ Z3 O+ {6 k1 }. x
Channel layout                           : C L R Ls Rs LFE
9 l" B! y" X' \0 iSampling rate                            : 48.0 kHz
8 y# m- i, t4 T7 BFrame rate                               : 93.750 FPS (512 SPF)
& \& X" Z. G4 X7 d2 D$ YBit depth                                : 16 bits; ~- S9 a$ I6 ~- G9 K
Compression mode                         : Lossless
6 F2 m3 w5 l9 @7 Y0 y( fStream size                              : 2.03 GiB (4%)
/ _1 c: R. W. Z2 x! QTitle                                    : Robert.the.Bruce.2019.2160p.BluRaycd.REMUX.HEVC.DTS-HD.MA.5.1-FGT
6 w/ N* c. M( y4 v( oLanguage                                 : English
9 X5 |; E5 L( u' A1 b3 ]  WDefault                                  : Yes
# t5 Z6 p' G8 q4 u+ G% e) AForced                                   : No
3 s& O( v; N: ~# C1 fOriginal source medium                   : Blu-ray% \! d! X9 S$ R) k5 C$ U2 V
$ `; |% h& z: t1 i7 ]( @9 R- h
Audio #2
2 b$ M- {- R, x  Q2 ]: r, n/ eID                                       : 3
/ u$ j  P! `7 v3 U5 P- ?ID in the original source medium         : 4352 (0x1100)
4 P9 ^; |6 q$ F7 c# W2 BFormat                                   : DTS XLL
3 S: O# y$ ]+ b& X) GFormat/Info                              : Digital Theater Systems# {) W7 A! v8 T& E0 ]
Commercial name                          : DTS-HD Master Audio; |! o* D& K4 I, i4 d) H* D
Codec ID                                 : A_DTS# E" g  d/ N6 ]. O* J
Duration                                 : 2 h 3 min, D5 \4 ~+ I/ B. s: j# U
Bit rate mode                            : Variable
0 @' k1 E( i+ |: }" a; d- aBit rate                                 : 2 429 kb/s8 T! u. b: R; B2 X2 L
Channel(s)                               : 6 channels" M( g- R( G# D# ~1 O8 {
Channel layout                           : C L R Ls Rs LFE% \% Z" `8 }4 W
Sampling rate                            : 48.0 kHz
; ?" ^5 |, B+ h& Y0 f  Q, LFrame rate                               : 93.750 FPS (512 SPF)8 N3 m! W8 o, Y
Bit depth                                : 16 bits
* M" y) v4 b9 U- b" GCompression mode                         : Lossless
8 w& J: m5 @. }& zStream size                              : 2.10 GiB (4%). W' i3 z  k! D4 H9 H6 [
Title                                    : Robert.the.Bruce.2019.2160p.BluRaycd.REMUX.HEVC.DTS-HD.MA.5.1-FGT
/ c; {6 j! X/ a- f3 TLanguage                                 : German
# O9 \/ Z- s1 q4 k  JDefault                                  : No
  U# {2 M; r, K3 Y& r$ a: s6 W5 yForced                                   : No% f' w7 j0 i0 S; D; y
Original source medium                   : Blu-ray
% H1 j: e6 {2 v. u& t! [2 ?
* ?8 Z3 S" i) P/ WText #1) U* k. I  U; }3 {! r6 W; H
ID                                       : 4
- e( O; i! L4 ?+ H) a5 rFormat                                   : UTF-8
: G% \' w+ i, h3 \6 A' MCodec ID                                 : S_TEXT/UTF8
/ s) c% s' T* W) t  o2 C( ?Codec ID/Info                            : UTF-8 Plain Text0 c: I; W  b6 ]$ L
Duration                                 : 1 h 54 min9 \; ~5 M" g; e0 T
Bit rate                                 : 37 b/s
- i. ]1 Y* K9 cCount of elements                        : 1279) H+ h# s9 X% y9 k1 S5 K' B* P
Stream size                              : 31.6 KiB (0%)* K1 k( J# a  V* G) H
Title                                    : English-SRT( F: @# G! [+ e* q
Language                                 : English
+ S) M+ ~2 J* [3 T. |Default                                  : Yes
( T. H6 v+ h3 p' Y0 WForced                                   : No
- x3 h. Q% L7 _7 @6 P$ F0 i' s" U2 F* r( `
Text #26 U& i1 i# I6 Y) J5 f6 }
ID                                       : 5* Y( Q  T% f1 ]. u4 D$ s
ID in the original source medium         : 4768 (0x12A0)1 p( {( j: a9 M2 }5 x# [0 J+ b
Format                                   : PGS/ S8 M/ H: E. ], ~+ A$ v. y
Muxing mode                              : zlib
  y$ I' Z' M" aCodec ID                                 : S_HDMV/PGS6 N: Y5 \6 |5 w. [; Y2 h
Codec ID/Info                            : Picture based subtitle format used on BDs/HD-DVDs
1 N& J7 y) h' E3 _) XDuration                                 : 1 h 54 min4 {1 [, b$ V9 w  r) P% l
Bit rate                                 : 29.1 kb/s
/ G+ n0 q. L* A& H. p8 SCount of elements                        : 20461 P" ~: B1 h: L; ?
Stream size                              : 23.8 MiB (0%)
( G+ K% o0 D. M3 G- [" L. FTitle                                    : German-PGS
9 k& U) T0 b0 l7 G! @/ |: aLanguage                                 : German
9 t, v. v9 x4 ^0 ?& u, E, hDefault                                  : No
) u6 ~0 h$ {& ^9 vForced                                   : No
6 G- j6 y/ j6 U# a! d3 BOriginal source medium                   : Blu-ray; |0 l3 [+ h* J8 m% [' W# ^
3 H! s9 W# [0 V5 \
Menu& z$ H$ ^- S% n# A8 c- d0 d
00:00:00.000                             : en:Chapter 016 w! W# V, r+ m
00:10:30.171                             : en:Chapter 02! t) _. j0 n: ?
00:19:11.984                             : en:Chapter 03
, ^% h0 Q" U; t# s+ k00:31:11.411                             : en:Chapter 04' B. h& l/ d2 o, a9 M( ^8 ?4 l
00:39:13.184                             : en:Chapter 05
! r5 c* s8 v1 G* O3 _00:49:06.693                             : en:Chapter 066 e6 R9 Q5 S3 W+ ]9 s+ B
00:59:19.180                             : en:Chapter 070 n4 |/ Y$ V6 }0 _+ @; @; c" {
01:08:44.703                             : en:Chapter 080 \0 W: A" q, |7 O# k9 K0 ?
01:19:05.407                             : en:Chapter 09
) d9 T* u' Q  ?: N3 A1 B4 h01:28:37.312                             : en:Chapter 10
/ U* e) z# \# c( J3 I( m01:38:22.897                             : en:Chapter 110 v. K9 @$ B) T9 M, o6 n
01:48:25.832                             : en:Chapter 12

" V7 a' C( D: F- p1 D( l: H3 W& m
游客,查看本帖隐藏内容请回复 | 加入VIP贵宾组可免积分免回复下载 了解详情 | 还不是会员:点击获取邀请码 Invitation Code

618

主题

2086

帖子

1万

积分

VIP advanced

金币
1848 枚
体力
4752 点

公主勋章卓越贡献勋章

21cn 发表于 2020-10-10 03:30:36 | 显示全部楼层
Bluraycd又有新电影发布了,激动中……!
( q! |6 v! z+ q: P% V/ ^4 eBlu-ray movies Community: my favorite!
  d3 V. F" C# v1 n  X

67

主题

1707

帖子

6362

积分

Sponsor

金币
506 枚
体力
2349 点
lanpanshuma 发表于 2020-10-10 06:14:50 | 显示全部楼层
果断回帖,如果沉了就是我弄沉的感觉很有成就感!
; N6 D7 W# {6 m- t) M3 tI love your Blu-ray movies Forum!, L! z6 N8 L, {  d
该会员没有 ...

15

主题

206

帖子

1074

积分

Sponsor

金币
90 枚
体力
511 点
wyyo 发表于 2020-10-10 10:26:04 | 显示全部楼层
每天都来蓝光论坛看看,我爱蓝光电影。' \$ V8 X2 ]% n# [( C% u
I love your Blu-ray movies Forum!; @! H0 u$ b6 [$ n/ H3 n

本版积分规则

小黑屋|Archiver|蓝光电影资源网

GMT+8, 2020-12-2 05:43

快速回复 返回顶部 返回列表