BluRayCD Forum

 找回密码
 立即注册【分享大片】

QQ登录

只需一步,快速开始

查看: 31|回复: 1
收起左侧

[蓝光原盘] 特工老爸/第二次 [REMUX无损版] The 2nd 2020 1080p BluRaycd REMUX AVC DTS-HD MA 5.1-FGT 14.39GB

[复制链接]

7777

主题

7971

帖子

6万

积分

Forum Moderator

金币
10555 枚
体力
9607 点

卓越贡献勋章

24小时 发表于 2020-10-14 23:11:42 | 显示全部楼层 |阅读模式
01.jpg 9 B! q! w2 u. M! F. R

, b. O& z) x6 F; g- ^: h3 a7 n◎译  名 特工老爸/第二次
+ W! s6 u4 B) k7 C/ e: @& B  ^6 u* R◎片  名 The 2nd
0 V& `% f1 R: R& o# A% c+ u" l◎年  代 2020
. h, o; n4 g, |# i. J◎产  地 美国0 \" o: y2 j# R  T
◎类  别 动作/惊悚# l& w( Q/ R' e# o; ~; W7 s
◎语  言 英语9 z9 A. D) `( R6 `8 v6 e
◎上映日期 2020-09-01(美国)$ v  L0 R: R, n$ S% @+ i
◎IMDb评分  5.4/10 from 1,665 users
/ q6 Z6 g2 ~3 y◎IMDb链接  https://www.imdb.com/title/tt11697484/2 G1 o4 _7 N8 r$ `% p" g% \
◎豆瓣评分 4.2/10 from 107 users
- Z6 ~) r2 d9 a+ P5 a7 I◎豆瓣链接 https://movie.douban.com/subject/35151590/
' T0 X/ L% h, h# }; N7 Z◎文件格式 x264 + DTS
% Y3 Y; v/ G9 l( {◎视频尺寸 1920 x 1080/ e8 m2 j3 |/ O+ V1 W
◎文件大小 1DVD 14.39 GiB
* K3 Z! i8 T' Y- b◎片  长 1 h 33 min
2 m& U2 Z6 A  c+ }◎导  演 布莱恩·斯基巴 Brian Skiba& v; B7 F2 B% d5 M: n+ |
◎编  剧 Eric Bromberg / Paul Taegel
% J1 ^& G5 M" p' m◎主  演 卡斯帕·凡·迪恩 Casper Van Dien8 o' a$ @5 ?' B  A. S; a
       萨米拉·阿姆斯特朗 Samaire Armstrong
; `1 ^; E' `) k/ u3 ^. {5 o3 ~5 _       瑞恩·菲利普 Ryan Phillippe
% ^4 O9 Z: D4 `: ]. f) {: X
  P- B6 f5 D; Y8 B◎简  介  
2 ^- `3 d  S: X/ o( ~- |+ w' A5 I' X
# w1 j% ~- [, m1 n9 O  A Green Beret is late picking up his son at college. His son and a Supreme Court Justice's daughter are the last there. A gang of terrorists are there to abduct her and force her dad's hand on a Second Amendment vote.' o( o% J. U! I* w
3 ^: P  U+ {, s8 t% B8 k0 Z
  特勤局特工维克·戴维斯(瑞恩·菲利普饰)正从大学校园接他的儿子肖恩(杰克·格里夫饰),他敏锐的职业神经发现自己正身处一场恐怖行动中。最高法院法官的女儿正是目标,于是......( _* J+ ^" K2 a3 _
8 S' N, X; O+ h2 p/ s- j% @$ J
  Secret-service agent Vic Davis (Ryan Phillippe) is on his way to pick up his estranged son, Shawn (Jack Griffo), from his college campus when he finds himself in the middle of a high-stakes terrorist operation. The daughter of a Supreme Court Justice is the target and this armed faction will stop at nothing to kidnap her. Vic quickly realizes that there's no one coming to rescue them and must now use his entire set of skills to save her and his son from an incredibly dangerous and lethal situation.: ?- I) r# x! k% m/ S& a: [
Video
9 F. Y- x; A/ i* y0 U# kID                                       : 1- M' @! _) L& X% P! j) ]
ID in the original source medium         : 4113 (0x1011)
1 [8 I& }6 I/ ^  _+ [  cFormat                                   : AVC% ?& T& H" h" |& Z
Format/Info                              : Advanced Video Codec. g- {6 g+ [# L; w1 e4 |2 b
Format profile                           : High@L4.1  ~& l/ W, y8 Z! L4 @+ @
Format settings                          : CABAC / 4 Ref Frames% X$ D( Q; ^; C" h" I
Format settings, CABAC                   : Yes+ ~1 M( z6 c4 _7 c
Format settings, Reference frames        : 4 frames+ R2 A% V$ l! ?9 s3 A8 f4 }$ P  S# w
Codec ID                                 : V_MPEG4/ISO/AVC0 C0 Z1 }  g2 h; f9 _
Duration                                 : 1 h 33 min
* E/ m0 T' J7 H# i  g2 P5 B: ^Bit rate mode                            : Variable
  x! q  m: R! qBit rate                                 : 20.0 Mb/s
. ~6 e$ Y4 j6 Q: B& aMaximum bit rate                         : 35.0 Mb/s
# L" H* b$ X# q3 }, |Width                                    : 1 920 pixels; a( O7 j: p2 e+ \& _
Height                                   : 1 080 pixels
# h7 g# i/ ~1 QDisplay aspect ratio                     : 16:9$ G8 _- b# a6 _9 x' G: Q0 j. |
Frame rate mode                          : Constant
0 A  D6 Q& n9 r9 j* eFrame rate                               : 23.976 (24000/1001/37687) FPS( \, y. h3 e3 S8 d# i6 W& U, J/ G0 D
Standard                                 : NTSC
9 T9 E9 E5 X. ~7 |Color space                              : YUV% O  u. c, k7 l) g( \
Chroma subsampling                       : 4:2:0
+ U* v; T( U* ?( }" P" b% dBit depth                                : 8 bits: {- x' Y2 I7 N8 A- m. p
Scan type                                : Progressive  y6 e$ J9 o- L7 m5 H
Bits/(Pixel*Frame)                       : 0.402
7 J. E# g: y, J# ~8 g" Q: {Stream size                              : 13.0 GiB (91%)
, Z# h  k. o% p: m$ C" jTitle                                    : The.2nd.2020.1080p.BluRayCD.REMUX.AVC.DTS-HD.MA.5.1-FGT- Q1 T; X% s* _' X- I% i
Language                                 : English7 ~, K; X+ W1 Y# l* k, o
Default                                  : No
1 s1 C5 g! U. |5 h1 D8 e+ c; m7 QForced                                   : No- V9 |2 u; u, t3 z
Color range                              : Limited
3 F6 `: G" K  O9 EColor primaries                          : BT.7090 o8 k8 c7 Q! q1 _# H, [3 J+ _- E; o
Transfer characteristics                 : BT.709
" P- ^& f; t  s& _6 d/ S2 P  rMatrix coefficients                      : BT.7095 d$ |) p0 f+ A! O5 ~& U+ f
Original source medium                   : Blu-ray* X- z) r9 J) G8 E5 g

$ ~1 G# k7 q4 N9 e- E; \2 eAudio
$ x9 _: d" `1 ?/ N8 ^0 K( l1 _; CID                                       : 2  k1 x8 e: c, I- P
ID in the original source medium         : 4352 (0x1100). a+ v/ ^0 {) @- T- `# M
Format                                   : DTS XLL. `+ n9 Q- d! V" q+ y" t! X
Format/Info                              : Digital Theater Systems
+ a( q; C2 b- J, ^) m7 c- o+ UCommercial name                          : DTS-HD Master Audio, f/ D0 E- q+ n  ]4 f7 t5 o
Codec ID                                 : A_DTS7 x$ y  i1 r) \; T4 ~$ o
Duration                                 : 1 h 33 min
3 y+ y9 Q6 N6 F+ v% `' R4 t+ h' rBit rate mode                            : Variable
. Y* Y: R- P& h1 TBit rate                                 : 2 079 kb/s+ I3 s; A$ J5 f. H7 g- j2 J6 e
Channel(s)                               : 6 channels3 @6 K+ |7 y$ p
Channel layout                           : C L R Ls Rs LFE6 I0 L+ x4 u" p4 ~( P
Sampling rate                            : 48.0 kHz
$ u# h7 B" v# UFrame rate                               : 93.750 FPS (512 SPF)
7 J% k$ `9 a9 Y" ^Bit depth                                : 16 bits7 |" U( ~7 C/ E1 m$ S9 G! n; A" |# `+ F
Compression mode                         : Lossless8 V3 w- X+ k  a0 p
Stream size                              : 1.35 GiB (9%)  E/ Y# s# C( L; C% c4 V1 T" F9 q
Title                                    : The.2nd.2020.1080p.BluRaycd.REMUX.AVC.DTS-HD.MA.5.1-FGT1 ]! \/ S6 U) q9 Q2 N* ]
Language                                 : English$ d: D6 @. h7 n& `
Default                                  : Yes, w4 W1 z7 n* o9 S
Forced                                   : No
9 R) u& h9 N- ~& l, s7 M1 a% sOriginal source medium                   : Blu-ray& A( _" [9 Z9 @8 F0 S

) B9 w  u1 j  Q2 SText #1
( T1 e' O: U$ t3 _ID                                       : 3( K& ?: Z/ M3 u" D3 A/ G% ^! ^! F7 L' k
Format                                   : UTF-8. c2 k, v5 K# a' h
Codec ID                                 : S_TEXT/UTF8
( E% R* I  p- v( x+ ZCodec ID/Info                            : UTF-8 Plain Text
; j$ g" J6 L$ p* Z9 P1 k" e0 h) kDuration                                 : 1 h 32 min
: d5 l. v/ ^4 y- qBit rate                                 : 46 b/s
, A) O% P: ]  ]  ECount of elements                        : 1186+ H7 x/ ?% `( z1 h# ~! D
Stream size                              : 31.2 KiB (0%)
0 O+ Q0 p" B5 E# @Title                                    : English-SRT' c5 ^, H2 E( G9 b8 C, |
Language                                 : English  `1 Y8 M" J7 y5 h2 t4 C1 S
Default                                  : Yes
# y8 L7 F9 N6 z2 SForced                                   : No! I7 e& F5 o, x$ X
& g& n+ y0 H4 t" F
Text #2
8 p3 w- V; n7 z6 \ID                                       : 4& Z1 _* c5 I0 N
ID in the original source medium         : 4608 (0x1200)$ z6 `$ Y* L, O2 O" Z0 P# s6 u
Format                                   : PGS2 C5 Y* F" l6 ?9 h. k- b
Muxing mode                              : zlib9 F, g0 O4 D* q& \; U2 i
Codec ID                                 : S_HDMV/PGS
* h: {% a4 A/ N9 E# p/ R' m  i2 p. SCodec ID/Info                            : Picture based subtitle format used on BDs/HD-DVDs
9 N; r, l% Q9 b8 Q6 hDuration                                 : 1 h 33 min
! }) e/ }3 V, QBit rate                                 : 38.3 kb/s, y0 }5 {+ `/ i
Count of elements                        : 2798+ Y7 I/ N/ [' i% \* q" ]( n2 N3 x
Stream size                              : 25.5 MiB (0%)
$ P% L+ l0 o6 `/ [# uTitle                                    : English-PGS2 ~1 d! E/ b9 \
Language                                 : English
$ g: I$ k2 Z. t8 m: d% ]Default                                  : No+ i5 t2 m+ F9 M. u
Forced                                   : No
9 n4 ?& Q* I" b3 Y; X+ d$ VOriginal source medium                   : Blu-ray3 b) O; @, L, ?+ p4 x1 A) |
' X- w& Z2 v4 X. @
Menu
* U# i- m& n9 m) K0 w6 S6 R00:00:00.000                             : en:Chapter 01# o  n0 U( r3 q, F/ n2 p
00:05:47.722                             : en:Chapter 02
2 }- p* H3 Z; ?6 ?3 o5 W' D00:10:37.511                             : en:Chapter 03
" G/ E4 ]) u% d9 z$ q- a3 Z00:16:17.101                             : en:Chapter 04
% {6 c  a% A' F% m7 \. s$ B/ m5 B00:22:17.544                             : en:Chapter 05
' w6 r2 V9 v% k  U+ m! B' n00:27:26.811                             : en:Chapter 06
0 k* c7 Z0 x2 i4 i- [$ h0 j8 Z00:33:17.370                             : en:Chapter 07
( V+ _$ o3 H: n1 e$ x00:39:49.387                             : en:Chapter 088 j' V7 N6 ~4 G$ j8 A: R
00:46:06.555                             : en:Chapter 091 K" s# r. V! Q1 m
00:51:49.022                             : en:Chapter 10% p  M* ]* Z# C4 w& V
00:57:38.246                             : en:Chapter 11
( O) b6 |5 t" V- t- O9 B2 e& }+ P: E01:03:14.415                             : en:Chapter 12
( K  a8 \! [5 m7 z: b8 Y% |01:08:23.307                             : en:Chapter 13
7 d; ^, L; b3 g: |1 {( ^01:14:04.481                             : en:Chapter 14( ?) v7 d* v8 s: e1 l+ d$ n
01:21:33.221                             : en:Chapter 15
, l3 z5 H4 U: S( G# X9 G9 A01:27:52.976                             : en:Chapter 16

( x' T6 w* g- P/ O: W% C& c! R. ?8 @
游客,查看本帖隐藏内容请回复 | 加入VIP贵宾组可免积分免回复下载 了解详情 | 还不是会员:点击获取邀请码 Invitation Code

64

主题

1486

帖子

5413

积分

Sponsor

金币
292 枚
体力
2056 点
lanpanshuma 发表于 2020-10-15 16:12:44 | 显示全部楼层
Bluraycd又有新电影发布了,激动中……!
: I4 E( H) `9 s  u6 ~Not see, I am a novice, the inadequacies of the first Please bear with me!
" X- h+ ^9 x6 |) ]) _
该会员没有 ...

本版积分规则

小黑屋|Archiver|蓝光电影资源网

GMT+8, 2020-10-23 02:43

快速回复 返回顶部 返回列表