BluRayCD Forum

 找回密码
 立即注册【分享大片】

QQ登录

只需一步,快速开始

查看: 30|回复: 2
收起左侧

[蓝光原盘] 猫狗大战3:爪爪集结 [REMUX无损版] Cats Dogs 3 Paws Unite 2020 1080p BluRaycd REMUX AVC DTS-HD MA 5.1-FGT 12.38GB

[复制链接]

7777

主题

7971

帖子

6万

积分

Forum Moderator

金币
10555 枚
体力
9607 点

卓越贡献勋章

24小时 发表于 2020-10-14 23:40:09 | 显示全部楼层 |阅读模式
01.jpg " `/ w7 k% F6 \, `2 s( i) i) c

$ S0 S/ T5 V3 s" v  n5 L◎译  名 猫狗大战3:爪爪集结!
: L! x7 {9 V+ g: d4 @2 }  S% t8 G  i◎片  名 Cats & Dogs 3: Paws Unite!
2 w1 d5 [: B# ^◎年  代 20204 N" `8 \/ }% Y1 Z
◎产  地 美国' ^. A+ Y6 ^! D! }' a, V
◎类  别 喜剧/动作/奇幻9 x, N6 {  b+ Z$ C  U
◎语  言 英语5 }$ W, y. d0 l# l8 j
◎上映日期 2020-09-15(美国)% Q/ @+ {. R5 d) c
◎IMDb评分  3.4/10 from 272 users8 _7 c3 ?1 \& `  Q( d( }* e. j
◎IMDb链接  https://www.imdb.com/title/tt12745164/
6 e* f! H1 m3 w: N8 o; O, R◎豆瓣评分 4.5/10 from 310 users' ?% Q4 X0 p; q0 B1 ~5 P6 w
◎豆瓣链接 https://movie.douban.com/subject/35141104// N$ o- F' _7 T5 n! Q
◎文件格式 x264 + DTS
( C: S. L& d9 }2 b◎视频尺寸 1920 x 1080: X: b/ w" U. t4 I2 J
◎文件大小 1DVD 12.38 GiB
' o4 H" u9 X' O9 R; h2 c◎片  长 1 h 24 min5 K: P! n1 r0 H4 t) _3 v. g
◎导  演 肖恩·麦克纳马拉 Sean McNamara
! i9 ?/ a8 @0 q. R& f# J/ [, Q◎编  剧 斯科特·宾德利 Scott Bindley
$ H2 n; o) R. j       约翰·里夸 John Requa2 ~' A8 z+ b+ y; d8 S
       格伦·费卡拉 Glenn Ficarra8 o' w/ {  q7 M4 Z; c
◎主  演 梅丽莎·劳奇 Melissa Rauch
& H& I+ I3 B& G3 ~8 g8 W$ p, A       莎拉·吉尔斯 Sarah Giles
4 i/ ^* m0 W' P' a! r       马克思·格林菲尔德 Max Greenfield" G- @6 u. p7 Q0 N: Q
       乔治·洛佩兹 George Lopez
- i6 x+ x# k3 E- \" m! J2 @% \4 h       Kirsten Robek2 ^% V: _) j5 V8 Y( J. B
       Callum Seagram Airlie
* E; {1 R* q$ B5 a9 z! Z! J+ Y7 u- ]7 [0 d2 b4 P0 f
◎简  介  & p& J2 P* S( M) k- g
  G# C7 R, L7 Q, @  U( V1 c
  Gwen the Cat and Roger the Dog are secret agents who covertly protect and save the world without humans ever finding out. Their partnership is due to the Great Truce, which has stopped dog and cat hostility for a decade.
  D# k( k8 H0 l+ k7 S+ v* ]# H7 C2 \* A1 Z- C
  距离第二部后猫狗休战已经过去10年了,猫狗两家共同发明了一种监控系统,维持和平化解冲突。然而当一只精通技术的鹦鹉出现,利用自己的“黑客”技术入侵,并使用猫和狗才能听到的频率来操控它们,世界各地再度爆发猫狗大战!于是,一群没有经验的新手猫狗特工要用最原始的方式来恢复和平。7 Y5 _, L0 K- S1 V" f# \& ?
  j; C' ~4 ~" R9 B3 _  y
  It's been ten years since the creation of the Great Truce, an elaborate joint-species surveillance system designed and monitored by cats and dogs to keep the peace when conflicts arise. But when a tech-savvy villain hacks into wireless networks to use frequencies only heard by cats and dogs, he manipulates them into conflict and the worldwide battle between cats and dogs is BACK ON. Now, a team of inexperienced and untested agents will have to use their old-school animal instincts to restore order and peace between cats and dogs everywhere.$ z7 v$ f; ]0 W- J) Y' r, P
Video7 b1 D) a- B! p1 j% T1 w
ID                                       : 1% r* q1 m5 A# j6 E
ID in the original source medium         : 4113 (0x1011)
+ ~$ Z. q3 P, q9 D1 J& S* R, PFormat                                   : AVC& v0 o, O3 \# U) S. U- l) _
Format/Info                              : Advanced Video Codec( _" F, q0 S- }6 K& z7 B9 M, S
Format profile                           : High@L4.14 B0 e8 ]" L) _7 Z/ a
Format settings                          : CABAC / 4 Ref Frames  n5 y+ F6 C6 B1 H
Format settings, CABAC                   : Yes
7 F: L4 H5 v& a/ s0 n$ B7 gFormat settings, Reference frames        : 4 frames
$ I4 m# ?& ^( K) _Codec ID                                 : V_MPEG4/ISO/AVC  f3 Q: Q; `# N! H- h
Duration                                 : 1 h 24 min
  D: j8 Z" }+ d- f# g% nBit rate mode                            : Variable+ [* P  R% Z8 @1 y4 B
Bit rate                                 : 14.8 Mb/s
7 r) [- V; b3 n& L( dMaximum bit rate                         : 38.0 Mb/s
8 A- ^" S2 h. c5 C6 y5 a6 aWidth                                    : 1 920 pixels! w! }: w" z# i9 Y+ o0 Z
Height                                   : 1 080 pixels
) [% [' i# j( U7 `Display aspect ratio                     : 16:92 Q' o' g9 ~0 M. s# x
Frame rate mode                          : Constant8 T  U& ~. L8 Y( _: I, y
Frame rate                               : 23.976 (24000/1001/37687) FPS" f- n" a9 ]: Q1 C+ v
Color space                              : YUV
% C9 z0 H6 p8 t7 y& H! X& e4 jChroma subsampling                       : 4:2:07 V( u" F+ Z2 j1 |7 p! I: A
Bit depth                                : 8 bits
8 Z+ J( K  ]& T, U$ \8 u; ?Scan type                                : Progressive
! q6 G7 I' J: Q4 H! LBits/(Pixel*Frame)                       : 0.299
0 j& r1 w  v5 ?6 V7 z+ ^Stream size                              : 8.72 GiB (70%)+ Z- V7 N& |6 {8 p" v  T" X
Title                                    : Cats.Dogs.3.Paws.Unite.2020.1080p.BluRayCD.REMUX.AVC.DTS-HD.MA.5.1-FGT8 i  S1 {) a8 m
Language                                 : English
% z- ~8 C  p  w4 w$ }Default                                  : No- c" R  Y$ t$ k$ L
Forced                                   : No( ]) V/ d+ J. K
Original source medium                   : Blu-ray
2 ^; x) ]+ ?* w+ m1 }$ H+ _0 X0 {1 \/ W# ~- G8 U
Audio #1
* c1 A. f7 n" F8 xID                                       : 2
9 n8 G6 g' t5 C0 b. |% q5 J" [ID in the original source medium         : 4352 (0x1100)
$ J& M) W% `" TFormat                                   : DTS XLL7 j1 C- N' l* T- p
Format/Info                              : Digital Theater Systems5 J! \& ^+ t$ v' [
Commercial name                          : DTS-HD Master Audio
6 l$ e$ K9 l/ _+ n6 [* [Codec ID                                 : A_DTS1 P1 U' K2 b1 r8 U$ p5 `
Duration                                 : 1 h 24 min
7 M3 R8 ^  ?5 q$ {. x1 T' tBit rate mode                            : Variable0 R4 T/ E8 r/ q
Bit rate                                 : 2 256 kb/s  S& a+ w% l  d. n
Channel(s)                               : 6 channels
$ Z% W$ I. o( u% b4 G# z5 ZChannel layout                           : C L R Ls Rs LFE
. \: t) ?) S$ Z3 kSampling rate                            : 48.0 kHz
- a# O. t; K4 L5 h+ }3 vFrame rate                               : 93.750 FPS (512 SPF)
# R3 Z: |) O8 I6 _6 H4 NBit depth                                : 16 bits( X% p1 E* Q! {4 ^7 R: e
Compression mode                         : Lossless- O$ r+ M! c) J- ]
Stream size                              : 1.33 GiB (11%). ^- Y' m) m7 W! g( S+ L% ?1 l
Title                                    : Cats.Dogs.3.Paws.Unite.2020.1080p.BluRaycd.REMUX.AVC.DTS-HD.MA.5.1-FGT8 f* H# q& r% s4 n" ]- U
Language                                 : English
7 S4 \+ G8 n2 {7 @Default                                  : Yes
& p3 F, `8 w( Y6 h3 OForced                                   : No
; H/ S  E* m7 Z( g3 P! eOriginal source medium                   : Blu-ray  }& C' W1 L) N0 h& T/ C
+ T; E  ?( I3 I: S
Audio #2
: w) F) \$ \( g+ vID                                       : 3- @& z0 Z1 m- f/ l% D
ID in the original source medium         : 4353 (0x1101)
+ U4 K8 Z' s3 v! p- ZFormat                                   : AC-3# r# M( p0 v0 |% m" q1 f* n
Format/Info                              : Audio Coding 3
8 r8 ?- L+ ~, E% w1 [Commercial name                          : Dolby Digital
3 x" V9 }2 g! N, y9 ACodec ID                                 : A_AC39 y" i" V2 J" w, {+ p9 i
Duration                                 : 1 h 24 min
& v) Q6 }, e- l' ^Bit rate mode                            : Constant+ j4 p, ~( Q$ M
Bit rate                                 : 640 kb/s
% C% Q6 S4 q  IChannel(s)                               : 6 channels
: x1 f* v# A) ~: C! S* C) K- lChannel layout                           : L R C LFE Ls Rs' t/ x/ f# B! |( K
Sampling rate                            : 48.0 kHz
8 @5 h; }! k  jFrame rate                               : 31.250 FPS (1536 SPF)
3 M+ `2 ^5 |# uCompression mode                         : Lossy$ ^) W, B) i' q
Stream size                              : 385 MiB (3%)
) A: I2 m! M6 a& {2 a' u9 XTitle                                    : Cats.Dogs.3.Paws.Unite.2020.1080p.BluRaycd.REMUX.AVC.DTS-HD.MA.5.1-FGT
/ s/ D; [+ @$ U$ J$ `( JLanguage                                 : French) I" Z3 ]1 }' a$ X7 z  X
Service kind                             : Complete Main
. W& l! i; ~& Z9 f$ h0 zDefault                                  : No+ l0 ^- c2 g2 l4 m* L
Forced                                   : No
, Y6 X. G) A: B) B; HOriginal source medium                   : Blu-ray. l- e; D* a  _

1 u, N: I/ A! \; R1 @' z( rAudio #33 r& ]* e) Y9 h& `1 @: N) }. c/ p: _; e
ID                                       : 4
2 ]+ V  h( ]: kID in the original source medium         : 4354 (0x1102); N% T* C+ Z/ i# `  Z7 h, t5 T) I
Format                                   : AC-35 z, M( }; r3 ?& [! P' t
Format/Info                              : Audio Coding 3
$ ~; r# L. G: s6 tCommercial name                          : Dolby Digital
* Z7 W8 c; ^- c2 vCodec ID                                 : A_AC32 L" L' f- y. j8 R% I" `( r+ w
Duration                                 : 1 h 24 min) Q+ t4 L" Z7 t* {6 ]% J" V( K
Bit rate mode                            : Constant
5 ?7 w9 G1 `0 BBit rate                                 : 640 kb/s( F' V6 E" G# g' m) ]
Channel(s)                               : 6 channels
+ p) e' N$ _3 N! z' v9 T- fChannel layout                           : L R C LFE Ls Rs
4 w0 J7 E: Z& U( w6 j. i8 @Sampling rate                            : 48.0 kHz
  Z% C- q; w3 W6 R6 n- @Frame rate                               : 31.250 FPS (1536 SPF)4 e. p, Y1 i, E* A5 \
Compression mode                         : Lossy5 K% }( ~9 ?3 ^  S, H5 S& M
Stream size                              : 385 MiB (3%)
2 a# K3 J7 h5 y: FTitle                                    : Cats.Dogs.3.Paws.Unite.2020.1080p.BluRaycd.REMUX.AVC.DTS-HD.MA.5.1-FGT
1 b' g# O7 {: l9 F. XLanguage                                 : Spanish3 H, G$ r6 H- f# ?
Service kind                             : Complete Main7 G% ^$ q# Y7 Y8 ?
Default                                  : No% q% W( \9 v6 b/ H3 h) Q
Forced                                   : No# A; m5 X: Q& g8 D& w# t- B
Original source medium                   : Blu-ray
& b- ~/ r5 c2 s9 _3 n- G0 t6 N" C! ]2 o: q* y9 z( R' k
Audio #4/ i1 A5 y2 Z2 G0 R# H) i; }9 f% H
ID                                       : 5- \+ l! q) B0 w$ U3 s
ID in the original source medium         : 4355 (0x1103)
- e% m) v3 D8 ?( b- pFormat                                   : AC-3
# y4 |( k5 v. [' F7 U; IFormat/Info                              : Audio Coding 3
; F: t; X% f* i) H4 A  N0 k3 yCommercial name                          : Dolby Digital
0 k, y" X$ I  i1 [# W5 L; _Codec ID                                 : A_AC3
4 b# T  x0 r/ F  [  MDuration                                 : 1 h 24 min
1 m& e8 _4 S+ y" }9 n) Q9 x& _Bit rate mode                            : Constant8 ?, }% L) I6 M8 S; z3 V
Bit rate                                 : 640 kb/s
6 k' A3 i" w+ f1 u: _" W# X) RChannel(s)                               : 6 channels! w% I+ Y8 E' w8 p- {/ d
Channel layout                           : L R C LFE Ls Rs
9 u: d$ n4 l( [$ R, }" a. aSampling rate                            : 48.0 kHz8 Y' F# \( \3 p: F
Frame rate                               : 31.250 FPS (1536 SPF)
: o; H; M  Q5 u9 d0 @- i* H3 {, iCompression mode                         : Lossy
: F* H2 H( S: N& K5 MStream size                              : 385 MiB (3%)
  Q; T' h5 d  z: p9 ZTitle                                    : Cats.Dogs.3.Paws.Unite.2020.1080p.BluRaycd.REMUX.AVC.DTS-HD.MA.5.1-FGT* J8 t$ D" [# J# X+ q. |) n% O
Language                                 : Danish; m9 w3 i$ Y& m! @
Service kind                             : Complete Main$ e) f' c- a- G6 S5 X( u
Default                                  : No1 H! F3 A7 M# ]' h& ?
Forced                                   : No  R! v8 j4 |) [7 q) ~
Original source medium                   : Blu-ray
5 u4 b: I7 M; q+ A8 @/ P( ]7 z$ D  b( m- @
Audio #5
' x; `5 m0 c9 V7 }ID                                       : 6$ i% U  x) L& A# _0 E
ID in the original source medium         : 4356 (0x1104)2 p7 s/ h% m1 P: h6 h
Format                                   : AC-3' d' Z, ^4 p' s: O
Format/Info                              : Audio Coding 3
: g. B! Q8 Z# B, `4 HCommercial name                          : Dolby Digital( a* V9 Q! D" q8 [1 A( H0 \
Codec ID                                 : A_AC3
, z& |7 [7 e  `, l  D, ], iDuration                                 : 1 h 24 min' J2 d! k8 o! ?: {& W# g
Bit rate mode                            : Constant& O" J* y9 v2 o0 ^
Bit rate                                 : 640 kb/s8 z) x2 S! a6 f) m- H* j8 M; y
Channel(s)                               : 6 channels# e- _& }, ?+ v% `( ^
Channel layout                           : L R C LFE Ls Rs
2 `/ c6 B9 ~0 b$ {Sampling rate                            : 48.0 kHz! D0 k& A1 H: o( Q4 y
Frame rate                               : 31.250 FPS (1536 SPF)
) j6 J! q( F# _7 ?7 a! g! RCompression mode                         : Lossy3 I0 n: y" h) u- Q2 d6 R4 @
Stream size                              : 385 MiB (3%)
; z! G- K) ~6 v, Z7 cTitle                                    : Cats.Dogs.3.Paws.Unite.2020.1080p.BluRaycd.REMUX.AVC.DTS-HD.MA.5.1-FGT" d! a- p/ J. X* D+ l( b8 _. D0 l; p
Language                                 : Finnish1 z! J0 `) |( T/ ^  ~5 m
Service kind                             : Complete Main
# {% y& `2 U4 MDefault                                  : No
7 q  C1 f: {" J6 g$ \9 t9 j0 cForced                                   : No
* n$ y+ Y0 t1 L1 d. dOriginal source medium                   : Blu-ray. x5 S3 m1 \. f8 K& X* k8 R* z6 \

9 i% H  P0 U+ D7 r8 |  D6 hAudio #6$ \- K# S2 V6 ]& W% A
ID                                       : 72 U: b6 X, H- i
ID in the original source medium         : 4357 (0x1105)+ b7 m& M- j3 M* V( c
Format                                   : AC-3
) r/ Y3 _5 [* K' m8 K3 e7 f% M2 W4 SFormat/Info                              : Audio Coding 3
6 w( l. R0 x5 t. e+ p# }3 RCommercial name                          : Dolby Digital( a) y3 @2 v/ s* C9 @% T! j
Codec ID                                 : A_AC3* x9 A4 M8 h- [
Duration                                 : 1 h 24 min, g! U: o. J6 l6 v+ Q; x
Bit rate mode                            : Constant
% z% X  u! X" w2 s; wBit rate                                 : 640 kb/s
, D; j  g7 ?: YChannel(s)                               : 6 channels8 D6 H8 ]8 m) \2 v9 I- h0 b
Channel layout                           : L R C LFE Ls Rs
( B- n; Z1 P4 u# b& z* \Sampling rate                            : 48.0 kHz
* Y7 [/ n/ a% tFrame rate                               : 31.250 FPS (1536 SPF)
1 d9 b3 i& o6 TCompression mode                         : Lossy3 }2 d+ O9 |* T# _1 Z
Stream size                              : 385 MiB (3%)2 O5 d/ X1 i3 |( o( J0 [1 r! S' N0 h! y
Title                                    : Cats.Dogs.3.Paws.Unite.2020.1080p.BluRaycd.REMUX.AVC.DTS-HD.MA.5.1-FGT( e, u' k, s% x3 Y$ ~. f
Language                                 : Norwegian, a; m% D& e' U, l1 h9 ^
Service kind                             : Complete Main
! E* A( y# ]& Q$ k  q: gDefault                                  : No
4 x2 _. p4 I: S' V0 y- i- BForced                                   : No
& o/ I' f8 c0 z/ ZOriginal source medium                   : Blu-ray
6 ]& B. U  E3 e( {
" }/ E1 g1 ~! y# O% \Audio #7
; o! Z! p( }3 A3 v) H1 \ID                                       : 89 K' I4 m9 Z& o8 }9 d
ID in the original source medium         : 4358 (0x1106)
7 C) x3 v2 U0 E& L8 n( y* ]! W& \Format                                   : AC-38 X6 u& A( i$ I) M3 b; f
Format/Info                              : Audio Coding 3
% @& H' o3 N2 v0 WCommercial name                          : Dolby Digital& m! g0 v/ L) V* Y. G3 J- ~
Codec ID                                 : A_AC3. W7 i) Y: n, ?5 l
Duration                                 : 1 h 24 min  J' [5 \, g/ E  F
Bit rate mode                            : Constant' m: t6 Q. p/ M6 P1 u5 ]$ |  M
Bit rate                                 : 640 kb/s
3 `) K0 P' g( ~; I4 l9 X5 I* xChannel(s)                               : 6 channels
: W2 \  `( O% RChannel layout                           : L R C LFE Ls Rs
7 ]: ?0 P7 p4 L( x" ^Sampling rate                            : 48.0 kHz0 l  H# y- K$ t+ p2 X
Frame rate                               : 31.250 FPS (1536 SPF)& R  Z9 q, B" G& A, D8 S0 w$ ~: ]; v1 U
Compression mode                         : Lossy  m) |4 ]* j* j8 r0 P
Stream size                              : 385 MiB (3%)
  }+ e6 F2 ?; K$ B  y( kTitle                                    : Cats.Dogs.3.Paws.Unite.2020.1080p.BluRaycd.REMUX.AVC.DTS-HD.MA.5.1-FGT9 m2 I  E/ }- T- I6 J5 x( B! ?
Language                                 : Swedish
8 s, y$ D; a8 @! V2 a, KService kind                             : Complete Main1 y+ T' n) J. Z3 V' M
Default                                  : No# ^& k6 @/ c0 @, \% h
Forced                                   : No' y6 F# Z% J3 m0 o4 m/ k
Original source medium                   : Blu-ray
3 I! ~+ J2 x6 m& W' X1 H
1 y! N6 B7 a6 l/ iText #1
$ v, \" g5 H  @" ~( r) N* K' I/ eID                                       : 9: |3 @" k7 B, S
Format                                   : UTF-8
4 M3 t* a0 K# A6 a' N6 I  OCodec ID                                 : S_TEXT/UTF8# O& |9 v/ `8 I9 m7 M5 ^0 O9 O
Codec ID/Info                            : UTF-8 Plain Text1 H5 \* O4 I. G0 L3 G! b
Duration                                 : 1 h 22 min, p0 X5 S# \- B5 Z
Bit rate                                 : 72 b/s
' l) u2 r" Q& G0 q6 }% XCount of elements                        : 12243 H2 }5 e. F+ l2 I% b$ |$ {  e
Stream size                              : 43.5 KiB (0%)
8 D0 J% v! k8 ^$ ZTitle                                    : English-SRT
/ w+ S, `, ^2 x+ c4 ?5 LLanguage                                 : English
! g% z0 D9 A  [* s+ G+ m, cDefault                                  : Yes
) Y9 N  r  _7 j: u9 p4 l& {Forced                                   : No5 J( U' `6 X5 r6 S: n; I1 D
4 x+ f* D* J  b# j0 c2 ?
Text #2$ B8 b. m: `2 \5 z6 N
ID                                       : 10  j6 M1 i/ ]0 D$ d6 n9 T
ID in the original source medium         : 4608 (0x1200)! I. m: c) b" o' }( z
Format                                   : PGS1 L; {1 x8 B9 Z. |9 g% M, a
Muxing mode                              : zlib9 L3 a9 f$ _0 u" [  f6 z* S
Codec ID                                 : S_HDMV/PGS1 C: f+ z4 S+ ]7 z4 w' ?2 H
Codec ID/Info                            : Picture based subtitle format used on BDs/HD-DVDs
  B# c7 S+ [; n& e# V! F; gDuration                                 : 1 h 23 min
/ |9 p5 t2 H5 O# k+ w" ]7 `Bit rate                                 : 46.7 kb/s
( |1 m+ S% {3 t- m+ JCount of elements                        : 2776
1 D, i3 w2 d- a" a7 WStream size                              : 27.8 MiB (0%)1 j; N2 m( ?# {. e
Title                                    : English-PGS
: P# X8 Q# j. M" Z7 l* l5 z# y( c) @Language                                 : English+ B# B" Y, x, E5 X. X
Default                                  : No
9 ]- a% U2 t+ d  M# s; IForced                                   : No8 h* ?+ D2 X, Q$ k6 u/ ~8 u: O  p
Original source medium                   : Blu-ray: d9 m+ t7 |2 }( h( c- f

: \. b5 @" I! L6 K; _Text #3
" u' {7 F/ R4 B2 `  @ID                                       : 11+ g8 u/ C; A, x/ ~3 _) x
ID in the original source medium         : 4609 (0x1201)* H/ }! A5 r1 ^# p4 ~
Format                                   : PGS
7 n! w  V0 h3 [6 t3 B% Q+ p- rMuxing mode                              : zlib
6 \6 c7 ~1 p! lCodec ID                                 : S_HDMV/PGS- Q$ x4 L; N9 z  t/ ~! e6 b
Codec ID/Info                            : Picture based subtitle format used on BDs/HD-DVDs$ a/ I  y+ R( c; Z* J( L; @6 s
Duration                                 : 1 h 23 min5 \$ |. _) `- ]; S6 ]5 T4 y% A
Bit rate                                 : 33.7 kb/s8 w' r- m0 k  e' l, H2 P1 T
Count of elements                        : 2214+ @; P* j/ E& a: }8 b
Stream size                              : 20.2 MiB (0%)
) \) Y: |% a1 B5 M& S/ Y) RTitle                                    : French-PGS2 j0 u0 Z- b) p
Language                                 : French. ?1 o5 {8 ~1 W3 m
Default                                  : No$ Z: A9 m. y' F+ Z: y( ?
Forced                                   : No* X4 i. S# ]& A% z' `- ?& U
Original source medium                   : Blu-ray" n3 L$ L! N# t: ^9 s, q

5 S/ f# X8 B* D- B- F/ w' Z: qText #4
: f! ]5 e1 F6 ?ID                                       : 121 n3 n3 g! u% N. S1 B1 J9 a
ID in the original source medium         : 4610 (0x1202)
! A# ^- L4 ?+ o7 iFormat                                   : PGS9 f. K7 H$ K8 s$ e
Muxing mode                              : zlib
! r5 Q! a/ h* O$ j( x7 C, z2 g; VCodec ID                                 : S_HDMV/PGS- v0 f1 c# o( q% i* x
Codec ID/Info                            : Picture based subtitle format used on BDs/HD-DVDs
0 c7 {; m2 \+ x* N! w* PDuration                                 : 1 h 23 min, c* ]! l* H' p4 K. w& M- V
Bit rate                                 : 37.9 kb/s0 U- l* F: b; |, B4 D
Count of elements                        : 2300
2 d% ?) L; g0 }' o6 |" U4 XStream size                              : 22.7 MiB (0%)3 E  x* o' }# v  @2 s$ Y
Title                                    : Spanish-PGS8 O) ~1 d& {# O. E
Language                                 : Spanish
7 q# C" `' [2 W, @Default                                  : No
! c4 U$ M: p0 g: M% tForced                                   : No
/ k3 t: [' J7 g; {7 _2 pOriginal source medium                   : Blu-ray
- o6 O! ?( x/ H' E$ K/ y% ], g- R$ V
Text #5" U5 @0 s5 y! Y
ID                                       : 133 ]5 q0 N$ p$ n; Y
ID in the original source medium         : 4611 (0x1203)
0 Y( Z. Z7 w( r9 `) bFormat                                   : PGS5 ]( M5 [% |+ n
Muxing mode                              : zlib
. R9 S; ~1 K8 S& a" j/ Z: eCodec ID                                 : S_HDMV/PGS
% V' `& Z7 D9 D6 a: S! c. nCodec ID/Info                            : Picture based subtitle format used on BDs/HD-DVDs+ M% x2 s3 @  ?1 u
Duration                                 : 1 h 23 min
' U' k8 }% g5 ?$ v; o& j! }Bit rate                                 : 37.0 kb/s3 z8 j# r' k4 o; Q$ C1 x( q: C* I2 h
Count of elements                        : 2308
- R; }/ \% g& F, \8 ~8 JStream size                              : 22.2 MiB (0%)
) b7 y  f0 l0 V' v: x+ _  ?# L2 NTitle                                    : Danish-PGS
. I( A* Z8 }; x4 `/ kLanguage                                 : Danish! S2 f: D- C  s" y. I) q  K
Default                                  : No/ I4 |+ d7 S* m' d0 x; x7 j" G6 h( @: D9 Y
Forced                                   : No
) b8 d# X$ {" s# {8 VOriginal source medium                   : Blu-ray
* a& W) j( Q. ~; c: x/ ]
0 j" l0 S; ]$ W, qText #63 ]' R6 N! j. y# _0 L" ?6 o
ID                                       : 14% p- n; `/ P/ q  L. l: ^
ID in the original source medium         : 4612 (0x1204)
2 f/ R; \) \" }( {' {6 C* @Format                                   : PGS( p% q8 a0 Q  ^: f% S
Muxing mode                              : zlib7 a/ |: X7 E0 A' u% Q1 z4 P
Codec ID                                 : S_HDMV/PGS
6 c& r  P: I* f: {Codec ID/Info                            : Picture based subtitle format used on BDs/HD-DVDs
- m% Q4 x. I4 I0 x5 tDuration                                 : 1 h 23 min& f' Z, ]4 |' V' a: H7 g' R$ a
Bit rate                                 : 37.8 kb/s
( r4 k& ]; `! X$ L3 WCount of elements                        : 2164
" H3 W; _5 z9 WStream size                              : 22.6 MiB (0%)
3 x) _& Z, @' T" z; xTitle                                    : Finnish-PGS
- u6 m+ G0 ]4 M! A' c  p' W- O! lLanguage                                 : Finnish8 z0 @7 O) I6 W1 h: N. a5 w
Default                                  : No# R8 r! {# F  [2 q
Forced                                   : No  l+ Y) ?0 ~; ~8 G7 e7 t
Original source medium                   : Blu-ray# b- T7 A7 _+ G% _
1 t$ |; e+ L* m& A5 V
Text #7. ]( F3 |: {* e, O. @3 E# B
ID                                       : 15
8 R6 @* x  n. i1 k" i+ bID in the original source medium         : 4613 (0x1205)2 A1 k; b$ Y8 @& L  q2 R
Format                                   : PGS6 X3 X1 ]# r; U& e; M. e( K
Muxing mode                              : zlib- C3 V0 ~$ N: E" m) ]* K1 s+ ?
Codec ID                                 : S_HDMV/PGS: Q* e: Z4 \) ?' O5 d
Codec ID/Info                            : Picture based subtitle format used on BDs/HD-DVDs
2 j1 C. P6 J5 T+ N4 k" y6 J9 YDuration                                 : 1 h 23 min
: C. \7 G8 u' `" ^Bit rate                                 : 32.1 kb/s  f4 Z" n6 q# n3 o$ R! c
Count of elements                        : 1888
3 I) s( ]& r# c8 b% BStream size                              : 19.3 MiB (0%)" u  h7 C6 p  {; z2 r, F
Title                                    : Norwegian-PGS/ C0 f% _- l) F: ?0 \
Language                                 : Norwegian+ o0 l4 G* k. O- n% u
Default                                  : No
2 Z% U# b1 Q9 @5 ~/ PForced                                   : No5 }7 R8 m& j4 [: o7 J2 f: ]! g
Original source medium                   : Blu-ray# r5 f. q" t9 A" j4 C# `
! A, T/ m3 X! t8 o9 N- z
Text #8
3 U" O  c; K- S, u% L: mID                                       : 16$ ^& H3 T; M& C/ X1 t& D0 s) `- U
ID in the original source medium         : 4614 (0x1206)
# ^+ M8 |# L7 C) N2 o. R% VFormat                                   : PGS5 l# R( t% K& n1 K$ }7 z. e4 ~7 k) f
Muxing mode                              : zlib  y1 ?  k# V5 t3 r  J" `; S5 ~: s
Codec ID                                 : S_HDMV/PGS+ `  }6 J' I- g. o/ ~
Codec ID/Info                            : Picture based subtitle format used on BDs/HD-DVDs
* ~; s8 M) ?% Y0 O, B- P* {Duration                                 : 1 h 23 min6 a( K4 F( h9 t
Bit rate                                 : 35.6 kb/s: S1 D" j$ h& p9 b9 h
Count of elements                        : 22903 O( u  P  n4 N! i  ]6 [2 }' x# J
Stream size                              : 21.3 MiB (0%)
- m  Z: d+ j8 M6 K) @Title                                    : Swedish-PGS5 g* ^4 ?( ~: C
Language                                 : Swedish) p/ p& P' [! k+ j* z" z
Default                                  : No& Y) f# D0 Z8 M: B0 |8 i1 `- j
Forced                                   : No
+ B8 {9 a5 [" POriginal source medium                   : Blu-ray7 P2 d5 a* ]8 `
0 i" S8 f% `7 v3 f. u$ O
Text #94 W8 y+ H- p4 u, R, P; i
ID                                       : 17. K/ _) i- S0 i. \8 q8 I( e. _5 ]
ID in the original source medium         : 4615 (0x1207)% B9 c9 t+ c: D' T( d# b- L
Format                                   : PGS; O- d" Z8 ?5 t# k8 b
Muxing mode                              : zlib
8 ?+ M7 z' D2 v/ T3 |: p6 XCodec ID                                 : S_HDMV/PGS+ G/ C# ^; {9 T
Codec ID/Info                            : Picture based subtitle format used on BDs/HD-DVDs' l1 y+ g4 u  e2 t# h
Duration                                 : 1 h 16 min
2 f1 X' M* @% }( QBit rate                                 : 948 b/s# C' u% @7 \3 r( B
Count of elements                        : 644 z) }; r9 o. C+ k
Stream size                              : 531 KiB (0%)
$ q: K, d4 K2 M5 [+ B9 GTitle                                    : Spanish-FORCED-PGS% D6 {% {* a: m( b
Language                                 : Spanish
! R4 p, s' T$ D0 VDefault                                  : No
7 s; x8 t2 _( L7 }# {Forced                                   : No: S* W- C9 M8 K1 e: Z
Original source medium                   : Blu-ray! q9 t) k2 c3 {/ D: \5 h3 W' g9 v
* X# r4 o1 t& f. V, G. `
Text #10" |! m  T" g' f/ |
ID                                       : 18
4 E8 l) e9 u0 E6 {2 A5 i) ^- Y) DID in the original source medium         : 4616 (0x1208)$ y7 `. y! c/ a1 W7 E8 n0 h
Format                                   : PGS; ^% E# ]5 l& b4 c, U8 m8 k4 l
Muxing mode                              : zlib
8 w& ?+ K4 X$ jCodec ID                                 : S_HDMV/PGS
  G3 @& s) E* n0 [5 L4 F/ }Codec ID/Info                            : Picture based subtitle format used on BDs/HD-DVDs5 ^$ _9 C4 M8 O1 \( z
Duration                                 : 1 h 4 min7 F! |+ g& i& e  ?5 w
Bit rate                                 : 479 b/s
3 J& L1 c$ I# i; R2 [( u" Y/ CCount of elements                        : 361 d) z( W1 p; H( v
Stream size                              : 225 KiB (0%)0 N2 C4 b6 k4 ~0 i& y
Title                                    : Danish-FORCED_PGS( _% d3 u% Q3 [
Language                                 : Danish; @+ T$ Z' l5 ?) Z( r1 p8 U! S
Default                                  : No
) |9 V9 t! }0 Y2 P5 R( ^, iForced                                   : No
' i. y& x6 ]8 f0 l8 z4 Q, `9 \Original source medium                   : Blu-ray! f8 ]' ]  h/ m$ q
) {, N" L0 x/ d7 E
Text #11
& @5 ^' m6 `% O/ r- h% v. l# YID                                       : 19
9 W+ r- Z6 [& j- I& r% _& }0 B3 tID in the original source medium         : 4617 (0x1209)
2 x6 t# H( a2 y# f5 e7 T; O1 Y7 L: a2 RFormat                                   : PGS) B( i0 {- Z, d
Muxing mode                              : zlib
9 H  o; d+ j7 K( O' D. @Codec ID                                 : S_HDMV/PGS
" Y! {' Y& B% g! s8 O: c% TCodec ID/Info                            : Picture based subtitle format used on BDs/HD-DVDs
, S! [$ W3 r/ [9 xDuration                                 : 1 h 5 min- {/ O8 ]6 m6 W; M+ E
Bit rate                                 : 260 b/s+ [, v, N9 w. `# N( o; V1 j4 T
Count of elements                        : 20" {3 o# Y7 b) l" |7 d( A) ]
Stream size                              : 125 KiB (0%)* v: v+ Z5 A# {  ?
Title                                    : Finnish-FORCED-PGS
, R, K* [! L' u; A3 G& }8 _Language                                 : Finnish
% P( a9 a; X) D4 y) xDefault                                  : No9 m2 ]; E5 ^5 {, `
Forced                                   : No2 t4 ]2 Y7 G$ {& E6 m) t! @2 b2 O
Original source medium                   : Blu-ray" ~. s3 X& k0 W& P; E" P

0 j) N* v/ a1 N2 R. pText #12, {' ]' s3 }$ f4 U; U
ID                                       : 201 i0 Z& Y: l8 @
ID in the original source medium         : 4618 (0x120A)- O, \* U( l- F" G/ C
Format                                   : PGS# n. A# ^- N9 `5 x6 i
Muxing mode                              : zlib
4 ^8 _) O5 G( k% C6 y6 \Codec ID                                 : S_HDMV/PGS* u: f' S4 r, X+ g
Codec ID/Info                            : Picture based subtitle format used on BDs/HD-DVDs
2 y4 u: \( x6 r3 ?% zDuration                                 : 1 h 16 min& [- ?9 `$ H# D) ~2 v# X1 ]& y, S
Bit rate                                 : 799 b/s
: @- ?% q1 H! V, W+ E" O" oCount of elements                        : 56
' E* o2 p- `% l  `3 J- u# EStream size                              : 447 KiB (0%)7 Y& Q2 o4 M* h
Title                                    : Norwegian-FORCED-PGS1 D( A* H1 Y3 |7 [
Language                                 : Norwegian3 X: @2 q4 c- _' U# O
Default                                  : No2 A8 b( M) J( M
Forced                                   : No
. f7 T6 n0 [& v! sOriginal source medium                   : Blu-ray7 W  |0 z; a! K% L& v
* [8 \' T& l4 y2 ~7 q: H
Text #13$ |" w8 u  X5 t+ |- u; [1 q
ID                                       : 21
. D/ G# t2 x+ R% iID in the original source medium         : 4619 (0x120B)8 x! _3 v. H/ g
Format                                   : PGS
& [. W6 ]) a: y1 DMuxing mode                              : zlib+ d( f, y$ Q8 E9 B0 x" R3 Y' Q
Codec ID                                 : S_HDMV/PGS1 S' k, ]" i) [" I$ k6 [6 E* S+ D
Codec ID/Info                            : Picture based subtitle format used on BDs/HD-DVDs
, q- n5 v, \1 J: H6 n0 rDuration                                 : 53 min 47 s; z* s5 q3 A0 u% d
Bit rate                                 : 104 b/s
7 j" X  ]7 R; D( |Count of elements                        : 65 Q% z/ z1 ~' e2 t  a
Stream size                              : 41.1 KiB (0%)
3 _/ T) d4 B" O, o3 z8 LTitle                                    : Swedish-FORCED-PGS' Q( f! d. Q- p, [' F" o
Language                                 : Swedish! m. s5 x: |2 D7 T
Default                                  : No$ c1 K6 ~  I; v. k9 m- f/ W
Forced                                   : No) s0 v, W7 R7 t. `, Z- w! X
Original source medium                   : Blu-ray
, R  A9 w4 h8 p  D0 j4 F' S% Q8 o$ I: u
Menu3 b/ P: G* R, Q
00:00:00.000                             : en:Chapter 01/ t: X% @  [/ W: \
00:07:39.542                             : en:Chapter 02% v, e: V/ @7 n7 a+ l% P
00:14:19.608                             : en:Chapter 03
7 l& W. \! ~% @8 U8 H& a00:21:28.537                             : en:Chapter 04
; _1 i4 x% h5 c' P' a( X9 B5 v1 P00:30:17.357                             : en:Chapter 05
6 S0 i# [, g3 E" m& A# Q4 a; }" E00:37:14.065                             : en:Chapter 06
. D8 r$ O$ B7 V% z/ n00:44:49.978                             : en:Chapter 07
6 ~% [, e4 s1 c( S3 q' V- H3 A00:54:02.822                             : en:Chapter 08+ z7 W/ l* e3 e, W9 u  [: |
01:01:09.499                             : en:Chapter 09$ [$ t, k( I. S( e" Z! U
01:07:51.859                             : en:Chapter 10; t$ i! @6 J; H( k/ P% ^
01:13:19.978                             : en:Chapter 116 y5 x, r' |/ |1 x, |
01:19:26.678                             : en:Chapter 12
/ F2 z: f* Z# f
游客,查看本帖隐藏内容请回复 | 加入VIP贵宾组可免积分免回复下载 了解详情 | 还不是会员:点击获取邀请码 Invitation Code

600

主题

1989

帖子

1万

积分

VIP advanced

金币
1737 枚
体力
4529 点

公主勋章卓越贡献勋章

21cn 发表于 2020-10-15 02:44:49 | 显示全部楼层
Bluraycd又有新电影发布了,激动中……!
9 T; N2 g! S, f9 y/ N9 pbluraycd forum, a lot of Blu-ray movies!% p4 X1 g1 k, f# c/ j# r7 J+ q5 O' ~

64

主题

1486

帖子

5413

积分

Sponsor

金币
292 枚
体力
2056 点
lanpanshuma 发表于 2020-10-15 16:15:43 | 显示全部楼层
楼主发贴辛苦了,I*老*虎*U!
% M6 M7 s$ Z7 P8 @Bluraycd.com movie updates really fast, also did not release issued, whether you believe it or not, anyway, I believed!
该会员没有 ...

本版积分规则

小黑屋|Archiver|蓝光电影资源网

GMT+8, 2020-10-23 04:49

快速回复 返回顶部 返回列表