BluRayCD Forum

 找回密码
 立即注册【分享大片】

QQ登录

只需一步,快速开始

查看: 50|回复: 5
收起左侧

[蓝光原盘] 苍白之门/苍白的门 [REMUX无损版] The Pale Door 2020 1080p BluRaycd REMUX AVC DTS-HD MA 5.1-FGT 27.50GB

[复制链接]

7777

主题

7971

帖子

6万

积分

Forum Moderator

金币
10555 枚
体力
9607 点

卓越贡献勋章

24小时 发表于 2020-10-15 00:06:12 | 显示全部楼层 |阅读模式
01.jpg 7 q) J3 A. e2 R. j: L3 L
! `* `3 u" ]. W( x3 ?
◎译  名 苍白之门/苍白的门# z' @, F! b- C
◎片  名 The Pale Door' n9 B% n, j/ ]; b0 n& ?+ s& X
◎年  代 2020
4 o0 e0 P  z% m* C3 \- w1 Y2 B◎产  地 美国4 u  q4 j1 ^* Q& d& u% c8 p! N
◎类  别 恐怖/西部
7 p9 M/ b$ M! l+ ~, `% N8 a2 T◎语  言 英语5 Y1 Q* s5 O9 ~% y7 G$ a! j
◎上映日期 2020-08-21(美国): L# }1 ^) D8 Z
◎IMDb评分  4.7/10 from 1,554 users
' F; j; n+ D" h+ x$ c; `1 B& Q◎IMDb链接  https://www.imdb.com/title/tt9178402/4 l* x# F- A! e- w  ~! C: ~5 t& ]
◎豆瓣评分 0/10 from 0 users
) ?! o) z4 W! [◎豆瓣链接 https://movie.douban.com/subject/34445466/2 {+ n. n3 i1 |+ N  ]' p
◎文件格式 x264 + DTS 0 C( E' @( t! R  ?8 j3 a
◎视频尺寸 1920 x 1080; ?* s; |/ D" ^, p5 `
◎文件大小 1DVD 27.50 GiB
2 K, D" }* m9 C/ O◎片  长 1 h 36 min
) {; \9 o; ^5 O% A: W◎导  演 阿伦·库恩兹 Aaron Koontz
" S' j( n1 E) x+ c5 D9 Z* J& D* x◎编  剧 阿伦·库恩兹 Aaron Koontz
# H6 [# f. n0 \; o! [       Cameron Burns
% o4 n, @, J' u4 O7 j3 l9 t+ ]- {◎主  演 梅洛拉·沃尔特斯 Melora Walters5 w& J7 \6 A, C- u
       扎克里·奈顿 Zachary Knighton, `! Y/ h5 W5 l( s1 n$ f2 D- T
       斯坦·肖 Stan Shaw* w+ O) ?, R; |! p
       比尔·萨奇 Bill Sage
' b$ I$ G7 `3 y/ a3 }       戴文·德鲁伊 Devin Druid; N/ r" ]  d* Q2 z9 u
       诺阿·西甘 Noah Segan
3 n1 A: b0 ?, Q) q" ^6 ]6 l4 k       娜塔莎·巴塞特 Natasha Bassett
. U& F- _; ^1 I1 g) P* X! l2 O+ ?       帕特·希利 Pat Healy3 o3 D# f0 J1 [: \8 U$ |
       蒂娜·帕克 Tina Parker
2 ]- ?- Y# ]" h' p       亚历山德拉·哈里斯 Alexandra Harris: K& w& |( u( z1 @
       乔尼·马尔斯 Jonny Mars
1 f/ H" _. k  _5 R7 R       达里尔·考克斯 Darryl Cox
( ?7 I8 X: m0 [) [: _6 |       Danielle Evon Ploeger
) c& r* m  m; B       霍尔特·鲍格斯 Holt Boggs2 x0 @+ p- Z0 h0 _. n
       Jeremy King3 N$ U& A6 D- v4 R4 h4 T% t
       格雷格·威廉姆斯 Greg Williams
) M; ?. Y2 f/ K& e" @6 o! ~       杰瑞米·金 Jeremy King. b# R' V' W. }! Y" w
% G+ b$ k% j! N5 F
◎简  介  ; \# ^0 H6 k+ B  e6 d7 {# ]' `

) p8 t" A! z7 U* O- y! t& \: G6 y) F  Q  火车劫案南下后,道尔顿帮派在一个看似无人居住的鬼城找到了住所。为受伤的领导人寻求帮助,他们惊讶地偶然发现了小镇广场上一个受欢迎的妓院。但是,向她们致意的美女实际上是巫婆之所,对毫无戒心的违法者有非常险恶的计划.) H3 T4 m$ d4 L, z5 W$ w2 J7 H
( d4 U0 g' V+ G- h+ C/ `5 b
  After a train robbery goes bad, two brothers leading a gang of cowboys must survive the night in a ghost town inhabited by a coven of witches.) k& u, E- ^# c3 N5 g: s) H% f
Video
8 x! I5 }6 E3 jID                                       : 17 h1 k# j% }. x7 [/ }+ r% j
ID in the original source medium         : 4113 (0x1011)
$ y& V- ]/ N$ E  v! AFormat                                   : AVC$ h" G5 e3 _7 K+ I/ P
Format/Info                              : Advanced Video Codec, y( @% \1 `! Y4 C
Format profile                           : High@L4.17 H/ K' F' k( h  b! q
Format settings                          : CABAC / 4 Ref Frames& l3 N+ ^" E& i5 E8 b+ c& C
Format settings, CABAC                   : Yes% M3 U- y6 c4 X. Z, m8 a
Format settings, Reference frames        : 4 frames
- J( V+ ~7 r7 P# q! [4 Q6 {Codec ID                                 : V_MPEG4/ISO/AVC2 I. ?) j3 {% T& d9 ^
Duration                                 : 1 h 36 min- E2 i0 ~. c# K4 A4 s3 y
Bit rate mode                            : Variable
- y6 A) b2 |: T; N% V9 q# l! ^4 OBit rate                                 : 37.1 Mb/s
2 V* W& a* r& ?- UMaximum bit rate                         : 40.0 Mb/s
; I5 v# }, u; B# n; ]Width                                    : 1 920 pixels
& U) G4 M! c1 WHeight                                   : 1 080 pixels* P( l- k* _2 W  O( D5 o; a* [4 ^4 O
Display aspect ratio                     : 16:9
8 C( c# c6 @+ a4 pFrame rate mode                          : Constant
6 d1 R0 _3 }' _, t2 `Frame rate                               : 23.976 (24000/1001/37687) FPS2 a4 A8 O/ L! L) W; }9 u; Q% ]
Color space                              : YUV6 w/ O# Z6 A3 m
Chroma subsampling                       : 4:2:0: S" }$ a6 @7 t" n" V
Bit depth                                : 8 bits2 v7 H- C6 e6 w0 W! X( o* M! c
Scan type                                : Progressive$ Z6 g/ _, s2 h6 P7 Z5 E; U3 Q
Bits/(Pixel*Frame)                       : 0.746; _, ~) j5 z  I! U3 ~0 ~4 D+ d
Stream size                              : 25.0 GiB (91%)0 `& L; O  H0 B( E! h3 L
Title                                    : The.Pale.Door.2020.1080p.BluRayCD.REMUX.AVC.DTS-HD.MA.5.1-FGT
4 d: W4 z1 t% `7 @) d4 yLanguage                                 : English
) G9 Z4 r: k/ {3 M9 uDefault                                  : No
% d5 t  ]4 e; u$ qForced                                   : No; E7 f2 \& A- l
Original source medium                   : Blu-ray1 u1 r" {: ]6 k

& M$ \1 @$ h0 y: A  ]% m) g& qAudio #1
. }2 J, \4 y) O1 \) v9 GID                                       : 2& O- h" A- B2 u4 h2 y
ID in the original source medium         : 4352 (0x1100)
: P2 T6 B# s' S* N4 E5 NFormat                                   : DTS XLL
, G7 }6 K- v" d! g( a3 MFormat/Info                              : Digital Theater Systems
1 D# p) E& @8 k& hCommercial name                          : DTS-HD Master Audio/ ?" R1 t, W+ Z3 {/ N. I" N, D
Codec ID                                 : A_DTS
0 U; l  }: U2 }$ I! hDuration                                 : 1 h 36 min
' \$ q$ w' a; M: `% C  yBit rate mode                            : Variable0 Y1 i; n, K+ Z$ i* G
Bit rate                                 : 2 056 kb/s9 v6 M$ V; }: Z& a
Channel(s)                               : 6 channels2 z8 V+ t  T" p, J
Channel layout                           : C L R Ls Rs LFE
; ^, e6 l" M: z7 y+ lSampling rate                            : 48.0 kHz
6 e0 Y7 g. {8 m9 ~+ OFrame rate                               : 93.750 FPS (512 SPF)% a! W* n: c. e: F" m/ e6 F
Bit depth                                : 16 bits
) U( h7 P3 u6 N1 N" @Compression mode                         : Lossless
$ g( D$ l7 b0 V  L  `' iStream size                              : 1.38 GiB (5%)2 K% w$ _* m9 q: C2 b; T1 z
Title                                    : The.Pale.Door.2020.1080p.BluRaycd.REMUX.AVC.DTS-HD.MA.5.1-FGT
9 b! \, o4 y" M. I/ yLanguage                                 : English/ b. G. c( F; o
Default                                  : Yes  @9 `8 V* K, X; }5 o$ v
Forced                                   : No
5 P9 v  o1 f' i" ?1 i' e3 \Original source medium                   : Blu-ray
3 ]& a+ q- ?. q: \' _6 ^
# c3 q' T; j$ v; [# rAudio #2+ I$ @# h1 _2 U# D) P
ID                                       : 3
# b6 J) ~% Q: D$ C) CID in the original source medium         : 4353 (0x1101), d; g& G- a# h4 I/ j2 J
Format                                   : DTS XLL+ _: j2 M: c& {& O/ g
Format/Info                              : Digital Theater Systems
4 q% {. Z3 X( O* }% OCommercial name                          : DTS-HD Master Audio
. h  p1 q0 h+ J7 t& w' R9 bCodec ID                                 : A_DTS
7 h: i. U* u+ [0 a( `# q6 ?Duration                                 : 1 h 36 min4 S: l+ E7 I4 m8 X
Bit rate mode                            : Variable4 t' ~. N4 c9 S, I7 g: [
Bit rate                                 : 1 712 kb/s
3 S" Y9 `6 ]* z8 ]0 lChannel(s)                               : 2 channels- n% ]6 e4 I+ a/ N1 ^1 {
Channel layout                           : L R
- O/ R# b2 T" d* B5 P% g. l( @% ^Sampling rate                            : 48.0 kHz4 S, D' {2 R3 N9 M
Frame rate                               : 93.750 FPS (512 SPF)/ C8 i- R3 g: F3 R2 R
Bit depth                                : 16 bits
: A8 v$ [' j# y4 |5 jCompression mode                         : Lossless
; j' O, v. m- aStream size                              : 1.15 GiB (4%)
; r0 A: U3 H1 E. S) \4 g1 y5 ^3 KTitle                                    : The.Pale.Door.2020.1080p.BluRaycd.REMUX.AVC.DTS-HD.MA.5.1-FGT6 `) {& A: ]) \* T9 \
Language                                 : English9 V, a& [) i( D2 A% E) j
Default                                  : No
3 X( E) x8 m1 V; `: lForced                                   : No8 b& ]2 x5 s, Z+ U
Original source medium                   : Blu-ray
- u7 C- U: ]2 n* |( [) G3 M" }
/ [: E# f+ C. C- EText #1& |* @7 z+ `! L3 o# B, y
ID                                       : 4
0 X! q6 ?) ]6 E, U9 q5 nFormat                                   : UTF-85 Q- }* u5 C" m
Codec ID                                 : S_TEXT/UTF8" Q% ^5 z# F# p# E
Codec ID/Info                            : UTF-8 Plain Text# K) I- k4 j* b  _
Duration                                 : 1 h 33 min
% s: J& i% q6 T0 n2 N4 ^2 ]Bit rate                                 : 42 b/s7 l- f) S2 p& d" P
Count of elements                        : 11495 I* D% N2 r, J1 p/ x
Stream size                              : 28.7 KiB (0%)
2 `' n$ E& q" l: L2 FTitle                                    : English-SRT
8 M* k. z3 k3 J5 Q, I( N' fLanguage                                 : English
0 b1 E9 p! [" i& H* y8 N5 VDefault                                  : Yes
6 w1 M5 H$ X# `: i  O  q6 X+ XForced                                   : No
% ]  i3 p5 z0 a# t2 x' e+ h' l7 _
9 y! a$ u% [5 y3 m1 \5 Y/ M. ?Text #2
. B8 ?. V5 Y. G/ M2 WID                                       : 5! `) t0 e* N. _5 ?+ T
ID in the original source medium         : 4608 (0x1200)
) }2 C- |- }. Z5 H8 @Format                                   : PGS/ j" C& \4 U. ^8 o" ]/ g
Muxing mode                              : zlib0 E0 y- {4 w- r7 t* c  B+ Y$ j
Codec ID                                 : S_HDMV/PGS5 z  L5 g* q5 Q- N
Codec ID/Info                            : Picture based subtitle format used on BDs/HD-DVDs
0 ?7 x& s% l9 F# h! G' PDuration                                 : 1 h 35 min, j6 r5 [! c6 ]% ^* S2 k+ M
Bit rate                                 : 24.5 kb/s
; e3 b5 |+ C4 U( TCount of elements                        : 1561+ [$ g! Q1 Y& J9 r0 S" L8 P) b* B, ]
Stream size                              : 16.8 MiB (0%)
3 q6 n! ~9 v4 tTitle                                    : English-PGS
; p8 Z3 W; S' E. Q( p# eLanguage                                 : English
" C5 a) e) o  P; [0 FDefault                                  : No3 T5 Q+ I% u( R! Z
Forced                                   : No6 j' @- H0 F% E6 t% s6 {
Original source medium                   : Blu-ray- Z1 ^" s; i0 X- L+ V
9 v1 J, S; h% t/ i& v# s
Text #35 q$ d  o1 h$ A+ `- S! C# T4 L- b
ID                                       : 6! |# L) s9 X& b9 W  U, g
ID in the original source medium         : 4609 (0x1201)
2 w8 R+ F# a2 a5 n+ |2 jFormat                                   : PGS( R* l3 b6 m- W& z
Muxing mode                              : zlib
5 D4 ]6 x, X/ `9 J9 RCodec ID                                 : S_HDMV/PGS
1 t; F2 D4 N% r7 S! O  A2 [. WCodec ID/Info                            : Picture based subtitle format used on BDs/HD-DVDs
! c& ?  d* Q+ H# fDuration                                 : 1 h 35 min
" E+ k$ e4 j6 \3 b/ [% g- g( DBit rate                                 : 21.1 kb/s7 W9 m) K/ ^) D/ }0 _
Count of elements                        : 1349( X& Z  \2 X& I' _
Stream size                              : 14.4 MiB (0%)$ F" {. L5 i6 L9 M- n
Title                                    : Spanish-PGS3 m5 ?& ^* `& h3 c
Language                                 : Spanish
6 o5 W/ \8 D4 S; s6 p. r: [; N  e" J- yDefault                                  : No
/ `4 _% |# g/ TForced                                   : No
3 }) ^9 r9 e- Y- {/ X) mOriginal source medium                   : Blu-ray
. y9 s3 [5 N* p1 T6 i7 p
; u6 U5 H( X' P* ?5 MMenu
3 G: Y3 e" O7 d00:00:00.000                             : en:Chapter 01
0 c: ^' Z# ^& s8 L6 |& [00:09:03.918                             : en:Chapter 02
/ H' o8 ]3 c  d/ R% f# g' H9 K00:19:00.013                             : en:Chapter 03, z4 d; B; C' X, m
00:24:23.795                             : en:Chapter 04' \# E" Y; g* V8 F
00:29:44.741                             : en:Chapter 055 A2 M/ j7 f2 r0 y) S, u: \2 m9 h
00:37:32.750                             : en:Chapter 06* d, {, N0 h4 u/ W) |
00:46:36.710                             : en:Chapter 07* d. ]8 ?  k0 V% }! {# w5 a* F
00:54:09.162                             : en:Chapter 08- }  Y" q; _0 @% b3 `7 J
01:05:45.149                             : en:Chapter 09
8 s8 R9 O7 i" [8 `- S: ]01:14:52.905                             : en:Chapter 10# g  E6 b" M+ K9 Q& g
01:24:17.302                             : en:Chapter 11
" x, X; B* K8 a/ z01:30:43.062                             : en:Chapter 12

' B% h0 z& Y8 z; ?: O8 S, e
游客,查看本帖隐藏内容请回复 | 加入VIP贵宾组可免积分免回复下载 了解详情 | 还不是会员:点击获取邀请码 Invitation Code

600

主题

1989

帖子

1万

积分

VIP advanced

金币
1737 枚
体力
4529 点

公主勋章卓越贡献勋章

21cn 发表于 2020-10-15 02:43:44 | 显示全部楼层
每天都来蓝光论坛看看,我爱蓝光电影。+ s- D/ R# k3 v/ E' [
After reading the posts have nothing to do I Amoy posts!
& e0 v. ^; P+ K

64

主题

1486

帖子

5413

积分

Sponsor

金币
292 枚
体力
2056 点
lanpanshuma 发表于 2020-10-15 16:17:17 | 显示全部楼层
哥顶的不是帖子,是孤独!1 x4 a7 @3 y, ^2 r! _+ @
Bluraycd.com movie updates really fast, also did not release issued, whether you believe it or not, anyway, I believed!
该会员没有 ...

2

主题

708

帖子

3135

积分

Sponsor

金币
597 枚
体力
1199 点
tto138 发表于 4 天前 | 显示全部楼层
看了LZ的帖子,我只想说一句很好很强大!""+ h7 {9 s1 `7 C. K, {/ x
Not see, I am a novice, the inadequacies of the first Please bear with me!
/ V2 R5 N4 H. K/ _: W

0

主题

366

帖子

1878

积分

Sponsor

金币
20 枚
体力
1184 点
QQ
sunday_119 发表于 3 天前 | 显示全部楼层
每天都来蓝光论坛看看,我爱蓝光电影。% I! G* j3 P9 Y5 ]
Blu-ray Film Forum is now my home!" o+ q* V! _& R" i

0

主题

256

帖子

1366

积分

Sponsor

金币
0 枚
体力
812 点
sclzywxl 发表于 昨天 16:20 | 显示全部楼层
谢谢楼主分享

本版积分规则

小黑屋|Archiver|蓝光电影资源网

GMT+8, 2020-10-23 04:09

快速回复 返回顶部 返回列表