BluRayCD Forum

 找回密码
 立即注册【分享大片】

QQ登录

只需一步,快速开始

查看: 15|回复: 1
收起左侧

[动作战争] 卡拉什尼科夫 Kalashnikov 2020 RUSSIAN 1080p BluRaycd x264-SPHD 15.11GB

[复制链接]

4023

主题

4398

帖子

3万

积分

Post Share

金币
7676 枚
体力
6895 点

卓越贡献勋章

mvods 发表于 2020-10-20 21:29:59 | 显示全部楼层 |阅读模式

* G* _2 f5 J/ i9 P8 ^+ G; Z% v- S
9 C  U& {& O- v, G$ g- M8 ?  k◎译  名 卡拉什尼科夫
4 d5 E+ I: ~& [1 [5 `1 e$ N  L◎片  名 Калашников / AK-47 / Kalashnikov
0 Y1 z& d6 i/ H, c- ]/ M, p& C◎年  代 2020! j% z8 |! U& {+ G  u
◎产  地 俄罗斯
* }% Z- ?9 }9 y& _2 ^7 ]$ F5 D◎类  别 传记/战争
: |3 S& F& V! F" \. o) j4 i◎语  言 俄语# R+ {4 m" z7 {4 N+ K- d1 V
◎上映日期 2020-02-15(伊热夫斯克首映)/2020-02-21(俄罗斯)
0 r3 @  N* d* `/ j1 [' y  }/ E◎IMDb评分  6.5/10 from 890 users1 p  V& E4 S3 I  A5 `
◎IMDb链接  https://www.imdb.com/title/tt11547520/
6 j# w5 l  h9 ~! M5 h( L5 F; j◎豆瓣评分 7.2/10 from 5,373 users3 g4 T+ Q) T3 D( C5 S4 v- R( u
◎豆瓣链接 https://movie.douban.com/subject/34947678/
# K9 X$ ?9 [, w- R2 U$ W: V$ M) e◎片  长 1 h 44 min" H- T. Y, g+ D6 P
◎导  演 康斯坦丁·布罗斯洛夫 Konstantin Buslov& ~. ^5 W, j& @8 R3 x" ]
◎编  剧 小谢尔盖·波德洛夫 Sergei Bodrov Jr. " E- _* x) ?) i) h/ O# P
       谢尔盖·波德罗夫 Sergey Bodrov
- U4 w8 `- @7 G  r) p◎主  演 奥尔佳·勒曼 Olga Lerman; {3 B! N( {1 U  ?5 b5 r( q6 K' m& R
       阿尔图尔·斯莫利亚尼诺夫 Artur Smolyaninov: ]9 M/ u+ Z+ _2 y9 I0 c8 L. I
       尤里·鲍里索夫 Yuriy Borisov
  k- V7 D6 b8 l       谢尔盖·加扎罗夫 Sergey Gazarov
6 b- [+ _/ H. Y$ X& W8 G; d" Q; w* C& p       维塔利·哈耶夫 Vitaliy Khaev
6 g) L; Z6 b7 @! y4 ?) u       瓦列里·巴林诺夫 Valeriy Barinov
% L: \4 Q6 {( E0 F$ I+ h# H6 U; U
' e( n* e0 H# N' }3 ~◎标  签 传记 | 战争
" j. f/ p/ H7 c* i- [' b3 J( `: E. y1 _9 Z- T' d( {9 x  m$ d
◎简  介  
6 b% `( n0 p* Q
& z$ }$ g% d2 Q6 N7 M4 O- r4 `  第二次世界大战如火如荼,德国进攻苏联的一场战役中,年轻的普通士兵米哈伊尔·卡拉什尼科夫中弹受伤,住进了野战医院的他,无法在回到前线战场,然而,这位爱国者并没有善罢甘休,虽然他不能手握武器重返战场,却让战场上的战士们都用起了一把以他名字命名的突击步枪——AK47.
9 ~( Z; s* A$ L- J1 d" F8 K0 C1 E( M) ]7 a5 t" w
  Wounded as tank driver in 1941 during WWII, Kalashnikov sees the latest Soviet machine gun fail. As he's also an inventor, he starts looking for improvements and in 1947 ends up with AK-47 assault rifle.. y, k. Z" Q; B1 G" O1 p+ y  b6 ~
Video/ K# I- w8 S# s6 R5 l6 E- j
ID                                       : 1
, m  H7 |9 L7 o# Q5 A7 j& UFormat                                   : AVC5 t1 q+ {7 Y  ]4 v2 \
Format/Info                              : Advanced Video Codec! V" N5 D; E. E3 M4 _$ h# Z
Format profile                           : High@L4.1
5 A% L: P, j% y* i: P0 iFormat settings                          : CABAC / 5 Ref Frames
; F& N' ~* D; f$ ^$ k3 OFormat settings, CABAC                   : Yes* C7 c5 E- S8 i8 O) g
Format settings, Reference frames        : 5 frames
/ x+ v8 H* s5 ^; f' D0 CCodec ID                                 : V_MPEG4/ISO/AVC
' V  w1 m6 ?% `- Q; P5 t; SDuration                                 : 1 h 44 min
. {) X& X; _4 T% j9 V% z7 j7 L/ kBit rate                                 : 19.6 Mb/s, t. B) S/ p7 R5 R, k
Width                                    : 1 920 pixels- L7 P& P. a) ]
Height                                   : 856 pixels7 A$ g1 _; L3 P; z% {
Display aspect ratio                     : 2.25:12 G. }6 h& X# S( F. A0 p
Frame rate mode                          : Constant6 ]& i, D+ ~0 E3 }9 ~
Frame rate                               : 24.000 FPS8 f. d- h- @4 H
Color space                              : YUV9 N2 Y! U8 v- q2 u
Chroma subsampling                       : 4:2:0
* Y, I$ d' L$ Z3 eBit depth                                : 8 bits
: M+ U# [: f1 Q. H9 z) e& wScan type                                : Progressive' X- p( ~0 e+ u5 \- [7 l
Bits/(Pixel*Frame)                       : 0.498
$ d+ ~0 h% o! K. o5 ?  Z2 [Stream size                              : 14.3 GiB (95%)
$ ]9 p9 I' r0 A$ iWriting library                          : x264 core 160 r3009 4c9b076
" @3 S! t6 n( hEncoding settings                        : cabac=1 / ref=5 / deblock=1:-3:-3 / analyse=0x3:0x133 / me=umh / subme=10 / psy=1 / psy_rd=1.00:0.00 / mixed_ref=1 / me_range=32 / chroma_me=1 / trellis=2 / 8x8dct=1 / cqm=0 / deadzone=21,11 / fast_pskip=0 / chroma_qp_offset=-2 / threads=18 / lookahead_threads=4 / sliced_threads=0 / nr=0 / decimate=0 / interlaced=0 / bluray_compat=0 / constrained_intra=0 / bframes=11 / b_pyramid=2 / b_adapt=2 / b_bias=0 / direct=3 / weightb=1 / open_gop=0 / weightp=2 / keyint=250 / keyint_min=24 / scenecut=40 / intra_refresh=0 / rc=crf / mbtree=0 / crf=18.4 / qcomp=0.60 / qpmin=0 / qpmax=69 / qpstep=4 / ip_ratio=1.30 / pb_ratio=1.20 / aq=3:0.858 t  A/ N7 R' A
Default                                  : Yes7 |) a& q4 m0 X5 I; E
Forced                                   : No$ I# n% m! j7 B0 }: a$ P5 _
! g- a) W/ j3 H+ h) \7 {
Audio5 n1 Y+ F* M, \  _; V) c# g
ID                                       : 2+ c' }0 L9 }0 `7 n  F, O1 o6 o* @
Format                                   : E-AC-3/ N' H$ e* E- Z& m# T9 l
Format/Info                              : Enhanced AC-3
% D2 l& {! P( X; G* e' lCommercial name                          : Dolby Digital Plus% l+ [0 P! H! e$ k+ `9 ^' z0 N. s# i
Codec ID                                 : A_EAC3! `  v8 P% }5 O9 w
Duration                                 : 1 h 44 min
  C$ l1 l2 A: u% C9 j. k9 bBit rate mode                            : Constant
+ n# a4 y8 d6 L/ z: {Bit rate                                 : 1 023 kb/s9 z. h8 P4 B8 n* F- m
Channel(s)                               : 6 channels
6 a& e. n. p2 a) ?5 HChannel layout                           : L R C LFE Ls Rs, ^+ H7 c3 i$ K% p5 k: b* h3 _
Sampling rate                            : 48.0 kHz) k5 G! w: w$ v1 J8 i
Frame rate                               : 93.750 FPS (512 SPF)  a! g7 r0 \& V7 A. U0 o) c
Compression mode                         : Lossy
7 o) ~& v& i" {; ]$ iStream size                              : 765 MiB (5%)" D5 K2 Z! O( w1 [
Language                                 : Russian
, d0 w8 o% c$ b0 ]4 {" ]" y6 iService kind                             : Complete Main
- `+ _- Y8 s0 t$ K3 }' R' b! RDefault                                  : Yes0 l' G/ k; ~* b) k- ^
Forced                                   : No( B- m; R' U) Q8 _0 y, g2 Z
5 A/ Y) A) b! t4 M5 e
Text #1
( \( H# k1 u8 p' jID                                       : 3
# a# J/ v& ~5 IFormat                                   : UTF-8! S4 X7 R5 u' Q
Codec ID                                 : S_TEXT/UTF8
$ {  ~  e! K/ d* i6 }! bCodec ID/Info                            : UTF-8 Plain Text2 K  ]/ [: g% d( r
Duration                                 : 1 h 40 min
  I" m7 a/ I0 C- ]0 M& QBit rate                                 : 41 b/s* r" B8 i) a# O
Count of elements                        : 857) r0 ]4 I3 J9 y- E! v
Stream size                              : 30.4 KiB (0%)
9 X2 w8 L( N# \( j  a/ s8 R6 c4 yLanguage                                 : English
' a. W4 j6 Y5 F8 G# c- eDefault                                  : Yes
$ a* }4 s# d; X2 ]' FForced                                   : No$ y8 V* A; ^0 X0 L# ~4 m- w4 G3 d

/ ?2 S, y/ l+ i& ?+ _; j  lText #2- s& o, ]" I- a, h- w7 _
ID                                       : 46 B  e# {; S/ I
Format                                   : PGS
& ?, m7 e: B/ P; ]' {Muxing mode                              : zlib
0 h. d" |" X) C( y/ Q: T1 ZCodec ID                                 : S_HDMV/PGS
6 o" v: k( |) kCodec ID/Info                            : Picture based subtitle format used on BDs/HD-DVDs
+ l  |& O' L3 ^4 qDuration                                 : 1 h 39 min8 K& @% k: b$ w! q
Bit rate                                 : 30.2 kb/s
0 l8 v% f* Q$ _$ P& \( s$ aCount of elements                        : 1792
8 o( Q) x; s/ _1 M' `. jStream size                              : 21.6 MiB (0%)5 {( U& h8 ?: v/ u5 g" q7 Q) a
Language                                 : German( R, N: U" Q" {/ r
Default                                  : No
% \# D- t* p7 a2 m8 AForced                                   : No
7 q  d$ C3 C3 |5 Q1 t8 n: P2 {2 L. x) D$ U0 k$ b8 H/ X
Menu+ {# M( G1 G: k6 \
00:00:00.000                             : en:Chapter 01( W+ \2 o$ G$ M9 T
00:04:09.458                             : en:Chapter 02! O  I7 N# ^' a- b  _0 b& D1 z
00:11:51.000                             : en:Chapter 03
" ?1 U# n, n; G* F1 v" q6 k00:19:54.083                             : en:Chapter 04
" x! g) p8 n. J/ @00:27:33.000                             : en:Chapter 05
6 H& u. [2 D6 s: J+ t: V00:33:59.792                             : en:Chapter 06- M2 o, B! I/ D3 C) t# u% S7 _& B' M
00:38:04.917                             : en:Chapter 07
; c8 ^: E1 b. D$ L( Q9 ~% Z8 r& f00:45:04.625                             : en:Chapter 08
" F8 S- V" _. X. Q00:55:43.125                             : en:Chapter 09
% R+ b" ]2 k4 i- w01:05:46.542                             : en:Chapter 10' D" w5 e& G6 S6 `: D) P
01:14:01.792                             : en:Chapter 11
- K1 A; x. A! b* q$ ?- O01:16:34.917                             : en:Chapter 12
; l6 a3 S* k. @% K  f& X! j01:22:24.250                             : en:Chapter 13
+ {+ I4 U2 L, Z9 q; a  ]01:28:49.042                             : en:Chapter 145 \# ]5 P5 b8 g5 [
01:36:09.333                             : en:Chapter 15
3 D3 e1 Q# {0 J9 K9 V. q* T; \01:41:21.917                             : en:Chapter 16

) ]8 w! h; Y9 A. y  E# ~4 s8 @
游客,查看本帖隐藏内容请回复 | 加入VIP贵宾组可免积分免回复下载 了解详情 | 还不是会员:点击获取邀请码 Invitation Code

618

主题

2087

帖子

1万

积分

VIP advanced

金币
1849 枚
体力
4756 点

公主勋章卓越贡献勋章

21cn 发表于 2020-10-21 00:20:43 | 显示全部楼层
Bluraycd又有新电影发布了,激动中……!
- v7 {: c9 j) Q! C$ ^& r8 @Your resources, well, I am very satisfied!4 }3 h5 l0 F* A4 K- @

本版积分规则

小黑屋|Archiver|蓝光电影资源网

GMT+8, 2020-12-3 03:07

快速回复 返回顶部 返回列表