BluRayCD Forum

 找回密码
 立即注册【分享大片】

QQ登录

只需一步,快速开始

查看: 32|回复: 2
收起左侧

[科幻恐怖] 神话 Phenomena 1985 1080p BluRaycd x264 DTS-FGT 9.46GB & 7.94GB

[复制链接]

4016

主题

4391

帖子

3万

积分

Post Share

金币
7658 枚
体力
6878 点

卓越贡献勋章

mvods 发表于 2020-10-21 08:56:30 | 显示全部楼层 |阅读模式
9 E  S, Y8 f! M6 L  V- q

2 E- p3 \' j: _: U3 l7 D◎译  名 神话
  c0 G: {" ^% V◎片  名 Phenomena2 I# a2 H$ ]( }  q
◎年  代 1985
! W! ^! b; r+ s% j8 u& t, q! w◎国  家 意大利/瑞士
$ q- Y# Q; I$ [4 y9 r6 t◎类  别 悬疑/惊悚/恐怖: {+ h* J/ T! M& r/ {
◎语  言 意大利语/瑞士德语/丹麦语% T# A3 n: u9 W% d
◎上映日期 1985$ y8 G) M+ @. J
◎IMDb评分  6.8/10 from 22,966 users
/ G. j. |# ?( |, E9 R- O; ^% [◎IMDb链接  https://www.imdb.com/title/tt0087909/
& Z8 e% ]: P! B; e3 x* k◎豆瓣评分 6.9/10 from 1,262 users; |7 Q* F, n; P* x% \, I3 R2 f
◎豆瓣链接 https://movie.douban.com/subject/1294420/
5 Z4 X6 {1 J' G' b* v◎片  长 1h 55mn$ k: l" B$ p7 l% D* m1 E
◎导  演 达里奥·阿金图  Dario Argento
  t! e1 g- {# t◎编  剧 达里奥·阿基多 Dario Argento0 _8 T! ]- r0 j- M/ C
       弗兰科·费里尼 Franco Ferrini
7 \3 k9 [8 R2 x: K2 @$ `3 c◎主  演 詹妮弗·康纳利 Jennifer Connelly, q1 e! }2 U4 f+ J2 g# t
       达里亚·尼科洛迪 Daria Nicolodi. t' @  }$ p+ q, ^  E
       Fiore Argento: M; K' f% C0 H8 R& k3 D6 c
       费德里卡·马斯特罗瓦尼 Federica Mastroianni
; r* i# j' `4 d. i$ l; a" U       Fiorenza Tessari
" ^6 f! F; z1 Y# ~/ J" [3 ?* @       达莉拉·迪·拉扎罗 Dalila Di Lazzaro
# Q2 t8 f2 ^5 R6 @       帕特里克·波查 Patrick Bauchau
6 `& @- ]8 a" h# X# K( K       唐纳德·普利森斯 Donald Pleasence& C5 |4 z8 S+ _* Z: [
       阿尔贝托·克拉科 Alberto Cracco: H& p& S9 z9 A1 `6 }
       卡斯帕·卡帕罗尼 Kaspar Capparoni
. r1 f  W" Q% e3 v! Q% s       马里奥·多纳托内 Mario Donatone& i8 D1 D9 k$ Z+ S% J6 g6 D9 l' F
       Antonio Maimone8 C; {7 c- v7 @2 O
       达维德·马洛塔 Davide Marotta( s, l8 L; l1 s- {/ J
       Fulvio Mingozzi( f4 S* s( ^' t. {
       Francesca Ottaviani
1 q1 w* S; |6 H: l% @$ k       米歇尔·索伊 Michele Soavi
! q3 I/ _( g5 m3 y, t# [       福斯塔·阿韦利 Fausta Avelli/ P6 z! @# d# ]4 @, I' Y: M/ ?4 k9 {
       达里奥·阿基多 Dario Argento
+ r3 u! W4 D0 [& u
, n  `9 C% D+ X" ]3 B. ^+ S◎简  介   * @$ n6 p: H) P( C; A( i

+ H+ @" t0 u" U+ O& r  女主角就读的瑞士女子学校出现了一个疯狂杀手,女学生陆续遭殃。由于詹妮弗患有梦游症,被老师和同学怀疑是杀人凶手,但警方用科学方法证明了她的清白,詹妮弗为了找出真正的凶手,利用她具有吸引昆虫的特殊能力进行缉凶。% e" B: t, V4 O* ?7 w" y
1 ~" f, }+ \- _4 i5 @! c# }7 o
  A young girl at a boarding school has telepathic power to control insects. Can her unusual capability help solve a string of murders?
; e" I5 |4 q* y2 G2 |9 p* P
Video+ s( a8 G" \; t, G3 [
ID                                       : 1
4 D  r6 v6 S" Q6 `( w/ o# P( d( ]$ sFormat                                   : AVC
9 N" s1 ^0 M1 F' Z( Q8 dFormat/Info                              : Advanced Video Codec4 O- e+ {* n( q  I$ e% o' p, Q
Format profile                           : High@L4.18 F# E, \+ s8 R8 y$ y7 s2 @/ g
Format settings, CABAC                   : Yes
1 j- @- z- ^1 UFormat settings, ReFrames                : 4 frames# B1 U( e. `6 p' Z
Codec ID                                 : V_MPEG4/ISO/AVC
/ K  j7 I" d* `Duration                                 : 1h 55mn
; R9 G7 L) Y4 c, e- K! B0 p" yBit rate                                 : 11.0 Mbps+ t: v  d' J) B/ A' t  [
Width                                    : 1 800 pixels- f$ S: V6 C7 o# r
Height                                   : 1 080 pixels
" k! E# G9 H0 \- b" V  HDisplay aspect ratio                     : 5:3
3 I6 \* W+ N5 \1 ^9 M6 c0 e) `/ PFrame rate mode                          : Constant$ p7 y; m9 |# Z& O! a
Frame rate                               : 23.976 fps
# ^0 V4 H9 [: x2 bColor space                              : YUV
0 Z+ x; W- {4 _' V0 `% z) H% HChroma subsampling                       : 4:2:07 ~& O8 y  H) U& q
Bit depth                                : 8 bits; ]" N0 A) ?- l7 J1 m$ f2 k. b/ E
Scan type                                : Progressive
  O3 r; Q4 H9 T! C- e" xBits/(Pixel*Frame)                       : 0.2352 t- I- `. m7 ?- V; ~
Stream size                              : 8.65 GiB (91%), Q. {: d, b% e, f; P
Writing library                          : x264 core 122 r2184 5c85e0a7 ~; @) j! J; T0 L+ L
Encoding settings                        : cabac=1 / ref=4 / deblock=1:-2:-2 / analyse=0x3:0x133 / me=umh / subme=11 / psy=1 / psy_rd=1.00:0.00 / mixed_ref=1 / me_range=32 / chroma_me=1 / trellis=2 / 8x8dct=1 / cqm=0 / deadzone=21,11 / fast_pskip=0 / chroma_qp_offset=-2 / threads=6 / sliced_threads=0 / nr=0 / decimate=0 / interlaced=0 / bluray_compat=0 / constrained_intra=0 / bframes=8 / b_pyramid=2 / b_adapt=2 / b_bias=0 / direct=3 / weightb=1 / open_gop=0 / weightp=2 / keyint=250 / keyint_min=23 / scenecut=40 / intra_refresh=0 / rc=2pass / mbtree=0 / bitrate=10954 / ratetol=1.0 / qcomp=0.60 / qpmin=0 / qpmax=69 / qpstep=4 / cplxblur=20.0 / qblur=0.5 / ip_ratio=1.40 / pb_ratio=1.30 / aq=2:1.00
9 X+ |' z9 J- c! D! kLanguage                                 : English, M/ @8 S7 m1 E; E
Default                                  : Yes1 w& Z' P$ b% ]
Forced                                   : No
3 m0 Z  U+ Q( u  [Audio! x6 W7 [* G! |# J% A2 O4 {$ e
ID                                       : 23 S4 m! w) U4 m
Format                                   : DTS  ?! ^, z/ P2 n8 G1 l( U
Format/Info                              : Digital Theater Systems
5 o3 d# y6 b; h* W; pMode                                     : 16
( ]; s; g4 }1 z# e& P* b3 z' DFormat settings, Endianness              : Big
6 u8 P& P2 \: B" sCodec ID                                 : A_DTS
$ a; L1 h- h$ zDuration                                 : 1h 55mn
. ]* Q, P& J) L2 eBit rate mode                            : Constant
; s' A& K7 D5 Q9 H( j0 sBit rate                                 : 768 Kbps- M5 i; U) ^# @8 C: ?
Channel(s)                               : 2 channels
8 z5 B, l2 w" ]6 ^9 QChannel positions                        : Front: L R
" e; f6 I) T7 V% l6 |$ y  \  R% I) \5 BSampling rate                            : 48.0 KHz
4 n3 `% T/ c' ?$ d& A" b% GBit depth                                : 16 bits, U/ Y( N: r( o4 [# v( d
Compression mode                         : Lossy
& N% _$ C) i8 tStream size                              : 634 MiB (7%)
( `! S  B! v5 M/ p% `2 }Language                                 : English3 U# [" l8 }  K  u6 j8 Z" @7 l, }
Default                                  : Yes& n3 M* K) U. I- j
Forced                                   : No# K/ m9 N( z9 J1 g* z
Text
: N. J: U0 l1 `4 }, W8 sID                                       : 3
. d3 o$ J9 h2 b0 LFormat                                   : UTF-8& s; x/ @9 E! M. ~8 s+ E+ |
Codec ID                                 : S_TEXT/UTF87 [; T' ^0 d- p: j2 p
Codec ID/Info                            : UTF-8 Plain Text
1 J, L# J( O. v) ]& nLanguage                                 : English
7 w* N+ |% x$ v  RDefault                                  : No- }8 U6 c$ e7 h, E/ l
Forced                                   : No/ y: k' v+ x" V9 n9 F6 K+ e
Menu
' {' q+ D" P2 J: z  i( l( S% K00:00:00.000                             : en:00:00:00.000
5 p/ ]  [  Z) M/ r1 }00:06:57.083                             : en:00:06:57.083
+ s7 o& N  }" _3 N00:11:43.536                             : en:00:11:43.536  L9 X2 m- V; A1 B
00:19:29.960                             : en:00:19:29.960- D" D- M4 @8 B
00:28:05.893                             : en:00:28:05.893, w* u: a+ h! w8 P1 \, _
00:36:11.127                             : en:00:36:11.127
$ g% @9 h1 F8 ~! H$ L7 Q00:45:38.527                             : en:00:45:38.527' m( q( p1 T/ A! k7 p
00:53:46.348                             : en:00:53:46.348
  Y( l; J: A0 U  x& o+ C$ ~3 d( r00:57:56.181                             : en:00:57:56.181: @2 l) V9 H+ D. H5 f
01:05:41.062                             : en:01:05:41.062, a4 L  F4 f  }
01:11:36.209                             : en:01:11:36.209
, L" u3 B' W0 h: X6 {01:20:23.068                             : en:01:20:23.068% h5 L9 y& j; x
01:29:23.650                             : en:01:29:23.6504 |9 \6 s/ |( n( w
01:36:05.802                             : en:01:36:05.802; s  _: `/ A0 G- z
01:43:50.933                             : en:01:43:50.933
: z( q1 `: p, E! _* e& h01:52:55.268                             : en:01:52:55.268
Video- B) ^% R8 M+ k- r# i, F7 j+ R
ID                                       : 19 `# _7 k6 H, c# M; E: p
Format                                   : AVC# H1 C3 O7 u+ G5 i' r# D. i0 f; q
Format/Info                              : Advanced Video Codec
) v4 C2 Y2 e7 h  E! x; J! w3 SFormat profile                           : High@L4
2 r2 S* a+ I# t9 ~Format settings                          : CABAC / 4 Ref Frames5 J' z+ n% ~8 j+ b9 u* j* i
Format settings, CABAC                   : Yes$ N9 K5 K* C8 f8 l: m5 ]
Format settings, ReFrames                : 4 frames$ J& V1 S) i9 u8 k& }, V
Muxing mode                              : Header stripping8 |+ k9 P+ H2 k0 B- I
Codec ID                                 : V_MPEG4/ISO/AVC$ N8 n4 x& x: O8 [( V7 A2 W6 R
Duration                                 : 1 h 55 min
7 m) j7 H- f  t& c* c0 r$ Z, S& ?Bit rate                                 : 8 567 kb/s
6 J5 b, r- V% L# SWidth                                    : 1 808 pixels
% Z+ h0 M! q1 k9 v6 ]. l: aHeight                                   : 1 080 pixels# q- {6 Y, i( T; C: s) U7 {! m7 X
Display aspect ratio                     : 5:3& z0 B6 ~3 u; R( L/ v3 i. i- s8 g
Frame rate mode                          : Constant; S7 r1 A4 W( P$ ]
Frame rate                               : 23.976 FPS
5 `* G; p6 K5 x) ^# i4 ZColor space                              : YUV* v( z/ h4 @8 C. f; U
Chroma subsampling                       : 4:2:0
& m% c1 d/ O. I. |4 s+ b. {Bit depth                                : 8 bits8 k4 {2 M4 u9 @' d, c. _" p4 O1 Z
Scan type                                : Progressive( W  G# i  R2 a* I# J% B
Bits/(Pixel*Frame)                       : 0.183# r+ g5 W- a/ U5 _, [. N" @. ~4 a
Stream size                              : 6.75 GiB (85%)( X3 |6 T/ N6 _9 e. g0 B
Writing library                          : x264 core 114 r1913 5fd3dce
3 R5 P1 g' h1 k* L8 TEncoding settings                        : cabac=1 / ref=4 / deblock=1:0:0 / analyse=0x3:0x133 / me=umh / subme=7 / psy=1 / psy_rd=1.00:0.00 / mixed_ref=1 / me_range=16 / chroma_me=1 / trellis=1 / 8x8dct=1 / cqm=0 / deadzone=21,11 / fast_pskip=0 / chroma_qp_offset=-2 / threads=6 / sliced_threads=0 / nr=0 / decimate=1 / interlaced=0 / constrained_intra=0 / bframes=3 / b_pyramid=2 / b_adapt=2 / b_bias=0 / direct=3 / weightb=1 / open_gop=0 / weightp=2 / keyint=250 / keyint_min=23 / scenecut=40 / intra_refresh=0 / rc_lookahead=50 / rc=2pass / mbtree=1 / bitrate=8567 / ratetol=1.0 / qcomp=0.60 / qpmin=0 / qpmax=69 / qpstep=4 / cplxblur=20.0 / qblur=0.5 / ip_ratio=1.40 / aq=1:1.008 c# `! E# A5 l" L
Language                                 : English7 V7 o$ V% `) U. K
Default                                  : Yes7 L4 a6 _$ }0 @8 d
Forced                                   : No
; _- N3 n& ^% T2 [; a
7 {7 t! g$ I5 t1 H6 l5 tAudio
* m" D& Y( @, D( ~, C( f% vID                                       : 2
/ y* C( }9 [/ Y2 J) ]Format                                   : AC-3
3 a5 g8 b4 a* tFormat/Info                              : Audio Coding 3
  A. h3 W. ?' H3 G; MMuxing mode                              : Header stripping
, [) e' E; \) g9 g# {* WCodec ID                                 : A_AC3
" ]( P( A3 n6 q: S% WDuration                                 : 1 h 55 min0 f3 h9 n) Y" F
Bit rate mode                            : Constant
( q( p0 H: U- g, uBit rate                                 : 640 kb/s
4 q7 O+ g+ O2 h$ rChannel(s)                               : 2 channels3 c. N* A7 M3 m8 n" `
Channel positions                        : Front: L R% W4 ~0 h2 u' ]  Z: q1 {' ~  ?% I2 u
Sampling rate                            : 48.0 kHz  a* b$ y# m  u% D) {" U6 Z
Frame rate                               : 31.250 FPS (1536 SPF)
0 S  g, C: s, G6 L6 B, hBit depth                                : 16 bits" {6 G, J2 r! Q( ^$ t/ i6 V
Compression mode                         : Lossy* d; N7 v4 m; s" W% V
Stream size                              : 529 MiB (6%)7 I$ h1 R! e5 L3 Z  p
Language                                 : English
5 C" M% ?) `  [Service kind                             : Complete Main& [. a& n* T" A+ I4 C
Default                                  : Yes; Z; {/ e9 o3 ^/ q% ]" Z
Forced                                   : No& o6 E& F& h6 |+ P8 d

. F% v$ d7 p3 }: u! YText
' W6 F$ T8 J- t4 D7 V6 @2 {: AID                                       : 4* q" l7 s5 ~* [+ i3 B1 h* q- A
Format                                   : UTF-8
" a7 G2 [, f+ u# @' X* UCodec ID                                 : S_TEXT/UTF8
3 p$ J, P2 T- V+ aCodec ID/Info                            : UTF-8 Plain Text6 W; P- r' J  m5 R1 e
Language                                 : English
% j/ z& `6 c6 {% H9 qDefault                                  : Yes
) p* B: L0 v3 B9 tForced                                   : No
% g$ P, ]! ~' ]: e4 K( B2 `+ Z
游客,查看本帖隐藏内容请回复 | 加入VIP贵宾组可免积分免回复下载 了解详情 | 还不是会员:点击获取邀请码 Invitation Code

0

主题

587

帖子

2614

积分

Sponsor

金币
17 枚
体力
1455 点
QQ
七喜 发表于 2020-10-22 17:59:44 | 显示全部楼层
Bluraycd又有新电影发布了,激动中……!% g2 O- }8 u. s& g6 a
Blu-ray Film Forum: I will always support you!
' R/ H( y" K& M- b* G

1

主题

338

帖子

1271

积分

Sponsor

金币
43 枚
体力
574 点
firendzhon 发表于 2020-10-23 14:13:24 | 显示全部楼层
神话  谢谢分享
2020第一天 ...

本版积分规则

小黑屋|Archiver|蓝光电影资源网

GMT+8, 2020-12-2 13:57

快速回复 返回顶部 返回列表