BluRayCD Forum

 找回密码
 立即注册【分享大片】

QQ登录

只需一步,快速开始

查看: 13|回复: 2
收起左侧

[蓝光原盘] 十三号星期五6:杰森复活 [REMUX无损版] Friday The 13th Part VI Jason Lives 1986 SHOUT 1080p BluRaycd REMUX AVC DTS-HD MA 5.1-FGT 24.29GB

[复制链接]

4774

主题

4947

帖子

6万

积分

Post Share

金币
9410 枚
体力
17321 点

卓越贡献勋章

黄金嫖客 发表于 2020-10-22 20:44:11 | 显示全部楼层 |阅读模式
Tommy Jarvis goes to the graveyard to get rid of Jason Voorhees' body once and for all, but inadvertently brings him back to life instead. The newly revived killer once again seeks revenge, and Tommy may be the only one who can defeat him.
! ~4 j( C7 f/ q1 u  ]0 U
# q7 A4 r! H5 d 01.jpg , x0 Y* ]4 X' p. V/ y

( I- h6 ]5 G% O4 p1 Q) ?◎译  名 十三号星期五6/黑色星期五第六集/黑色星期五6:杰森复活0 `+ Z& ]7 g2 t& k8 z! w8 w
◎片  名 Friday the 13th Part VI: Jason Lives
% z" F7 B% F) W% O* t3 T+ n2 `4 w4 }◎年  代 1986
# V7 X6 l! ?. B3 ~! H( Q; L0 d8 \◎产  地 美国, R7 w, V# s, H  W+ n
◎类  别 喜剧/惊悚/恐怖
' B" z6 [) s- H+ X) U, {) g* @+ u$ r◎语  言 英语8 q/ q$ s) e$ }/ U  L1 Z
◎上映日期 1986-08-01: n! p* W$ p. V- i
◎IMDb评分  6.0/10 from 37,780 users5 p9 Q0 J( V* v, _
◎IMDb链接  https://www.imdb.com/title/tt0091080/
: X3 S1 y- w  O4 h0 n+ [◎豆瓣评分 6.1/10 from 1,242 users, Q/ {; g, b0 s# w
◎豆瓣链接 https://movie.douban.com/subject/1294180/- @+ _3 P( I9 H; J" Q
◎文件格式 x264 + DTS
$ X. q6 Y+ y; l8 R◎视频尺寸 1920 x 10807 p  |+ y3 [5 Q1 g4 v2 m
◎文件大小 1DVD 24.29 GiB
3 s* E5 Q. S# Q9 o7 E, Q& |. J◎片  长 1 h 27 min
) E' L+ K: n8 u- u◎导  演 汤姆·麦克洛克林 Tom McLoughlin
& |% A8 z  A0 e- g; g) I+ ?◎编  剧 汤姆·麦克洛克林 Tom McLoughlin
$ P3 m" I& X* B1 R3 {0 L       维克多·米勒 Victor Miller# V" I6 W, N3 o9 E. k* o- x
◎主  演 索姆-马修斯 Thom Mathews% J) ]; s. [% t3 L! B. X4 Y
       Renée Jones
% m( D8 h) Q5 L& P8 F2 E3 I" f0 N3 B       David Kagen+ H2 u4 I1 P# K" }: ?9 U! I2 t
       Jennifer Cooke( \  N9 q) M% m, c4 E
       艾伦·布卢门菲尔德 Alan Blumenfeld  G! b, u  G4 h; P2 ^6 ?) ?
       Darcy DeMoss
; @8 b/ f  ^  _% M* t0 C
: f1 f; l+ C% U. P* D# t# y◎标  签 恐怖 | 美国 | 惊悚 | 血腥 | 黑色星期五 | 美国电影 | 1986 | 恐怖电影  G1 ?( G) `# W9 R
' }$ m; ~. Y% z3 @% N, M
◎简  介
. J( Q2 C2 b0 O" f  
% |8 ~, H% c+ n  被杰森杀害了双亲的汤米(汤姆·马修斯 Thom Mathews 饰)在一个雨夜,与好友来到墓地,他们将杰森的坟墓打开,试图烧毁尸体泄愤,突然天降闪电击中杰森的尸体,在汤米惊异的眼光中,杀人狂杰森居然复活了!大惊失色的汤米向当地的加里斯探长(David Kagen 饰)求援,但后者认为杰森已成历史,汤米的表现不过是精神病的后遗影响。在这个黑色星期五的夜里,杰森回到水晶湖营地——如今这里已经改名为绿森林,似乎是为了把那些恐怖的往事遗忘——对来这里参加露营的人们以及营地辅导员们大开杀戒,加里斯探长认为凶手是已经走火入魔的汤米,而此时此刻,汤米在加里斯女儿梅根(Jennifer Cooke 饰)协助下,试图将杰森再次送回地狱……
: R6 t" \8 p- H4 f2 z& G& x  w$ {) D1 `( ?6 r. u( q
  As a child, Tommy Jarvis killed mass-murderer Jason Voorhees. Years later, he is tormented by the fear that Jason may not be dead. Determined to finish off the infamous killer once and for all, Tommy and a friend dig up Jason's corpse in order to cremate him. Unfortunately, things go seriously awry, and Jason is instead resurrected, sparking a new chain of ruthlessly brutal murders.$ G7 g' e- u" u6 L% S7 v; ~

9 T7 P, }; g2 n3 H3 X; Z
Video
% A1 q' I3 l# V7 q( ^2 Y: tID                                       : 1
/ c1 [3 E6 B4 E7 g, dID in the original source medium         : 4113 (0x1011)
4 f' D9 G2 T/ AFormat                                   : AVC
$ Y7 R$ G) ?2 J& [  r, ]$ NFormat/Info                              : Advanced Video Codec, u" z9 `2 b% o* X
Format profile                           : High@L4.1
% ?4 r, O6 p' U  ~; vFormat settings                          : CABAC / 4 Ref Frames
- m+ K! k" n5 J5 Q: P/ _Format settings, CABAC                   : Yes
: @# p3 l8 x+ ^* T& j/ o- QFormat settings, Reference frames        : 4 frames2 v2 [1 M5 u  }
Codec ID                                 : V_MPEG4/ISO/AVC; _  e7 I( T( \/ o
Duration                                 : 1 h 27 min6 }# G1 m6 ]" C/ l+ t
Bit rate mode                            : Constant% R# W7 o( U6 i) }0 B) B
Bit rate                                 : 36.0 Mb/s
, P/ g2 o, D7 m; g& iWidth                                    : 1 920 pixels' O5 t. j$ Q% I" a3 \5 X
Height                                   : 1 080 pixels
; @7 s. [/ j$ }3 b0 L$ hDisplay aspect ratio                     : 16:9- k" ?* `) i' @) O  F
Frame rate mode                          : Constant
9 C+ R& w5 w$ x5 f1 \Frame rate                               : 23.976 (24000/1001/37687) FPS
1 `/ ?8 t5 o/ y/ u5 `9 b6 J" G/ RColor space                              : YUV
$ `3 _6 ~0 t6 R& d$ p$ j9 CChroma subsampling                       : 4:2:0* f, r- h, E6 J! D, s. K. c
Bit depth                                : 8 bits
/ j; q' L6 j& XScan type                                : Progressive3 e9 O5 m8 z! U$ m+ B
Bits/(Pixel*Frame)                       : 0.724
+ @$ k9 E1 S" `. Y  ], a7 S; v) ZStream size                              : 22.1 GiB (87%)
6 v. M' N4 B- t" j1 v7 }Title                                    : Friday.The.13th.Part.VI.Jason.Lives.1986.SHOUT.1080p.BluRayCD.REMUX.AVC.DTS-HD.MA.5.1-FGT
8 ~- c  D1 t7 R1 ?1 Y6 y! R3 ULanguage                                 : English9 B# A, o3 M( w3 l
Default                                  : No
) B: P2 M2 |1 M( G9 J. D, M0 b% o2 vForced                                   : No1 \5 ?" N, W* h9 l# L! d) C5 R
Original source medium                   : Blu-ray. w  F5 B9 ]; @2 ?( u" z( N0 }* \

' {$ ^1 E8 b5 ?$ S9 W- vAudio #18 f0 C# X* G; h. h7 W) n; R" e1 e; \
ID                                       : 2: R3 F" S  B% C/ Z* M& H
ID in the original source medium         : 4353 (0x1101)
$ j6 V  }- _% dFormat                                   : DTS XLL
0 U/ _7 N& V+ o! yFormat/Info                              : Digital Theater Systems; L  v6 h- a  t( u: ~# N
Commercial name                          : DTS-HD Master Audio1 X1 X4 v9 P0 i+ a
Codec ID                                 : A_DTS
, n# O9 _7 `* p1 KDuration                                 : 1 h 32 min# ?7 d& P- g  O7 C
Bit rate mode                            : Variable: D* c% k9 j/ j' p& Z. W( ?
Bit rate                                 : 2 835 kb/s/ ]- o5 z% K7 ~7 e, g' X7 h
Channel(s)                               : 6 channels
9 ~* E6 Q) ~) RChannel layout                           : C L R Ls Rs LFE
4 @- Z3 p, h5 G) `1 W+ HSampling rate                            : 48.0 kHz
6 o0 S, h. L9 p( tFrame rate                               : 93.750 FPS (512 SPF)9 S) q; e# r6 t# v9 c" Y
Bit depth                                : 24 bits2 U4 v, g, f$ v& h. e9 \
Compression mode                         : Lossless
! ?+ c' g# Y, R( B& L8 JStream size                              : 1.83 GiB (7%)$ y4 U/ v. h! n1 l
Title                                    : Friday.The.13th.Part.VI.Jason.Lives.1986.SHOUT.1080p.BluRaycd.REMUX.AVC.DTS-HD.MA.5.1-FGT2 _( X6 `$ f, y8 r
Language                                 : English, ^8 z$ ]4 j# i
Default                                  : Yes
% o* B# T. v* |Forced                                   : No
) n) {) B) D) bOriginal source medium                   : Blu-ray, a2 H; L' ~9 Y* K4 ~) U& `% g
& \4 \7 s: y- m  i3 i. M, z
Audio #20 h5 o6 o8 _6 l, O2 R% O1 l! ^
ID                                       : 3# D2 ]$ N1 T! y5 J
ID in the original source medium         : 4352 (0x1100)
$ @6 J( g' f2 h" bFormat                                   : DTS XLL
$ g! h+ E- ^" w6 uFormat/Info                              : Digital Theater Systems
1 q1 l( ^+ h# I' XCommercial name                          : DTS-HD Master Audio
; j0 K1 R3 N. Q4 S" x, lCodec ID                                 : A_DTS
0 V* j' J# C4 h* U: k4 ~Duration                                 : 1 h 32 min9 y/ Q+ @. r" W0 h, o( N
Bit rate mode                            : Variable9 r& S5 P" g) H% k
Bit rate                                 : 1 572 kb/s
0 H0 D0 I8 i; l5 P* a+ D& t' e6 Y9 oChannel(s)                               : 2 channels
" q; i2 U- ^+ E, [Channel layout                           : L R. m# z) t- K% I# X; [
Sampling rate                            : 48.0 kHz
8 A6 n  B* Y3 ^' U# |. O2 @% {Frame rate                               : 93.750 FPS (512 SPF). W5 G+ r" i2 p; y
Bit depth                                : 24 bits* t* M6 H  x# a+ ?- m8 q5 t5 c% [
Compression mode                         : Lossless4 @% z% U2 t' d0 O- C1 ^
Stream size                              : 1.01 GiB (4%)& M5 X) T8 W, z/ E+ }: v
Title                                    : Friday.The.13th.Part.VI.Jason.Lives.1986.SHOUT.1080p.BluRaycd.REMUX.AVC.DTS-HD.MA.5.1-FGT
; p# [# d! b6 o$ ]* f8 O7 K% |; zLanguage                                 : English
: O/ e7 V9 ?* R+ M3 Y" x9 WDefault                                  : No
, h4 n/ l4 n; KForced                                   : No
8 s) o0 Q3 Q$ n& u3 ROriginal source medium                   : Blu-ray' U" n# q+ i! [; L% [5 Q$ u& i

  Z- n, v) }' ^% d$ s9 z6 ]# GAudio #3; w# L2 p9 c+ Q- V5 u  ?2 f
ID                                       : 4% e1 ?& G8 @: o& Q. I4 e5 k+ Y
ID in the original source medium         : 4354 (0x1102)
4 C" L8 N) q& j0 j9 h8 I1 l. B4 ]Format                                   : AC-34 _7 X: u$ E; q) v5 q) |" e
Format/Info                              : Audio Coding 3/ D* ]+ x+ H$ T( u
Commercial name                          : Dolby Digital" r3 _7 B2 Y+ G( v, ?
Codec ID                                 : A_AC3
; h! r& k$ O* m  x: S( |  W; JDuration                                 : 1 h 32 min
4 Q. `) }4 u& w3 r. CBit rate mode                            : Constant. j' c1 `  a  y3 r5 K0 V, S- ]
Bit rate                                 : 192 kb/s
. V0 F0 K! D/ b8 S" J' ZChannel(s)                               : 2 channels
; c5 @; t1 X1 B% r+ @Channel layout                           : L R0 u& E) b  W+ h/ r( |" i0 y
Sampling rate                            : 48.0 kHz' C# i, U* S( N; Z5 L' W2 n
Frame rate                               : 31.250 FPS (1536 SPF)
0 x5 Z' z4 T; {Compression mode                         : Lossy
; A- F; K/ @! z8 |( H# K$ D* xStream size                              : 127 MiB (0%)! Y. l* ]9 m; W+ o* [% _2 Q3 \2 l
Title                                    : Friday.The.13th.Part.VI.Jason.Lives.1986.SHOUT.1080p.BluRaycd.REMUX.AVC.DTS-HD.MA.5.1-FGT
! V  \9 ^  X/ C0 V+ y% m0 x! FLanguage                                 : English
8 B; e9 x7 y  G6 ^/ oService kind                             : Complete Main/ Q8 u7 p& {; ~7 i8 k0 R1 U$ A3 R
Default                                  : No
: I# G; |2 s4 Z  S- B* BForced                                   : No" R" H0 p% Q# w- Y3 u
Original source medium                   : Blu-ray
$ G% W' W  Z- \2 |7 R% _, o/ w
Audio #4
6 G$ D# Z$ U4 b7 wID                                       : 5* n; ~& M1 V( u- g% q! O: ~# b
ID in the original source medium         : 4355 (0x1103)
+ \9 V$ L: R$ C; y% ~. WFormat                                   : AC-3
: l, ~! w- O# Z& v% \- vFormat/Info                              : Audio Coding 3# A6 p" K( j6 r* Z8 e8 v" E0 O& M
Commercial name                          : Dolby Digital6 X% J( L% d* Y& k
Codec ID                                 : A_AC3
/ z5 B  G1 @5 \0 `+ F) xDuration                                 : 1 h 32 min
% w, l" Y  ]7 `1 c' ?# V8 pBit rate mode                            : Constant+ Z+ E% P" g+ T+ b( e/ Y
Bit rate                                 : 192 kb/s$ O( K3 ?2 \! Y( _5 k* _
Channel(s)                               : 2 channels
, v) y) J% a0 `0 I$ D5 ~8 oChannel layout                           : L R
( x7 j3 l; p% i& ]. {2 X0 xSampling rate                            : 48.0 kHz, X/ g& M8 F1 Q7 X4 A$ d+ Q+ }" L
Frame rate                               : 31.250 FPS (1536 SPF)4 h, p, R. J; ~. s4 y7 m
Compression mode                         : Lossy
5 |2 a- w& l4 F9 RStream size                              : 127 MiB (0%)9 \* S6 F& [1 U
Title                                    : Friday.The.13th.Part.VI.Jason.Lives.1986.SHOUT.1080p.BluRaycd.REMUX.AVC.DTS-HD.MA.5.1-FGT# X% C5 ^* Z( P
Language                                 : English& [6 o% E2 b$ G, c- h
Service kind                             : Complete Main# ~. {$ g/ a; S
Default                                  : No* {0 Z# x1 z1 ~6 J6 D- L
Forced                                   : No+ n: [$ y) R  ?+ K1 [' ~# j4 ?
Original source medium                   : Blu-ray& X$ G) D3 E5 J$ w8 i

! R  b% j4 N0 h5 j7 Z$ rAudio #5
4 J. I4 x$ \* M7 ^9 l1 `, GID                                       : 6, A8 {# T/ z& H& O) x# G& X) d- b
ID in the original source medium         : 4356 (0x1104)# [% ^6 [% c# j, ?# {
Format                                   : AC-3
0 m$ L' A8 X' [) HFormat/Info                              : Audio Coding 3
, Y* z- f+ P* f9 O4 w4 rCommercial name                          : Dolby Digital$ |4 X; Y0 k- o7 ?
Codec ID                                 : A_AC3% y; _/ d* ^: {  ?
Duration                                 : 1 h 32 min
. y8 f. n3 E1 o4 r  {' K  TBit rate mode                            : Constant
6 v- z) T+ `1 c) c- BBit rate                                 : 192 kb/s
# Q3 q' P8 ?$ J6 qChannel(s)                               : 2 channels
4 o$ P# s2 ^, F* y, TChannel layout                           : L R" H8 z  [1 E9 P. z6 T
Sampling rate                            : 48.0 kHz7 d5 @; a$ `: ?6 p8 @
Frame rate                               : 31.250 FPS (1536 SPF), a/ u; D$ v0 H0 z& J
Compression mode                         : Lossy
7 @+ Z/ O8 [0 f% }7 T: BStream size                              : 127 MiB (0%): r- v( R4 ~8 U! _
Title                                    : Friday.The.13th.Part.VI.Jason.Lives.1986.SHOUT.1080p.BluRaycd.REMUX.AVC.DTS-HD.MA.5.1-FGT7 b7 {  `+ w9 \; U: f6 J" m% @
Language                                 : English
- G* x( v; T# BService kind                             : Complete Main% i0 k; J% a& U
Default                                  : No& O" O, u5 O& z3 G) r
Forced                                   : No
1 Z" b9 v" Z* u5 W; kOriginal source medium                   : Blu-ray5 D9 q, l9 e$ U4 F& ~* O7 L, y

- H" x- V; E! S; Y3 ZText #1
$ q( A# P1 n7 w; |+ l! QID                                       : 7' p" K' b: ~: O( J5 ~) [6 Y. S
Format                                   : UTF-8
* B5 E% O6 y  ?6 B7 }Codec ID                                 : S_TEXT/UTF8
% \6 U0 Q) v* GCodec ID/Info                            : UTF-8 Plain Text# Z0 s) ^; m: r/ n, m
Duration                                 : 1 h 27 min
2 r& V/ J" V" x9 cBit rate                                 : 30 b/s
. K9 J" f$ h$ U  SCount of elements                        : 892
  \" \; o! w" n! aStream size                              : 19.5 KiB (0%)% T3 Y* U! E4 J& I  v# \- D$ Y
Title                                    : English-SRT
9 D+ w3 p& W5 S+ X2 [7 kLanguage                                 : English
' V) o8 t# i. HDefault                                  : Yes' b+ |3 R* L% }
Forced                                   : No
  V3 J+ _2 m0 U* Q
0 B4 q; g3 Z! \; k0 vText #2
3 d$ ]  R1 Y8 }, U  oID                                       : 8
5 s" A, {* r' C, s  ~3 `% Y1 fID in the original source medium         : 4608 (0x1200), n" r5 x: m8 t3 q8 \4 i: u
Format                                   : PGS
/ }, S' }/ G5 V+ UMuxing mode                              : zlib
/ ?2 g) `4 X1 P& x: ~Codec ID                                 : S_HDMV/PGS, L/ q! z$ w5 c. g7 m9 E$ V+ t
Codec ID/Info                            : Picture based subtitle format used on BDs/HD-DVDs
- N' ~0 E; P' C9 K, QDuration                                 : 1 h 28 min
" q. |0 _2 Z$ z6 c/ |% Z( `5 CBit rate                                 : 24.0 kb/s
4 Q9 a9 O4 a& K- x- fCount of elements                        : 1804; }" t+ |/ S" Z. T7 C: j" t( d+ v* k$ W
Stream size                              : 15.3 MiB (0%)- O3 `5 e' w( `; i& Q& u, w
Title                                    : English-PGS" S" U. s  E+ x3 u' Q1 B2 Q* f% }
Language                                 : English, G0 ?2 f' ?! G: U2 `) A7 a
Default                                  : No" O& v6 P8 R) L# w
Forced                                   : No+ p4 z6 V0 W# ?
Original source medium                   : Blu-ray
6 k4 \6 p0 P2 p1 U/ g- i6 N- Y* m/ A$ B$ x
Menu! V* b0 ]( p6 l4 ^2 s5 A6 |- N: ^
00:00:00.000                             : en:Chapter 01
' L: K2 l$ Z0 H4 i( Q/ y% J5 Z00:07:38.166                             : en:Chapter 02
* y) `7 i# U: e* g! Q2 K00:17:48.859                             : en:Chapter 03/ D# |- ]' ]) ~6 H/ _3 s3 w
00:26:40.974                             : en:Chapter 04
3 J( H: Z4 [% J1 F00:33:50.528                             : en:Chapter 05% v) A/ @9 w5 ^  u* ?+ H7 \0 ?8 g
00:41:26.901                             : en:Chapter 064 t; c0 [/ p; N5 I+ y0 N* ^( ^
00:50:46.626                             : en:Chapter 07
0 d, |0 @3 R" H3 u& V1 `00:59:12.799                             : en:Chapter 08
8 I1 ]6 E: S# `1 p01:06:29.360                             : en:Chapter 09( e( B! e2 u# r) o/ i8 a) n
01:13:17.810                             : en:Chapter 10' @  O2 L* L) C  W
01:23:15.657                             : en:Chapter 11
# s0 V3 {! ^0 _4 R6 m* I7 p0 n" ?01:29:07.258                             : en:Chapter 12) a4 @# {3 s) b. |4 K" ~1 n8 D
01:32:12.902                             : en:Chapter 13
Friday the 13th: Part VI - Jason Lives Blu-ray, Video Quality   
. w% o1 s5 M1 j1 d; A9 W( ?
( B( |+ Z. R* r7 N1 ^3 w7 k" k, q
) V8 [( b8 y) w& cThe cinematographer for Jason Lives was Jon Kranhouse, who would go on to specialize in aerial photography for such films as Star Trek IV and Broken Arrow. Like McLoughlin, Kranhouse was at the beginning of his career. As McLoughlin says at one point in his commentary, the relative youth of everyone involved was essential to their enthusiasm for the project.
3 B  ?6 h1 }# @! v* Q% N) e/ t1 e7 c- g0 ^' Z
The image on Warner/Paramount's 1080p, AVC-encoded Blu-ray for Jason Lives represents an uptick in quality, compared to The Final Chapter and A New Beginning. I attribute this to the source rather than any improvement in the transfer or mastering. The basic aesthetic of the series did not change with Jason Lives, but from all appearances either the quality of lighting or the film stock (or both) improved to the point that the filmed image gained some measure of polish and fineness of grain. On Blu-ray, this translates into superior detail, slightly richer color and a look that's closer to "studio" than "exploitation". Black levels and contrast levels are well set, the source material is in pristine condition, and there are no signs of untoward digital manipulation.% K) l4 N3 S8 g9 Q0 f: f5 v

7 T% F5 D4 u7 w; Y. E' gJason Lives shares a BD-50 with A New Beginning, but like its roommate it has a healthy average bitrate, in this case of 22.52 Mbps. I kept watching for compression artifacts, but none presented themselves.% ^+ H' X* S/ N# a

) w9 h' x" H$ m% r, G% o) lFriday the 13th: Part VI - Jason Lives Blu-ray, Audio Quality   
1 q) R0 c" _3 \( ?8 U9 q! H4 f& J/ A- u8 e/ q( K( Y* y' o

7 b) J3 Y1 _' |; p! h* o# b* aAs best as I have been able to determine, Jason Lives was the first film in the series to be released in Ultra Stereo, the generic version of Dolby Stereo. That track has been remixed as 5.1 and presented as lossless DTS-HD MA 5.1, and it's the first soundtrack in the series to provide an enveloping surround environment. Supervising sound editor Dane Davis has since become a major figure in film audio, winning an Oscar for The Matrix and designing sound for such films as The Cabin in the Woods and the upcoming Enders Game. Davis' layered stereo mix has provided the remix team with worthy material for a 5.1 experience.
" M) `$ B: m5 r. f, F, m- h+ b( M7 g6 J" H
The wind, thunder and lighting accompanying Jason's resurrection register with solid impact, and the forest environments are alive with insects and rustling leaves. You can feel the movement of cars racing down the road, and the sound of kids at camp yelling (or screaming) reaches out to envelop the viewer. Especially impressive is the final battle between Tommy and Jason, a complex blend of fire, water, body blows and clanking chains, all of which has to be appropriately modulated as the edits shift the viewer's perspective." ]6 d) l' _$ |! c+ I* o" P/ j

4 m2 c! O. r+ G! C: NHarry Manfredini's score plays with increased authority as it expands to fill the entire speaker array. Adding to the soundtrack's impact are three songs by Alice Cooper, including "He's Back (The Man Behind the Mask)", which plays over the closing credits. The entire track has wide dynamic range and the deepest bass extension of any entry in the series to date.; ]! Q+ a9 P% q+ m! P- o( `3 Y
游客,查看本帖隐藏内容请回复 | 加入VIP贵宾组可免积分免回复下载 了解详情 | 还不是会员:点击获取邀请码 Invitation Code

618

主题

2086

帖子

1万

积分

VIP advanced

金币
1848 枚
体力
4752 点

公主勋章卓越贡献勋章

21cn 发表于 2020-10-22 22:43:29 | 显示全部楼层
十三号星期五这个系列终于有全版的蓝光版了 哈哈

67

主题

1708

帖子

6370

积分

Sponsor

金币
508 枚
体力
2353 点
lanpanshuma 发表于 2020-10-24 16:04:08 | 显示全部楼层
啥也不说了,楼主就是给力!
( k  j, N7 n$ f( D! O5 vbluraycd forum, a lot of Blu-ray movies!. R  X! ?$ l* u% V- w
该会员没有 ...

本版积分规则

小黑屋|Archiver|蓝光电影资源网

GMT+8, 2020-12-2 14:01

快速回复 返回顶部 返回列表