BluRayCD Forum

 找回密码
 立即注册【分享大片】

QQ登录

只需一步,快速开始

查看: 30|回复: 3
收起左侧

[蓝光原盘] 十三号星期五7:新血液 [REMUX无损版] Friday The 13th Part VII The New Blood 1988 SHOUT 1080p BluRaycd REMUX AVC DTS-HD MA 5.1-FGT 24.12GB

[复制链接]

4774

主题

4947

帖子

6万

积分

Post Share

金币
9410 枚
体力
17321 点

卓越贡献勋章

黄金嫖客 发表于 2020-10-22 21:02:49 | 显示全部楼层 |阅读模式
Years after Tommy Jarvis chained him underwater at Camp Crystal Lake, the dormant Jason Voorhees is accidentally released from his prison by a telekinetic teenager. Now, only she can stop him.
5 k: C! n0 k) s! X- U
0 G& [2 A, j. a% K" K& G 01.jpg # w) P3 l5 b; J5 I
. E' T. l! y: O5 H
◎译  名 十三号星期五7:新的血液/十三号星期五第七集/黑色星期五7
( h( V3 t8 {; }2 b* X◎片  名 Friday the 13th Part VII: The New Blood. R, {3 @3 U6 Z* V! Z
◎年  代 1988
, ^6 m- A& [4 W' u◎产  地 美国+ V5 ]( j8 a& o4 m8 T" H
◎类  别 剧情/爱情/恐怖
) u* h" u5 j4 d3 Y7 _5 q" \◎语  言 英语0 M" T& y: c* p
◎上映日期 1988-05-13
, v" p% E0 N) e- r1 |◎IMDb评分  5.3/10 from 31,912 users
" w) ^3 I9 N( b1 n◎IMDb链接  https://www.imdb.com/title/tt0095179/
0 w, w- r& w' \5 a◎豆瓣评分 6.0/10 from 1,068 users3 D5 V" r) a. M5 s# c
◎豆瓣链接 https://movie.douban.com/subject/1305884/
1 r7 W. \6 Y8 {5 R# m3 B0 y8 v◎文件格式 x264 + DTS4 `2 S. \- g( S* C# m) n
◎视频尺寸 1920 x 1080! s9 w& a- O! k
◎文件大小 1DVD 24.12 GiB
% U, z& d; K" w9 y" b◎片  长 1 h 28 min
. B" t: @9 L+ t$ `! t◎导  演 约翰·卡尔·伯奇勒 John Carl Buechler( k/ a: g" U% p4 ], ~; `
◎编  剧 Daryl Haney
3 L: \! d: L6 p* |       Manuel Fidello
2 @9 E; x5 i" c' q: U( |% [       维克多·米勒 Victor Miller
- V. k- H; H+ q1 g" T, r( R" {◎主  演 约翰·卡尔·伯奇勒 John Carl Buechler
1 s! v5 \+ I  D* k& A! w0 Y       凯文·斯派塔斯 Kevin Spirtas
6 @0 K. A5 n4 i1 b  ?1 D+ |' [       拉尔·帕克·林肯 Lar Park-Lincoln
- u: h- L/ k5 f       Elizabeth Kaitan
. \! Z/ z& l6 I, C' V8 T       海蒂·科扎克 Heidi Kozak
9 @' b4 \) I! x. N       特利·奇瑟 Terry Kiser
# f) o- {# o9 _       Walt Gorney
3 C4 Z9 ]5 B8 Y5 M% ]( i: i( ^       Staci Greason
  J. s/ G4 }  @6 Y* ]       Diana Barrows
* c4 W) n+ C, X       苏珊·布卢 Susan Blu, j. O3 k  U( \  _6 `8 |  m+ a* J
       Jennifer Banko
+ {' I$ s6 J# p       凯恩·霍德尔 Kane Hodder  m$ r6 k) r( }6 t7 ?

+ R* `; f; M% a  Q  y* t◎标  签 恐怖 | 美国 | 惊悚 | 血腥 | 美国电影 | 黑色星期五 | 1988 | 恐怖电影# Y6 N3 u, b, `7 }) |3 n  {
, u' q2 D6 Y8 ?" \0 V4 n
◎简  介
+ P3 o8 p) j  m
7 j! A& O9 w/ f! V( v6 ^* ]  在汤米·贾维斯(Tommy Jarvis)把杰森炼锁在水晶湖底多年之后,一位有特异功能的年青人又不小心把杰森放了出来,杰森于是又回到了水晶湖营地重操旧业。! D3 \; l$ O* F  X$ \
0 {+ ]: r3 M2 b/ h7 A  i- Z; z& P6 E
  One of this season's happy campers at Crystal Lake has brought along a deadly secret. Tina Shepherd can see the future and levitate objects. Her doctor knows just how dangerous telekinesis can be, but now it's too late. Tina has accidentally unchained Jason from his watery grave, and the bloodbath is underway.
; }; A  \( H9 j. |+ L5 M. J
/ M/ V- j9 \4 e$ ]  J& q) k  {
Video
9 p% f5 O2 S/ G8 {" P. yID                                       : 1
# D8 s: N: g1 P1 r( _ID in the original source medium         : 4113 (0x1011)$ X) X2 ~) u/ g6 z+ N
Format                                   : AVC
; \0 H" Z  W! x9 e. CFormat/Info                              : Advanced Video Codec/ c6 h+ o, {, A0 J
Format profile                           : High@L4.1/ G  J. W& B, j" s# h
Format settings                          : CABAC / 4 Ref Frames, H& }- [9 a  _
Format settings, CABAC                   : Yes- N/ Z. W1 N( |0 N, H
Format settings, Reference frames        : 4 frames
) s; o8 T$ t2 O3 T/ g; T# LCodec ID                                 : V_MPEG4/ISO/AVC2 p& F9 a$ K4 {' ?
Duration                                 : 1 h 28 min
0 n; R+ l) A, Y& {2 H  jBit rate mode                            : Constant! W- ?  c7 I" `" s5 c
Bit rate                                 : 36.0 Mb/s, A# `8 ^2 N) z: o, h
Width                                    : 1 920 pixels8 b% Z5 M5 _6 J1 ^- s* z3 A* }
Height                                   : 1 080 pixels# O: [" \7 C- N3 V% a: s
Display aspect ratio                     : 16:9# i  H- F; q, R5 Z5 f$ Y
Frame rate mode                          : Constant$ p; P( u; B" R* y  m5 D5 X5 I! x
Frame rate                               : 23.976 (24000/1001/37687) FPS
( ?" L; u, l$ n/ [+ iColor space                              : YUV
& v- T* u) x2 vChroma subsampling                       : 4:2:04 Y) \8 _8 i' W; w. P
Bit depth                                : 8 bits
% d7 L; b2 d- t0 x5 W8 _# ], w3 s0 tScan type                                : Progressive) n2 w: A" \( @& D# `
Bits/(Pixel*Frame)                       : 0.724
( ~) e6 P5 F; j% r7 c( lStream size                              : 22.1 GiB (87%)# ?8 C1 X8 E3 S- l1 ?- c$ i9 m
Title                                    : Friday.The.13th.Part.VII.The.New.Blood.1988.SHOUT.1080p.BluRayCD.REMUX.AVC.DTS-HD.MA.5.1-FGT
* k) Y, ?; l3 z& nLanguage                                 : English
1 l! L% n6 q, X0 tDefault                                  : No
! a6 K7 ?) {. j6 |7 d  E  q6 I/ \% F; HForced                                   : No
# S  M9 H/ i- c6 ?5 tOriginal source medium                   : Blu-ray
+ w3 b5 m/ D: l1 B' w
  ~6 [' W/ j" U( [/ }+ y! B4 K' CAudio #1; t/ s4 B+ c) b0 E$ `1 o4 v
ID                                       : 2- e3 s( F7 ~* B4 o# |
ID in the original source medium         : 4353 (0x1101)3 M+ d# S( d1 |, N$ d; u! G
Format                                   : DTS XLL" E! D4 v" q2 a0 p
Format/Info                              : Digital Theater Systems
& M# k3 v7 I8 M: V1 @; LCommercial name                          : DTS-HD Master Audio
, v& C, d9 x2 N: a% m, N' \& dCodec ID                                 : A_DTS& b' S5 L8 C% `2 u
Duration                                 : 1 h 32 min
* V' q7 |5 }/ f+ p7 r( m7 l) iBit rate mode                            : Variable! O( z/ l$ r" N6 n) h
Bit rate                                 : 2 835 kb/s
8 W8 _2 F) I1 _Channel(s)                               : 6 channels' B7 B% T% D6 \
Channel layout                           : C L R Ls Rs LFE
" {7 x2 Y; I3 s! ISampling rate                            : 48.0 kHz
5 ]4 Y6 B" _+ f: kFrame rate                               : 93.750 FPS (512 SPF)
- R/ E( m, h( F: y# V1 LBit depth                                : 24 bits+ ]) b4 d$ m6 }. ]; x
Compression mode                         : Lossless+ k- b$ ]/ @& X) Y& N! C; Z  X) {
Stream size                              : 1.83 GiB (7%)
* V7 ~" b$ ^8 K! D0 |6 ITitle                                    : Friday.The.13th.Part.VII.The.New.Blood.1988.SHOUT.1080p.BluRaycd.REMUX.AVC.DTS-HD.MA.5.1-FGT4 U  g  T% Q, a7 \: g" F
Language                                 : English  p9 [9 F' y& s( \; e# H5 d5 X& T
Default                                  : Yes4 B: o4 }9 o! i
Forced                                   : No$ k$ Y# A5 o3 a0 A- n
Original source medium                   : Blu-ray9 Y0 q& m+ ?( F  W, `" }8 O
! t! W& i1 A9 ?8 W
Audio #22 @: l. _4 X3 H' j8 M
ID                                       : 3) S1 Q; M, |: X7 g/ e4 O' N
ID in the original source medium         : 4352 (0x1100)6 I0 z% p( S# q; Q* i
Format                                   : DTS XLL( s( c7 k- ?; n4 s4 b- d
Format/Info                              : Digital Theater Systems) M) m7 q  t- b/ d
Commercial name                          : DTS-HD Master Audio& W/ I; Q8 B+ ^  O- V$ |# t* U
Codec ID                                 : A_DTS3 q0 J' D+ f% ?+ ~
Duration                                 : 1 h 32 min
4 z) Q* X' H2 YBit rate mode                            : Variable
( ~9 Z; K1 E) vBit rate                                 : 1 572 kb/s
$ i* o5 L4 Z1 t2 ^2 `) W, r$ S1 S. nChannel(s)                               : 2 channels: I* U2 G1 V  Z
Channel layout                           : L R
! e# |( u6 l( i, SSampling rate                            : 48.0 kHz+ C. R. |5 l$ a3 z: z9 x9 m/ `+ _
Frame rate                               : 93.750 FPS (512 SPF)
0 N0 x- v# s& K! U4 U  iBit depth                                : 24 bits
# \  k# |" P, f0 @5 ?# a% uCompression mode                         : Lossless
  g$ T. ?8 Z7 _$ vStream size                              : 1.01 GiB (4%)
; P$ E. r* c/ R/ X. @Title                                    : Friday.The.13th.Part.VII.The.New.Blood.1988.SHOUT.1080p.BluRaycd.REMUX.AVC.DTS-HD.MA.5.1-FGT; p# S' @! f; S6 _3 m( E! Z' J
Language                                 : English& F/ U1 Q/ S' `9 @# u+ ]
Default                                  : No
  m, N, U" l* b- S( TForced                                   : No6 b: F2 f3 Q( M: I7 b: \! G! o
Original source medium                   : Blu-ray) S. ~& f9 [# A$ _, F" v

  Z& J9 ~8 D+ R3 _) J* B6 L; t0 qAudio #3
- x/ X0 J& A6 n  l0 z( SID                                       : 4/ P) Z7 C, d" p  k* ~2 j0 B7 l9 ]
ID in the original source medium         : 4354 (0x1102)
; l/ n# o* [% F- h$ q) `Format                                   : AC-3- Q$ s" G. W" F  {/ b: L9 [, \9 J
Format/Info                              : Audio Coding 3
. w) K7 o* W/ {7 mCommercial name                          : Dolby Digital
/ C6 u! a; x6 G, t- [$ pCodec ID                                 : A_AC3% S+ Q2 X$ N# J2 J) i+ O
Duration                                 : 1 h 32 min
2 A* `+ W# C4 B! Y1 ]0 X: QBit rate mode                            : Constant4 j' x6 f- T/ }/ @' `+ c, {2 ^
Bit rate                                 : 192 kb/s# Q/ u5 U' X! N4 V' @9 P  J
Channel(s)                               : 2 channels/ S% }$ U9 Q9 \: v
Channel layout                           : L R
) Q4 ?  P/ Q* q8 S6 C( SSampling rate                            : 48.0 kHz' ~/ q  P" ?3 S$ h8 w' Z8 E
Frame rate                               : 31.250 FPS (1536 SPF)+ S* B. P# D4 I7 X) w
Compression mode                         : Lossy' x% Q6 d6 v7 A- Z) `
Stream size                              : 127 MiB (0%)/ W1 R+ G5 Y3 B0 b
Title                                    : Friday.The.13th.Part.VII.The.New.Blood.1988.SHOUT.1080p.BluRaycd.REMUX.AVC.DTS-HD.MA.5.1-FGT7 x$ Y2 x. l9 ^& ^! t" n
Language                                 : English
& x0 ^+ n$ d6 ]  Q# n( v- w2 IService kind                             : Complete Main) v1 k" ~% r- a" B5 T
Default                                  : No9 Y# U( j! f7 u8 D4 m
Forced                                   : No
' n& M$ L; A* M& f( Y' sOriginal source medium                   : Blu-ray3 T( K) z" }+ A3 R; P1 k4 R

# t; [8 |5 P, _2 |+ J; _6 F0 LAudio #4
; \  i  ]% y; }  ~4 M7 M( c/ GID                                       : 5/ P( a1 r4 }4 }& \( `
ID in the original source medium         : 4355 (0x1103)" w2 ?) h: T) d+ k3 W
Format                                   : AC-3
+ p% w! x- E" K# `0 Z3 E2 d9 ~Format/Info                              : Audio Coding 3% [8 X, `3 L- B7 B/ P2 M4 K
Commercial name                          : Dolby Digital3 a, y0 l1 N( V" W
Codec ID                                 : A_AC35 O0 D. l+ e+ d2 G! v5 D- [
Duration                                 : 1 h 32 min
9 l( [. `" j  p% M6 [; e1 UBit rate mode                            : Constant
& D$ x$ I. |6 QBit rate                                 : 192 kb/s6 N* O$ p& Q; k! F; r
Channel(s)                               : 2 channels
. w! }2 q) B2 u# wChannel layout                           : L R8 |& u( ]- ?3 z
Sampling rate                            : 48.0 kHz* ^5 Z7 i/ g2 K5 s/ L
Frame rate                               : 31.250 FPS (1536 SPF)5 k* u+ ~1 N+ x: s) i
Compression mode                         : Lossy
+ D, Z3 z. m+ Z3 Q% iStream size                              : 127 MiB (0%)0 c" _# F! G# R' ^4 b
Title                                    : Friday.The.13th.Part.VII.The.New.Blood.1988.SHOUT.1080p.BluRaycd.REMUX.AVC.DTS-HD.MA.5.1-FGT2 o4 [: s5 f0 z/ E& F
Language                                 : English
7 Z# u2 K0 z4 {! l7 u. \% zService kind                             : Complete Main, {8 Y" f& g# Q* T: ^
Default                                  : No" [8 T7 s# A3 ?' ]1 j  k- B
Forced                                   : No. @1 R( G) p' \: R. F5 t
Original source medium                   : Blu-ray3 z, Q0 q6 K7 \6 D/ C4 x4 O

2 x! ~2 r$ \4 J" J2 }Audio #5
4 i7 C$ @) ]. p5 ^9 M7 r: Q  BID                                       : 6# k+ i3 z8 d! g" d, g
ID in the original source medium         : 4356 (0x1104): T) l9 U: k; {
Format                                   : AC-3
3 _. T$ F  {2 E8 M1 E9 tFormat/Info                              : Audio Coding 3
0 j3 G  ?8 ~: g. f" F) r$ FCommercial name                          : Dolby Digital
: b) X/ W; _  V: S4 rCodec ID                                 : A_AC3
! [; {$ d0 k" pDuration                                 : 1 h 32 min
3 E) \! ^+ l: \  @+ _9 g8 j2 b- KBit rate mode                            : Constant( e& z2 _8 p  j  O
Bit rate                                 : 192 kb/s! u1 f% D' v% o  Y
Channel(s)                               : 2 channels! I7 a* w" y0 }# H) i0 C/ x% T
Channel layout                           : L R
% _' F. B0 o. n6 ^Sampling rate                            : 48.0 kHz( c/ F2 O' h7 r4 t1 {! B1 F
Frame rate                               : 31.250 FPS (1536 SPF)
! \6 z/ H" D) g% J6 v; c6 iCompression mode                         : Lossy
( L2 O+ u: x2 x' v' bStream size                              : 127 MiB (0%)
: b# M+ N- b9 ]1 d5 eTitle                                    : Friday.The.13th.Part.VII.The.New.Blood.1988.SHOUT.1080p.BluRaycd.REMUX.AVC.DTS-HD.MA.5.1-FGT
# ]9 V/ c# b& p6 ELanguage                                 : English
* A. g  }3 {* C* {# {0 u+ pService kind                             : Complete Main
& Y0 p+ c$ s: d, R3 R# h% iDefault                                  : No
5 ?- e$ P5 P, Y' T+ i0 |Forced                                   : No
0 r2 B" `4 i3 \4 k' l2 y1 IOriginal source medium                   : Blu-ray, _' s, H( G* d) Q( _2 ]

8 v' T+ [$ H' n( m- s8 S# D. PText #1
* U  b1 c# l7 r4 Y3 |! j$ iID                                       : 7- w7 U- P4 j% ?! o' S
Format                                   : UTF-8
$ I& c5 f: I) H1 B$ e+ DCodec ID                                 : S_TEXT/UTF82 f1 ^0 }0 v) f  l/ p- C
Codec ID/Info                            : UTF-8 Plain Text
+ a4 A3 m. T. ~Duration                                 : 1 h 27 min0 I! |+ _% c3 }+ a  Q1 F# p
Bit rate                                 : 30 b/s$ F; T& S- i0 C9 ~6 y
Count of elements                        : 892
4 }0 ~) x/ \7 E. d- ]5 MStream size                              : 19.5 KiB (0%)7 G& R0 C9 X9 x  [- O0 m  K8 M
Title                                    : English-SRT
1 n8 i+ r) o+ u! CLanguage                                 : English: t9 c$ S& U- {. C) `2 H
Default                                  : Yes5 |2 |1 K% H* m$ v4 R6 `' S
Forced                                   : No7 H" V+ q1 R# N( M- Y* j+ R$ z

$ ?: l6 Y1 O; l' Z+ [3 V& yText #27 g9 u2 I9 @6 F# U! P/ d7 z
ID                                       : 8
6 p4 @4 |& k1 z/ M$ SID in the original source medium         : 4608 (0x1200)
, A( R- w6 a2 S8 {2 G8 ?Format                                   : PGS1 }( ~0 f- m, O8 U7 O2 F5 F% O6 m
Muxing mode                              : zlib
6 n# ^6 E* |, V' DCodec ID                                 : S_HDMV/PGS
- U9 j, p: ?1 Y' k8 xCodec ID/Info                            : Picture based subtitle format used on BDs/HD-DVDs
! B9 P0 T3 u' J/ CDuration                                 : 1 h 28 min
4 |$ ~% Y. |* U2 e, v3 yBit rate                                 : 24.0 kb/s
+ D& S8 y. t1 n% b% n& hCount of elements                        : 1804
; y- g9 j8 t" F8 Q4 K+ Q) oStream size                              : 15.3 MiB (0%)9 Q2 n. q* U2 o( b1 [
Title                                    : English-PGS
; i$ }, a; \3 W- R9 w3 ]Language                                 : English: H- r- g% h+ Q% y
Default                                  : No
7 i2 U$ k- D( C% G- WForced                                   : No" A/ }* u- U7 K$ i
Original source medium                   : Blu-ray- @# Z. E# E9 R' A1 @9 w
* J+ K8 r+ r$ S2 r9 d
Menu" y$ q2 J% S! P7 X* {+ l
00:00:00.000                             : en:Chapter 01
3 g* X$ B, l( X# c; X( s00:07:38.166                             : en:Chapter 02
2 b' ^  Y1 o  H; i6 s$ c00:17:48.859                             : en:Chapter 036 B( S  y- z* U( H& R
00:26:40.974                             : en:Chapter 04
9 H5 z! f/ e0 A# b: ?00:33:50.528                             : en:Chapter 05
9 e( j' \6 i9 E" v/ g7 g! i# _00:41:26.901                             : en:Chapter 06, j. s7 M# M: o  }  v3 Y! v7 w- K$ Q
00:50:46.626                             : en:Chapter 07# F3 |$ O6 K. b3 _7 E% F
00:59:12.799                             : en:Chapter 08, ~% i% O) q) k( P- W
01:06:29.360                             : en:Chapter 091 Y- x& p6 \; d  ]1 \8 J
01:13:17.810                             : en:Chapter 100 [: K/ k5 G+ j4 F
01:23:15.657                             : en:Chapter 11, @/ `0 {8 Y" _
01:29:07.258                             : en:Chapter 127 f; k, |& r' q  ]
01:32:12.902                             : en:Chapter 13
Friday the 13th: Part VII - The New Blood Blu-ray, Video Quality   & @2 a: e, e: B% f

- a; q" c! j7 C& E1 q( q! z; `# ~) U; M) Z$ j' _8 D; M
The cinematographer for The New Blood, Paul Elliott, was just getting started, having served as a camera assistant on such independent productions as Dreamscape. He has become a frequent DP for HBO films, as well as successful small dramas such as My Girl and Soul Food. While The New Blood did not have a bigger budget than previous Friday the 13th films, its lighting and palette continue the movement away from the exploitation style that was already evident in A New Beginning. Pastels and lighter shades are more common; surfaces are less harshly lit; and the image gains a greater sense of texture and depth.
1 _9 }2 V* {( N6 b
- e& M# P) j6 SThe image on Warner/Paramount's 1080p, AVC-encoded Blu-ray for The New Blood is surprisingly good. (Why "surprisingly"? I'll get to that in a minute.) The detail is excellent, especially when Buechler's makeup for Jason's rotting carcass comes fully into the light, or in scenes in the surrounding woods, or even in something as ordinary as a group of people talking in a kitchen littered with party preparations. The blacks are solid, the contrast is never overstated, and the colors are appropriately saturated, with the red of blood and the orange of fire being the strongest.
$ L% D( r+ e$ _  w
3 {) v7 B- ^* y; Q1 GWhy is this a surprise? The New Blood is on another of The Complete Collection's double features discs, sharing a BD-50 with Jason Takes Manhattan, which is one of the longest films in the series at 100 minutes. The combined running time of the two films is three hours, eight minutes, and both have significant extras. When I ran the average bitrate for both films, I was shocked at how low it came out—18.45 Mbps in the case of The New Blood. I was amazed that compression artifacts had not been obvious during viewing., I( I+ T8 B, A9 @3 C

$ W, b6 f5 J8 h' [% Z0 mOne possible explanation is that significant portions of The New Blood occur at night, with much of the frame in darkness. With little or no change in those areas, the compressionist may have achieved substantial savings. It also no doubt helped that the grain pattern on The New Blood is fine and barely visible, although there is nothing to indicate that this was achieved by digital manipulation. In any case, the eye is a more meaningful judge than the statistics, and The New Blood looks just fine.: j. L1 W! @+ d  F7 R2 _, S

9 w. t! G6 }( z7 h7 t: p6 PFriday the 13th: Part VII - The New Blood Blu-ray, Audio Quality   
& K5 K4 F; M7 \# U7 x7 ]/ r5 P) }0 C0 ^5 |+ V( \( H2 J' X; t

2 |' ]  G0 ], |2 fFrom the opening bars of Harry Manfredini's music, selected, edited and, at a few points, filled in by Fred Mollin, the Blu-ray's lossless DTS-HD MA 5.1 track provides punch and an enveloping surround presence. The New Blood was originally released in Ultra Stereo, and the remix has made good use of the discrete multi-channel format to open out the two-track matrixed version. As with Jason Lives , the sound editing was overseen by future Oscar winner Dane Davis, who used all his talents to bring the big telekinetic events to life. The pier that collapses into the water at the beginning does so with a cracking, sickening thud. The various crashes, collapses, live wires and flying objects involved in the final showdown between Jason and Tina have equally distinctive sonic signatures. A vehicle crash midway through the film is a symphony of screeching tires, jarring impact and grinding metal. Jason's various murders, a number of which are performed by sheer physical force instead of with cutting tools, are accompanied by a cacophony of sickening blows and crunches. And there's a hedge trimmer with a distinctive high-pitched roar.
6 p7 L) L6 z# G0 S  \% V" l0 I! J1 P: ?. {8 e# a
The dialogue is very clear, particularly that of Dr. Crews, who seems to yell everything at full volume.! |2 T& ^& C& c, h, v+ X
游客,查看本帖隐藏内容请回复 | 加入VIP贵宾组可免积分免回复下载 了解详情 | 还不是会员:点击获取邀请码 Invitation Code

618

主题

2086

帖子

1万

积分

VIP advanced

金币
1848 枚
体力
4752 点

公主勋章卓越贡献勋章

21cn 发表于 2020-10-22 22:44:41 | 显示全部楼层
十三号星期五这个系列终于有全版的蓝光版了 哈哈$ g+ S2 X" q& \( u/ r. e  W0 k% ~

0

主题

587

帖子

2614

积分

Sponsor

金币
17 枚
体力
1455 点
QQ
七喜 发表于 2020-10-23 18:16:00 | 显示全部楼层
这么好的帖子不回对不起自己!, ~1 @) \7 j/ ?' ^
Not see, I am a novice, the inadequacies of the first Please bear with me!0 Q% z& ]: ~' T8 o0 y: V- ^

67

主题

1708

帖子

6370

积分

Sponsor

金币
508 枚
体力
2353 点
lanpanshuma 发表于 2020-10-24 16:05:38 | 显示全部楼层
楼主发贴辛苦了,I*老*虎*U!
( y4 B# `+ I2 hYour resources, well, I am very satisfied!
7 o  Y! C! |/ Z9 K
该会员没有 ...

本版积分规则

小黑屋|Archiver|蓝光电影资源网

GMT+8, 2020-12-2 13:39

快速回复 返回顶部 返回列表