BluRayCD Forum

 找回密码
 立即注册【分享大片】

QQ登录

只需一步,快速开始

查看: 23|回复: 3
收起左侧

[蓝光原盘] 十三号星期五8 [REMUX无损版] Friday The 13th Part VIII Jason Takes Manhattan 1989 SHOUT 1080p BluRaycd REMUX AVC DTS-HD MA 5.1-FGT 28.21GB

[复制链接]

4774

主题

4947

帖子

6万

积分

Post Share

金币
9410 枚
体力
17321 点

卓越贡献勋章

黄金嫖客 发表于 2020-10-22 21:23:55 | 显示全部楼层 |阅读模式
A boatful of graduating high school students headed to Manhattan accidentally pull Jason Voorhees along for the ride.) C$ v2 i* m) B! i: z  O4 U' _6 ~

  w' q, b2 D5 N& x4 n) a+ k 01.jpg 3 g* f( }& |9 N7 O7 E. f
  O3 \4 O, `: D' k2 f  o4 \- D8 S, i
◎译  名 十三号星期五8/黑色星期五第八集:杰森侵入曼哈顿4 a: T8 G" k: y, Y/ R
◎片  名 Friday the 13th Part VIII: Jason Takes Manhattan. z7 d1 K+ e4 N2 I, f
◎年  代 1989
. F9 S2 f, w4 Q+ h◎产  地 美国
5 d7 S4 i: l2 b6 C3 N/ Y◎类  别 恐怖8 r2 \1 s3 j3 a4 U2 j6 S( K
◎语  言 英语
: b! a) R" T. T/ R5 u3 `◎上映日期 1989-07-28
8 A7 o* l7 r$ D% }) y◎IMDb评分  4.6/10 from 32,950 users
8 j: M' w* f# p  C◎IMDb链接  https://www.imdb.com/title/tt0097388/4 k% z# E1 i2 H- }, p! T
◎豆瓣评分 5.9/10 from 1044 users: L: Q* R  s' D0 V) q- x. m
◎豆瓣链接 https://movie.douban.com/subject/1298075/
- U' D) ^1 o$ z◎文件格式 x264 + DTS, Z- [- A+ O) b$ v; o3 D  ?6 f
◎视频尺寸 1920 x 1080
& V4 N1 I  X/ v- L: X◎文件大小 1DVD 28.21 GiB
7 B; g, y+ [  W) c3 v7 [( w◎片  长 1 h 40 min
: [8 }( G) k5 y+ W" ~# n◎导  演 Rob Hedden, S. G3 d2 g! d- \' ~* T, j
◎编  剧 Rob Hedden$ C, |5 z/ ]1 x( X$ g
       维克多·米勒 Victor Miller
; O/ ~. Z5 |) y  |3 t- ]◎主  演 Todd Caldecott
& o+ V$ N( B8 p8 Z       Tiffany Paulsen% I# U3 `3 T8 r0 \
       凯恩·霍德尔 Kane Hodder
$ \$ C+ I: D: B. B7 p       Tim Mirkovich
2 W; r7 X2 @0 B. h       斯科特·里维斯 Scott Reeves
; i- J, b" L& [' A- W0 _       Saffron Henderson2 [4 I  g! R' i
       阿莱克斯·迪亚坤 Alex Diakun
% d4 X8 e4 j. m9 i       David Jacox8 l; c5 j& M/ g2 k, u
       马丁·库明斯 Martin Cummins
) E" L! ~9 I/ B( E! f6 |       迈克尔·本耶尔 Michael Benyaer$ X& M: A6 o8 `: a# j1 F
       Roger Barnes5 V; i! ]- ]6 E3 l8 S* ?* X& n
       肯·科齐格 Ken Kirzinger( S% J# S) Z) u+ ^3 k
       Tim Mirkovich& B# c: p3 _% m4 o) H8 a" ?
       胡凯莉 Kelly Hu- E, J3 X7 e5 Q+ g6 F; k
       彼特·马克·里奇曼 Peter Mark Richman
2 l* [* f) N) }; ~! k; L! g/ O. Q
! c. o6 K6 U  V0 O5 z' e# v◎标  签 恐怖 | 美国 | 惊悚 | 血腥 | 黑色星期五 | 美国电影 | 1989 | 暴力& |8 J3 f. d$ K) I! b$ g: S9 x

- B( _, x+ G# ~6 A' s% v' z9 l◎简  介   
2 X8 j" G. l" `5 n  : `+ b/ N6 L" N: T6 L8 A( v
  当夜色笼罩,纽约变身为罪恶之城,在羞于见光的角落里,自有一群人按照自己的阴暗方式生存着……杰森的尸体静静的留在湖底,直到这天,一对游船上的情侣无意中将湖底的电缆割断,流泄的电能将杰森再度唤醒,杀人狂翻身上船,顺手杀死了情侣。同时,一艘开往纽约的游船在码头即将起航,古板严苛的教师查尔斯(彼特·马克·里奇曼 Peter Mark Richman 饰)与一班学生们将搭乘该船前往曼哈顿。杰森潜行到了大船上,按部就班残杀每一个落单的乘客,当船长也被杰森杀害后,幸存的人们终于意识到危险降临,他们试图团结一致对抗杰森,这次前往曼哈顿的流程,变成了不折不扣的生存考验……
4 G+ H6 s; w# p, B, g' b) b) C1 @, y# l! N/ L2 Z# n8 w
  High school senior Rennie Wickham is in for the ride of her life - and possibly her death - when she and her classmates take a graduation cruise bound for New York City. Little do they know that crazed serial killer Jason is a stowaway who quickly transforms the teen-filled "love boat" celebration into the ultimate voyage of the damned.
0 B: G2 s; ~+ g; ]- ^* g% d3 d4 X  v
Video. a9 Z8 H1 D1 ?$ Q' B
ID                                       : 14 ]8 P( V1 t% q) e  F
ID in the original source medium         : 4113 (0x1011)
4 j' _( j3 L5 X7 c& GFormat                                   : AVC
! S1 D! S& S8 c8 u. K- mFormat/Info                              : Advanced Video Codec" x% k. P, n  n/ a) j  E
Format profile                           : High@L4.13 @. N! F9 i5 C& l7 C
Format settings                          : CABAC / 4 Ref Frames
0 g# X' }: ?$ u, F) OFormat settings, CABAC                   : Yes1 g  d1 ?. o/ a* N
Format settings, Reference frames        : 4 frames3 Y7 J9 o% [6 m. i( t
Codec ID                                 : V_MPEG4/ISO/AVC; |; ~, n9 V8 k! @
Duration                                 : 1 h 40 min% f: F" _: V% `2 r  j
Bit rate mode                            : Constant
) e5 j4 s4 D0 qBit rate                                 : 36.0 Mb/s
' Z: t; B6 {1 X% Q( `6 SWidth                                    : 1 920 pixels- k$ @* _% w* I6 @" ]0 w& T) T6 D
Height                                   : 1 080 pixels, K$ r2 Y5 c! y# R
Display aspect ratio                     : 16:9( t) K. S; R  Z
Frame rate mode                          : Constant, ]' H( d1 N4 g* P, B
Frame rate                               : 23.976 (24000/1001/37687) FPS( l- H6 a8 S! ~$ u: k; b
Color space                              : YUV
6 F. c% I2 \6 h4 j" Q$ |: ^Chroma subsampling                       : 4:2:0" v- L' g; ~( i& T! K
Bit depth                                : 8 bits+ n5 Z$ m, ?+ j" ^7 h: m9 F
Scan type                                : Progressive4 K5 D; A' }! Y) D( ~
Bits/(Pixel*Frame)                       : 0.7243 U8 V2 q3 `. [8 T. c; r7 I
Stream size                              : 22.1 GiB (87%)2 Y0 N/ d. d$ R
Title                                    : Friday.The.13th.Part.VIII.Jason.Takes.Manhattan.1989.SHOUT.1080p.BluRayCD.REMUX.AVC.DTS-HD.MA.5.1-FGT
* v1 n' O$ ?9 L% Y! Z8 d' eLanguage                                 : English8 I$ G; {$ q4 F9 ?
Default                                  : No
  O3 M7 q+ C* |. F& ~" ~Forced                                   : No
* I! D/ N% i1 G* o1 u" c: Z6 KOriginal source medium                   : Blu-ray$ A9 P& q3 l; c
# O) J8 P0 i- W8 G& Z. s  [
Audio #1
" I2 Y( E0 X" d  BID                                       : 2& h& S0 h5 a) Y" ^, J2 q/ x$ _8 \) D8 M
ID in the original source medium         : 4353 (0x1101)
2 G8 Z% p7 H3 b- K- ~5 S  BFormat                                   : DTS XLL
( N! Z  @  `+ x* x; VFormat/Info                              : Digital Theater Systems( {  q; Z5 }& {" [
Commercial name                          : DTS-HD Master Audio. Z' k0 r% @8 ?' B
Codec ID                                 : A_DTS) ^& v  K( U) I' y1 F+ X; j3 C5 _
Duration                                 : 1 h 32 min- a! D$ ~4 z8 N9 J5 }; P. @
Bit rate mode                            : Variable* }- j6 c( E2 z2 C2 _% z: V0 m- B
Bit rate                                 : 2 835 kb/s
1 y" a. ?; }9 g* @8 o8 W9 eChannel(s)                               : 6 channels6 i; i: {' T; c* h1 [
Channel layout                           : C L R Ls Rs LFE7 D! [/ e' u: |5 b' H( w
Sampling rate                            : 48.0 kHz
/ s6 U& K/ h, ^( _' `Frame rate                               : 93.750 FPS (512 SPF)
7 t3 F- i# x" S' @8 ]# z' E- f8 NBit depth                                : 24 bits! q4 N' Q1 V1 W8 O3 t$ p3 n
Compression mode                         : Lossless
) v! L! q& b. H% z; ]Stream size                              : 1.83 GiB (7%)+ w- l$ d0 p2 f  P  [  }
Title                                    : Friday.The.13th.Part.VIII.Jason.Takes.Manhattan.1989.SHOUT.1080p.BluRaycd.REMUX.AVC.DTS-HD.MA.5.1-FGT3 {: w' g) {& e5 N, s$ F. \
Language                                 : English) `" G) l" B2 Y
Default                                  : Yes
- b$ h/ P, L9 e# x" m3 HForced                                   : No
' O3 R1 T! @0 cOriginal source medium                   : Blu-ray% j6 i9 z- }. ~& M' U

  }' x- ]! `# J8 [5 yAudio #2' W2 {$ f7 U$ c: |
ID                                       : 3  v5 q: N: J$ T
ID in the original source medium         : 4352 (0x1100)
( |! [" _0 y, t$ e4 c* JFormat                                   : DTS XLL: `, v" \% h1 O5 C2 V
Format/Info                              : Digital Theater Systems* x4 a  @) o: P& U$ V6 W* {
Commercial name                          : DTS-HD Master Audio+ ~( Z& u* l: o6 ?3 Y
Codec ID                                 : A_DTS4 B& M1 B2 U. V; g4 V9 C
Duration                                 : 1 h 32 min4 k1 o1 s  x  A& A
Bit rate mode                            : Variable
1 A/ d# a5 N# y# u( |* kBit rate                                 : 1 572 kb/s6 X$ _8 z  {: n  `
Channel(s)                               : 2 channels1 M, z2 {1 k6 |/ B; J
Channel layout                           : L R: m( A( e8 k' l% D: z
Sampling rate                            : 48.0 kHz
' s: S. J) Z& o8 `Frame rate                               : 93.750 FPS (512 SPF)/ b) e9 D' m( t5 D
Bit depth                                : 24 bits
. r! o4 r$ ?* H$ J: h% iCompression mode                         : Lossless2 C/ e! K# E0 A8 T8 c1 R! T
Stream size                              : 1.01 GiB (4%)
1 E; \( l( d! d0 r( M" C. xTitle                                    : Friday.The.13th.Part.VIII.Jason.Takes.Manhattan.1989.SHOUT.1080p.BluRaycd.REMUX.AVC.DTS-HD.MA.5.1-FGT( b' [+ n/ H1 t
Language                                 : English
* w3 I0 i/ Q- _+ V- o: q: I9 ?Default                                  : No) ]* D' I; ~0 i& J) ^+ e) |  _& I
Forced                                   : No
2 L+ U7 t. P6 c& }# {Original source medium                   : Blu-ray- O* {8 \% S% |# U/ V2 r0 k1 F1 }

  l9 [3 Q8 f9 |Audio #3
  s7 ~: p/ V( Y: hID                                       : 4
5 Y( k  F$ ]/ x3 c$ l+ x1 pID in the original source medium         : 4354 (0x1102)
0 m  [! r, r4 ^$ AFormat                                   : AC-3
+ u/ I5 n2 l5 T  ~2 MFormat/Info                              : Audio Coding 3* Q: K1 f7 E) \
Commercial name                          : Dolby Digital
/ X; b, b9 o9 w" c. S2 S+ aCodec ID                                 : A_AC3
) ^7 Z9 L' t4 ^' C9 a! RDuration                                 : 1 h 32 min; N# I  I9 [9 I: I
Bit rate mode                            : Constant6 W! W0 }' n7 [0 X* T
Bit rate                                 : 192 kb/s9 B9 B4 d; D/ X2 s: v
Channel(s)                               : 2 channels& R" A) \( ^7 j& p" T
Channel layout                           : L R
  u: W* k! J1 j' e8 ESampling rate                            : 48.0 kHz, u1 }6 S( ^$ h1 N" p
Frame rate                               : 31.250 FPS (1536 SPF)
; W5 h9 ]3 g" P3 Z% B  y1 nCompression mode                         : Lossy9 _8 g3 b$ c) H) z8 ~" m7 w
Stream size                              : 127 MiB (0%)
  d/ H, h, M+ c" ~1 jTitle                                    : Friday.The.13th.Part.VIII.Jason.Takes.Manhattan.1989.SHOUT.1080p.BluRaycd.REMUX.AVC.DTS-HD.MA.5.1-FGT9 Y3 q7 Y  L  j- U
Language                                 : English, B: L, @9 G" Y( t
Service kind                             : Complete Main: ?5 I% e6 q% q: m
Default                                  : No% S" @1 K" Y3 C5 ]
Forced                                   : No8 e; l( R* |; w; Y1 Q% `
Original source medium                   : Blu-ray
3 u' U" i0 a' ], s3 v3 N0 ]
; W. y; `, J8 o6 R$ {( @Audio #48 G2 E! ]) N7 I8 J; @
ID                                       : 5
$ Y! |5 N; S9 f  ~7 d" n3 y: BID in the original source medium         : 4355 (0x1103)4 }# J, Q0 x9 V% M9 r
Format                                   : AC-3
2 d) y. u* P3 Y4 G/ }7 j" P* zFormat/Info                              : Audio Coding 37 }/ A# R' _- w8 K; y
Commercial name                          : Dolby Digital' y) _, ?9 E- m
Codec ID                                 : A_AC3
( j' Z+ e  S, j( R+ U# f: x6 kDuration                                 : 1 h 32 min
5 F/ l0 t* B. M3 K7 m$ m, q1 `Bit rate mode                            : Constant( J) E" m7 I2 Q
Bit rate                                 : 192 kb/s+ Z3 S/ M$ t9 ~, ^& Y& \
Channel(s)                               : 2 channels7 o7 Y7 ^( p5 x2 W9 E8 Y
Channel layout                           : L R5 H' U- U6 z& M5 y; Y/ u
Sampling rate                            : 48.0 kHz7 i  C; T0 B! p; {' A) |
Frame rate                               : 31.250 FPS (1536 SPF)
9 B) e! X; r+ eCompression mode                         : Lossy, t/ v& a9 ~/ v) C: `
Stream size                              : 127 MiB (0%)4 Z9 ^, v8 k* V! p2 V7 A' j  G
Title                                    : Friday.The.13th.Part.VIII.Jason.Takes.Manhattan.1989.SHOUT.1080p.BluRaycd.REMUX.AVC.DTS-HD.MA.5.1-FGT
+ r3 r' l8 |2 }$ {0 Y5 @Language                                 : English- W, d% v) L! \
Service kind                             : Complete Main3 |( R* {# J' W8 f$ x
Default                                  : No
5 w8 o) u3 B$ a4 d9 K/ SForced                                   : No% g- n) u, x# O* }" Q
Original source medium                   : Blu-ray4 p4 F/ }4 \: E, z1 v
. }( ]1 Y( f; ?; p
Audio #5% h! f6 d3 M0 Y* r/ b7 C
ID                                       : 6
" k( D) y% v/ o1 {  }ID in the original source medium         : 4356 (0x1104)% ^& k7 X# Y6 }3 W% T, _
Format                                   : AC-3
1 r. W8 s- T9 I3 ]9 C: p: {3 t* M4 AFormat/Info                              : Audio Coding 30 l4 b( F0 o$ Z, w8 ~
Commercial name                          : Dolby Digital1 K6 V) v& g1 e+ K1 T
Codec ID                                 : A_AC3
# \* `) k! Y* T% O+ BDuration                                 : 1 h 32 min! {1 N* ^; Y5 ^: ^
Bit rate mode                            : Constant- a1 J. ~/ Z  Z
Bit rate                                 : 192 kb/s3 s9 h: C2 G4 x! O7 _% z
Channel(s)                               : 2 channels
! W/ y0 p% Q7 P5 B) x% u; J% jChannel layout                           : L R
* r; S) f9 Y- f2 k1 BSampling rate                            : 48.0 kHz
, k; y$ q: o, s  Y* ZFrame rate                               : 31.250 FPS (1536 SPF)
* G3 H* {& x7 y  }" ]Compression mode                         : Lossy  B/ r1 s& j4 W' `) ~
Stream size                              : 127 MiB (0%), K& ^. [" Z$ v& T, ?1 {
Title                                    : Friday.The.13th.Part.VIII.Jason.Takes.Manhattan.1989.SHOUT.1080p.BluRaycd.REMUX.AVC.DTS-HD.MA.5.1-FGT
: x6 A- P9 I7 J3 y3 NLanguage                                 : English
/ F/ [: B; |8 r4 s$ pService kind                             : Complete Main  p; b  h0 b' v" E! o
Default                                  : No
2 u! v9 }1 }& s. WForced                                   : No& N: n5 V* o1 R% J- @
Original source medium                   : Blu-ray
# y! _  Y3 H7 {, |+ {* ], Z+ M; }+ ]( a' ?6 @& i3 ?7 Z
Text #1
+ G  I0 V: ^! x& I* ?ID                                       : 7
. J" i7 O: X& ^# yFormat                                   : UTF-8$ o; D* m1 W3 S
Codec ID                                 : S_TEXT/UTF8
/ J& r* N2 m" K9 O' b! g! ]" DCodec ID/Info                            : UTF-8 Plain Text0 `' t; Y% ]; t6 H1 C
Duration                                 : 1 h 27 min
( u* F5 F& ^# JBit rate                                 : 30 b/s; W2 F4 R5 b, w/ {
Count of elements                        : 892) _2 X0 o5 W+ m' W9 m
Stream size                              : 19.5 KiB (0%); c9 ?: E/ a2 \
Title                                    : English-SRT  k! K: W8 h- q  s
Language                                 : English; G. a7 ?/ B8 ]( e' L+ j
Default                                  : Yes9 a0 j. y$ P% c# }
Forced                                   : No! e7 d; g7 M! O* g6 W, v9 v

  S3 B- P2 H0 j8 tText #2
$ _; X$ y1 @  i$ w- FID                                       : 8
3 h. G$ u& i7 {* A! s; s7 C7 b& \: aID in the original source medium         : 4608 (0x1200)
- @; @! x( U! N/ KFormat                                   : PGS4 I+ |7 \; Z* ^2 I+ R
Muxing mode                              : zlib6 v+ X  l" L: S% F8 B
Codec ID                                 : S_HDMV/PGS
( W3 F! t! Z' {0 ^, d0 |4 ]/ t# dCodec ID/Info                            : Picture based subtitle format used on BDs/HD-DVDs
7 _7 D8 Q7 f% d2 ~Duration                                 : 1 h 28 min
6 H! I; }( n4 T9 c  a# I( `4 n5 SBit rate                                 : 24.0 kb/s' F5 W  r/ O) T* u/ U
Count of elements                        : 1804$ B/ R* e* M# ]) d! x8 u
Stream size                              : 15.3 MiB (0%)
# k( _' u& L" U2 P8 gTitle                                    : English-PGS
/ z, Y; ?/ P4 h$ `8 [1 s: QLanguage                                 : English
5 G- K- I( T5 g6 j/ Y, rDefault                                  : No9 z3 |7 P' F" @0 t7 C
Forced                                   : No/ ?& X- W7 q0 @( w! f, @5 X: B8 i$ }6 A
Original source medium                   : Blu-ray
( P9 h1 a& E  X8 u6 ]0 B) [1 n) L  A8 s8 D: `
Menu
& t4 f. \8 @# r% f$ ~00:00:00.000                             : en:Chapter 01
+ g. a2 C: Z  s6 H3 a; A00:07:38.166                             : en:Chapter 02" h  `! e; u3 V$ o
00:17:48.859                             : en:Chapter 033 j* m4 P' ]7 t3 J$ y' q) n; V, \
00:26:40.974                             : en:Chapter 048 a* L% ?" q! `  h+ x: u" _: @: G
00:33:50.528                             : en:Chapter 05/ P. d1 Q% N6 U. y
00:41:26.901                             : en:Chapter 06; G" k, R. @) X
00:50:46.626                             : en:Chapter 07$ U' n# i* d3 m$ G5 a4 E/ {
00:59:12.799                             : en:Chapter 086 ~% b! R& |; X$ Q8 F0 s) y7 e! J' z0 M
01:06:29.360                             : en:Chapter 094 u2 d: U$ Z# Q+ u$ a% t
01:13:17.810                             : en:Chapter 10
% I2 G& e& P/ W; y01:23:15.657                             : en:Chapter 11
. U. r2 V; y+ c7 b, ~2 O3 E01:29:07.258                             : en:Chapter 12
. l, _3 Q5 l$ T' H01:32:12.902                             : en:Chapter 13
Friday the 13th: Part VIII - Jason Takes Manhattan Blu-ray, Video Quality   1 U. f/ ~$ ~& z( e
% T! Q, a) A  P, {

. N0 w3 h& w; a% U; p& bJason Takes Manhattan was shot by Bryan England, who worked on numerous low-budget horror films but is probably best known for shooting Pamela Anderson's TV series V.I.P. On his commentary track, Hedden praises the flexibility that England's lighting allowed him in circumstances where he often had to revise his shooting plans on the spot.6 O+ V7 q% m6 t  `2 w& o

8 I0 ~; V0 @5 e. }Warner/Paramount's 1080p, AVC-encoded Blu-ray offers perhaps the glossiest, most colorful of the Paramount entries in the series. If the studio wouldn't let writer/director Hedden place most of the movie in the Big Apple, they couldn't prevent him from importing its bright lights into the film's palette, which favors bright, saturated colors, often set against a solidly black background, provided either by the night or the darkness of the good ship Lazarus' interiors. Detail is plentiful, and the image is generally film-like, although there's an occasional hint of light grain reduction in large expanses of lighter areas, such as the daytime sky. (You really have to look for it, though.)3 E: O. L3 p0 w( b- \
5 r/ u0 k% x% k: J: R* \5 R7 B
Jason Take Manhattan shares a BD-50 with Friday the 13th Part VII: The New Blood, and as noted in the review of that title, the combined running time and substantial extras have knocked down the average bitrate for both titles. As it happens, Jason Takes Manhattan clocks in at the same average as The New Blood of 18.45 Mbps. Compression artifacts were not observable, however, and I can only attribute this to the fine-grained quality of the image and an obviously careful job of compression.
/ C, Z! N* o4 `, ?+ K) L9 b$ |* l$ g
" c( ^! J! @) cFriday the 13th: Part VIII - Jason Takes Manhattan Blu-ray, Audio Quality   
) T7 v& ]) E# V8 F3 V7 Y/ G9 m0 g; ]% R
; m" ^- y$ q& S: _9 o
Jason Takes Manhattan was released in Ultra Stereo but has been remixed for 5.1 and encoded on Blu-ray as lossless DTS-HD MA 5.1.The track announces its aggressive surround presence with a growl of "Jason!" that travels from left to right and echoes to the back, as the moody theme song "Darkest Side of the Night" kicks in and a brief opening narration by an anonymous radio DJ celebrates the adrenaline of New York City (and thereby prolongs the tease of the film's title and opening montage). Composer Fred Mollin, who had primarily arranged music cues composed by Harry Manfredini in The New Blood, scored this film on his own, which gives it a distinctive sound different it from all the others. (Mollin scored the TV show, which made him a natural fit, when Hedden was picked to write and direct the film.)8 ~% c) o) g' X2 ?$ Y& M

% I* R8 d; Y8 F% S' m2 `Whatever its drawbacks as a narrative device, a ship is always a good locale for sound design, and the SS Lazarus is full of creaks, groans, clanking metal and assorted sounds of machinery and water. The storm adds an entire new layer, and of course there are Jason's various kills, each with its own sonic peculiarities. The 5.1 remix moves much of the ambiance into the surrounds, and this approach continues in the abbreviated Manhattan sequences, with the sounds of seagulls at the landing site, subway noise during a brief ride underground and the elaborate finale in the tunnels. It's an effective mix with wide dynamic range, good bass extension and clear dialogue.& G! k* t( ?; B; _. R! p) u9 y
游客,查看本帖隐藏内容请回复 | 加入VIP贵宾组可免积分免回复下载 了解详情 | 还不是会员:点击获取邀请码 Invitation Code

618

主题

2086

帖子

1万

积分

VIP advanced

金币
1848 枚
体力
4752 点

公主勋章卓越贡献勋章

21cn 发表于 2020-10-22 22:46:12 | 显示全部楼层
十三号星期五这个系列终于有全版的蓝光版了 哈哈( j: l5 N" `+ j# B: `. |

67

主题

1708

帖子

6370

积分

Sponsor

金币
508 枚
体力
2353 点
lanpanshuma 发表于 2020-10-24 16:07:06 | 显示全部楼层
楼主发贴辛苦了,I*老*虎*U!$ z' o( @7 B- c$ {5 ?, K5 _
The decisive Replies sink is I get the sinking feeling great sense of accomplishment!2 i" P$ Z2 B& O0 X9 y
该会员没有 ...

0

主题

366

帖子

1811

积分

Sponsor

金币
1 枚
体力
1028 点
sclzywxl 发表于 2020-10-26 09:47:03 | 显示全部楼层
谢谢楼主分享!

本版积分规则

小黑屋|Archiver|蓝光电影资源网

GMT+8, 2020-12-2 15:26

快速回复 返回顶部 返回列表