BluRayCD Forum

 找回密码
 立即注册【分享大片】

QQ登录

只需一步,快速开始

查看: 64|回复: 6
收起左侧

[蓝光原盘] 十三号星期五9 [REMUX无损版] Jason Goes to Hell The Final Friday 1993 UNRATED SHOUT 1080p BluRaycd REMUX AVC DTS-HD MA 5.1-FGT 25.93GB

[复制链接]

4774

主题

4947

帖子

6万

积分

Post Share

金币
9410 枚
体力
17321 点

卓越贡献勋章

黄金嫖客 发表于 2020-10-22 21:43:41 | 显示全部楼层 |阅读模式
Jason's evil spirit finds its way into a series of host bodies, thus continuing the carnage at Crystal Lake, where Jason confronts a long-lost sister.
5 x" P$ M( M+ c! s* E
* w9 m& Y; \+ K3 w  D: t: u 01.jpg + g0 |  V0 b2 I1 s& D( x5 c
% V4 l& K& @, \5 j
◎译  名 十三号星期五91 ?: m- P, Z% }
◎片  名 Jason Goes to Hell: The Final Friday / Friday the 13th Part IX
  S2 v7 v5 q/ F2 a- g6 {◎年  代 1993
8 l" R4 f3 ~5 s◎产  地 美国
* ]% `" j7 b7 E# q◎类  别 惊悚/恐怖
/ H0 d  r5 R0 d* b5 C  x- F◎语  言 英语' K% a7 E; j; H5 l
◎上映日期 1993-08-13
9 D+ K6 T/ Y+ }6 y# ~◎IMDb评分  4.2/10 from 27,782 users1 t$ o% @; G; I) P; W4 p
◎IMDb链接  https://www.imdb.com/title/tt0107254/$ F. I7 r) C2 B0 B1 n
◎豆瓣评分 5.7/10 from 874 users
- r8 y  x, Z% l6 i9 c6 b( a5 F( h◎豆瓣链接 https://movie.douban.com/subject/1306700/
7 p  |  t* |2 p$ d3 F◎文件格式 x264 + DTS! w' T. N- m! t+ z* d* @  ]
◎视频尺寸 1920 x 1080: h. k$ f& o' p0 h2 N- K' z
◎文件大小 1DVD 25.93 GiB% h- y7 w- k9 e7 f8 i
◎片  长 1 h 30 min
0 N# h: y1 H2 }; h! [◎导  演 亚当·马库斯 Adam Marcus) X. L% y. y, \2 W! ~
◎编  剧 迪恩·洛雷 Dean Lorey $ ], u' ?; R& |) x
       Jay Huguely $ L' m# Q8 S% D3 w5 A1 Z$ Q$ ]
       亚当·马库斯 Adam Marcus
* M, j+ F9 f. g◎主  演 John D. LeMay
5 W1 c. `2 R( |6 m: V       卡里·基冈 Kari Keegan4 N& y5 _( ^0 H1 ~9 G
       凯恩·霍德尔 Kane Hodder
* Q. a4 v2 l4 l' z% q1 i  Z- H5 P) A% d       史蒂文·威廉姆斯 Steven Williams
3 v. b8 w" S4 E6 _- x       Mark Thompson5 T+ X. ^5 S  P% H( N
       Kipp Marcus
" L) F' B3 R* a3 B       拉丝蒂·休默 Rusty Schwimmer4 g' I0 o1 h5 o" v8 Y+ X
       亚当·马库斯 Adam Marcus' \1 k6 p7 _1 Y+ _
       Brian Phelps
0 L- y: B% X9 c( I+ p4 }       艾莉森·史密斯 Allison Smith
/ \/ N: Z: U' R- T       迈克尔·B·希尔维 Michael B. Silver$ e" e1 }* F# K& d3 _
       爱琳·格雷 Erin Gray
6 x8 i5 n4 v7 g2 E% k, ^, n2 I       理查德·甘特 Richard Gant
( |" K* ]1 w3 P& _9 b1 H$ A# g       乔纳森·潘内尔 Jonathan Penner
% M/ n; ~# Y& _4 ?) y2 z  j+ R! U       斯蒂文·卡普 Steven Culp
( [1 D) {+ L* Y1 u       米歇尔·科鲁尼 Michelle Clunie
: E# o$ x) j* Y! l9 O1 I! z$ D9 O1 L       迪恩·洛雷 Dean Lorey
/ a, F# Q, W: A  o4 a) p       莱斯利·乔丹 Leslie Jordan
8 H5 v* u6 y! B( W* w  N" L6 z4 W# ?# R4 M# U" ?
◎标  签 恐怖 | 美国 | 血腥 | 惊悚 | 黑色星期五 | 暴力 | 美国电影 | 1993
8 \  w' R* u5 D1 i3 i+ X4 y* }0 D7 Q% B& G
◎简  介   
/ M' ?$ ]6 A: Q! U7 u. g$ }: D- `  G' l$ \5 t' e# k7 D
  Serial killer Jason Voorhees' supernatural origins are revealed.( S, @1 \2 _" o' g) i

, ]0 d5 z7 |1 r6 _! y3 J  杀人魔王杰森(凯恩·霍德尔 Kane Hodder 饰)在犯下了数不清的命案后终于迎来了属于他的大结局,在警方强大的火力攻势之下,杰森倒下了。然而,就在众人以为这位凶残无情的连环杀手命归西天之时,杰森却借由着验尸官的身体复活了。' ~0 q1 D" q/ X; d5 X$ r
6 P( B6 M/ e- ?# m
  警方发现,杰森能够通过和他有着血缘关系的亲戚的身体复活,于是将重点保护的目标放在了他的姑姑戴安(爱琳·格雷 Erin Gray 饰)和表妹杰西卡(卡里·基冈 Kari Keegan 饰)的身上。遗憾的是,戴安最终没有能够逃脱杰森的毒手,但杰西卡凭借着强大的意志力和惊人的运气和杰森血战到了最后。作为唯一一个拥有彻底消灭杰森的力量的人,杰西卡能否终结这个萦绕了多年的噩梦?  h/ V9 S* w9 D
6 H6 ^4 ?! U6 P
  The secret of Jason's evil is revealed. It is up to the last remaining descendant of the Voorhees family to stop Jason before he becomes immortal and unstoppable. This is the final (?) battle to end Jason's reign of terror forever.( c" J5 ^* P7 U0 [7 e1 L" X

5 ~& a7 g, h. r# `$ x+ d+ e
Video' R- _/ r# _$ K( P1 {
ID                                       : 1
# \2 w& n5 ?" IID in the original source medium         : 4113 (0x1011)" g2 @- k8 y* m1 F& j5 J* G! r
Format                                   : AVC  M2 N9 z& @4 p  A# {3 z; c
Format/Info                              : Advanced Video Codec
2 Q7 L5 \7 [" |) g. ]/ }$ O+ \, ?Format profile                           : High@L4.1' h. k1 v) J2 Z; P% m- q
Format settings                          : CABAC / 4 Ref Frames3 L2 [8 R5 [& `. V) }
Format settings, CABAC                   : Yes
0 ^( [. A/ G& Y* K! EFormat settings, Reference frames        : 4 frames) g6 X; ?2 j) k5 ]
Codec ID                                 : V_MPEG4/ISO/AVC
7 O) g+ o. k/ xDuration                                 : 1 h 30 min
/ P9 d6 ~3 S4 Z- M0 @# u' Q0 V2 SBit rate mode                            : Variable5 X2 f3 z; U. k$ D3 V
Bit rate                                 : 34.8 Mb/s
- T4 v3 w# ^( O7 XMaximum bit rate                         : 38.0 Mb/s
- m" s# S7 t/ c. n" ~Width                                    : 1 920 pixels
$ I; x4 z& l! M! t) _% [3 t# \" UHeight                                   : 1 080 pixels
4 z& ]. O: P% o1 {7 K7 r5 _* e$ F, SDisplay aspect ratio                     : 16:9
/ t) ]% o# B' SFrame rate mode                          : Constant
0 S& M( G% C; d5 ]9 }2 SFrame rate                               : 24.000 FPS; @; I3 D7 T% r/ _- C( c
Color space                              : YUV) O5 s: o5 Q+ ^$ {- [
Chroma subsampling                       : 4:2:0' Z; |2 q' h5 ^
Bit depth                                : 8 bits
1 c, c) c! V9 r0 J; [Scan type                                : Progressive% e" {8 E. z, p4 T7 ?
Bits/(Pixel*Frame)                       : 0.699, {1 N, Q- z# M* \/ n
Stream size                              : 22.0 GiB (85%)8 b& v, E: i# h* D8 B9 }, e8 V. h
Title                                    : Jason.Goes.to.Hell.The.Final.Friday.1993.UNRATED.SHOUT.1080p.BluRayCD.REMUX.AVC.DTS-HD.MA.5.1-FGT6 I5 u7 c5 k! P' P6 a
Language                                 : English- j; f. c& ~' g; O$ v" H
Default                                  : No
$ O- }5 H# ^% h, }9 B$ MForced                                   : No
' d3 I% @1 R. Z( X$ R" P1 ^  N% v! u/ U& zOriginal source medium                   : Blu-ray8 E# @1 r9 m9 o1 Q% e

, }% N* ?1 M4 |: VAudio #13 b( `, ~3 `6 u" ]& g3 H
ID                                       : 2
; \% [% Z% T7 E! `! C: TID in the original source medium         : 4352 (0x1100)
6 k" @/ |% D- g* Q) z- z" _% WFormat                                   : DTS XLL$ ], S- b8 K$ \( u
Format/Info                              : Digital Theater Systems
, ?. g, x+ g! g6 u# }4 q! eCommercial name                          : DTS-HD Master Audio. K  L# _. {" G( C
Codec ID                                 : A_DTS
7 f! ~  Z( v: e9 }% W& m9 TDuration                                 : 1 h 30 min
1 n+ Q! {& O' I+ E4 ?: {Bit rate mode                            : Variable
. \* k. Y7 [7 I2 T7 h' XBit rate                                 : 3 726 kb/s2 `9 o% G2 d( T# a$ M5 @
Channel(s)                               : 6 channels+ M' @. z8 I5 G
Channel layout                           : C L R Ls Rs LFE
8 e4 }8 l* b% sSampling rate                            : 48.0 kHz$ A! T! t: N  y0 V
Frame rate                               : 93.750 FPS (512 SPF)
) u& A2 `; b* e  x4 [Bit depth                                : 24 bits
- R. t" H' d# Z! x1 WCompression mode                         : Lossless
7 T  F+ H' T. T8 R6 K, g6 e1 XStream size                              : 2.36 GiB (9%)
+ W) N# N* R$ m) J* }: eTitle                                    : Jason.Goes.to.Hell.The.Final.Friday.1993.UNRATED.SHOUT.1080p.BluRaycd.REMUX.AVC.DTS-HD.MA.5.1-FGT
$ D% B; e! j8 ]Language                                 : English
7 M5 n8 w9 C! J5 WDefault                                  : Yes& x: ?, ^: E: p/ F
Forced                                   : No: j4 c1 r9 G  t6 M# f( {/ Q
Original source medium                   : Blu-ray6 ^7 Z. f$ W! b- j& c/ m0 s2 h- x

) _! `& n3 X/ z6 v2 Z1 e- j; E( qAudio #2
0 Z6 v" A+ C! f. e) h: w! QID                                       : 3
4 w& \" f9 e9 h4 C9 T3 r, \( B& VID in the original source medium         : 4353 (0x1101)
  z0 M' s4 M+ D# I# xFormat                                   : DTS XLL
9 O/ q; H8 w. z' {Format/Info                              : Digital Theater Systems
+ h8 w5 N0 ^8 Z) eCommercial name                          : DTS-HD Master Audio
. n  ^7 [* h7 h' g0 H, F9 O+ TCodec ID                                 : A_DTS/ i6 g4 f. |! y, {% A
Duration                                 : 1 h 30 min6 U4 j. v0 @/ ~; Q0 _
Bit rate mode                            : Variable
- D8 |" [6 g- W- N5 ^7 P1 I1 Z5 s8 VBit rate                                 : 2 003 kb/s
' e) J2 M0 O/ a. c$ }Channel(s)                               : 2 channels3 e' @! s+ I$ G
Channel layout                           : L R* I' x* N% w1 C* n
Sampling rate                            : 48.0 kHz& v8 L) V$ S9 }3 P! q8 u
Frame rate                               : 93.750 FPS (512 SPF)
2 }+ A5 k) l( WBit depth                                : 24 bits
. o1 \. q' D5 s/ y9 cCompression mode                         : Lossless
- f- V& g4 |# \' i; v8 r. fStream size                              : 1.27 GiB (5%)6 C# B1 H, [+ P5 w
Title                                    : Jason.Goes.to.Hell.The.Final.Friday.1993.UNRATED.SHOUT.1080p.BluRaycd.REMUX.AVC.DTS-HD.MA.5.1-FGT) Q& b4 W# z* W4 A! j3 i
Language                                 : English
$ f: w' T' e$ nDefault                                  : No/ ]6 s, o& m. q+ U; R# S% I
Forced                                   : No# Q* s: y) g1 B7 S) y& p9 B
Original source medium                   : Blu-ray$ w  H9 ?1 j7 O- c$ [  ^

. c- }& m4 l8 R6 ?/ t) b2 }" P, OAudio #3
$ j; X9 R& a# a' T3 K6 DID                                       : 4/ Q( u3 }" H5 M3 B
ID in the original source medium         : 4354 (0x1102)
* }9 r( @! s- r) oFormat                                   : AC-3: P* f. a/ X; ^/ |9 W! E4 O
Format/Info                              : Audio Coding 3
/ }% u  N& T3 mCommercial name                          : Dolby Digital
$ d4 \. T* _7 T1 ~/ q. pCodec ID                                 : A_AC3, S& K9 \1 N; Z) p: I/ m, L4 l
Duration                                 : 1 h 30 min! k1 V9 `) Q, v1 r8 i
Bit rate mode                            : Constant- S( b, ~9 c: d" m' d$ v0 N9 u
Bit rate                                 : 192 kb/s+ s& D2 o  x4 b$ x1 Q. T  F6 i
Channel(s)                               : 2 channels5 N0 y5 ?+ i+ j* G
Channel layout                           : L R
: C" l' c+ k6 ~2 n  z* wSampling rate                            : 48.0 kHz
5 o( R1 C( |- a  XFrame rate                               : 31.250 FPS (1536 SPF)
  p( Y/ q" u2 S* uCompression mode                         : Lossy7 T" Z( V( R* m( b' c7 h  U
Stream size                              : 124 MiB (0%)
5 B6 k' f# o# |+ @Title                                    : Jason.Goes.to.Hell.The.Final.Friday.1993.UNRATED.SHOUT.1080p.BluRaycd.REMUX.AVC.DTS-HD.MA.5.1-FGT
) R- j( I# S6 BLanguage                                 : English
9 p* o! H* U' v( mService kind                             : Complete Main
9 |% h' ~) z& P( D- q$ z  sDefault                                  : No
8 ]- e5 B  |* T; W& ~8 r- m* nForced                                   : No0 N3 X- w" E  t; D* b! y/ ~! w
Original source medium                   : Blu-ray! }' T* I$ H/ ^5 m0 M. ]
& q+ N6 o/ U. A. j# p/ T6 Z( `5 j' [
Audio #44 G% L$ p/ @( ^. U2 f1 Z2 G
ID                                       : 5
# {9 T! l5 ^) f4 }ID in the original source medium         : 4355 (0x1103)( |& I" Q+ }. n' R2 I& }
Format                                   : AC-3
# g* W: {: U$ k* y; x4 yFormat/Info                              : Audio Coding 3
7 ^; ^" w5 r5 H3 f( @" n5 a# ~2 fCommercial name                          : Dolby Digital+ E  r5 r; ^  `- |
Codec ID                                 : A_AC3
. G) Y8 w7 I# e( ~Duration                                 : 1 h 30 min: O/ @% q! p4 X8 h; J4 D/ X
Bit rate mode                            : Constant
' L, Y/ x" ]( F! c7 I. z3 L$ vBit rate                                 : 192 kb/s8 u# q3 H1 E6 z. B) c0 n/ a
Channel(s)                               : 2 channels
# ]( X% z- G- H* bChannel layout                           : L R
" Q6 g1 g$ c6 ]0 a2 x# E2 B$ U+ tSampling rate                            : 48.0 kHz$ j- t) _! }* }; V( M. g
Frame rate                               : 31.250 FPS (1536 SPF)
$ p" i. @% D$ G5 G% eCompression mode                         : Lossy
7 d' p/ R! o. F2 M9 z- `6 yStream size                              : 124 MiB (0%). x! Z7 P7 ]4 d- X4 h
Title                                    : Jason.Goes.to.Hell.The.Final.Friday.1993.UNRATED.SHOUT.1080p.BluRaycd.REMUX.AVC.DTS-HD.MA.5.1-FGT
" ]9 j' \( S# q7 oLanguage                                 : English
% k/ C- {( T( F0 n6 k& G$ PService kind                             : Complete Main3 b! r! U1 D7 G- p: P
Default                                  : No3 l/ O4 r, G. Z& U% }  [
Forced                                   : No0 y7 {) n7 u6 s  b
Original source medium                   : Blu-ray
3 H/ K1 ]# P) j: P3 u" C
7 G) ]7 J& E, f( g2 c; qText #1
7 i2 i) {% t( R6 F% f) vID                                       : 66 T' _6 h1 I: l6 Z
Format                                   : UTF-8
- _+ S3 ?- L+ t) R1 J( K) d( mCodec ID                                 : S_TEXT/UTF8
$ {3 [7 x1 H9 @% K$ Y: m$ uCodec ID/Info                            : UTF-8 Plain Text" H% [4 |3 D9 `3 L. V
Duration                                 : 1 h 23 min
1 D  p, H8 C! F/ ~  A/ UBit rate                                 : 35 b/s
; W: l. T' d, v: v- N! K% \- O6 wCount of elements                        : 923
5 L* h' u" o2 L  TStream size                              : 21.9 KiB (0%)' T2 B) \- C) `6 E
Title                                    : English-SRT
6 u2 }- Y2 z% J/ o/ x- X4 TLanguage                                 : English+ _) i8 b0 G6 I2 Z8 ?. d/ k5 Y
Default                                  : Yes# \2 b- p  q# w1 E
Forced                                   : No7 [, o$ s  u" z. \1 Z! ]2 }% j
, t( a8 E! e6 ~9 u2 f1 {- X6 N. j
Text #2
% i) Q! w8 {* |, X% h3 @' @. NID                                       : 7$ t6 R8 f$ F% R, d8 S) {
ID in the original source medium         : 4608 (0x1200)
% a8 l/ G- ]2 W7 G* PFormat                                   : PGS- @- J2 T1 A/ o! |4 ^
Muxing mode                              : zlib& l4 f# z( u3 \* D5 Z
Codec ID                                 : S_HDMV/PGS) D6 n0 R+ R3 m
Codec ID/Info                            : Picture based subtitle format used on BDs/HD-DVDs
8 t6 d: Y; w2 [( l9 Q. }Duration                                 : 1 h 30 min
* Z5 t' k; z9 Y; iBit rate                                 : 51.2 kb/s
& L, r2 {6 E% I: ACount of elements                        : 24124 y" F2 ]$ O) ^
Stream size                              : 33.1 MiB (0%)
# E9 Z" C) w7 b! f( ~Title                                    : English-PGS
) A- E' k4 Y7 A1 O2 \0 SLanguage                                 : English! n2 v$ H# {0 i7 P9 }8 D$ ^* c$ z. {
Default                                  : No9 s, Z! j9 M8 N' B4 f
Forced                                   : No% h: K( m" J. _% ?
Original source medium                   : Blu-ray
+ R  u  E! V) C+ J9 W3 I& D" O
Menu1 d& E" |, d3 f
00:00:00.000                             : en:Chapter 01
" ~7 O/ U, u/ D! H% u1 d00:07:51.166                             : en:Chapter 02* |6 [+ F' V# p
00:15:14.458                             : en:Chapter 036 v, N, |0 E8 X3 G4 E. ^
00:21:34.000                             : en:Chapter 04* N% E- l2 i: o/ o. u! R: m+ l
00:28:45.791                             : en:Chapter 05
; n  ^# A3 i2 M# j1 [, J- _. I& m# k; N00:36:32.416                             : en:Chapter 06
! \$ q; v% c1 i% U" O00:44:42.583                             : en:Chapter 07
# R" Z5 E2 _$ _" Z! b: C( K& D00:52:28.208                             : en:Chapter 08
4 q; v. J! H! O3 p/ n; A01:00:37.833                             : en:Chapter 09
! ]5 v# X  `. l6 K! M- P! o; g' p, _01:09:17.291                             : en:Chapter 10
6 s; I0 Y* |/ Z% f. h! u01:19:20.416                             : en:Chapter 111 u& J: A$ T' E7 T6 L3 y4 a
01:26:15.291                             : en:Chapter 12
Jason Goes to Hell: The Final Friday Blu-ray, Video Quality   
! x& p# t( i! e/ u: A( L/ j+ v! {4 _0 r
7 y' p) M! f' x
Whatever the shortcomings of Jason Goes to Hell as a film, the image on Warner's 1080p, AVC-encoded Blu-ray is excellent. The passage of four years and the move to New Line Cinema upgraded the series' technical quality. Jason Goes to Hell was shot by William Dill, an experienced DP for TV and independent film, who now teaches cinematography full time. Dill photographed the film in a largely realistic manner that has since become commonplace in major TV productions, but in 1993 was ahead of its time. Except for sequences requiring stylized lighting (e.g., the all-out assault on Jason early in the film, the autopsy sequence and the spooky visits to the long-abandoned Voorhees mansion—wait, there was a mansion?), the lighting is gentle and the color palette isn't overstated. It's an ordinary world into which extraordinary events suddenly erupt.! G/ j: ~% o* o) _+ l3 l) s

& S: T; ?) @0 W( MWarner's Blu-ray image is finely detailed, with solid blacks, good contrast and colors that are distinct without becoming overassertive. The sole exception is Campbell's TV broadcasts, where colors have been exaggerated into NTSC-style primaries; these portions of the film have been windowboxed at 1.33:1. The film's grain texture is fine and undisturbed by digital tampering. Jason Goes to Hell shares a BD-50 with Jason X, but the absence of major extras has allowed enough room for an average bitrate of 22.92 Mbps, which is sufficient to avoid any compression-related issues.
4 y1 a" [3 C, L, w  X. W: J- k1 g2 q
Jason Goes to Hell: The Final Friday Blu-ray, Audio Quality   2 v5 D# a$ V6 }. S/ G+ V- l: @

' ~  T$ F; [) ?$ e% W1 o1 b  y! M- k
Jason Goes to Hell was released in Dolby Surround, but by 1993 studios and sound designers knew that multichannel formats were the future and most of them were saving their tracks and stems for future remixes. The Blu-ray's lossless DTS-HD MA 5.1 track begins quietly enough with echoes of Harry Manfredini's original score announcing the possibility of Jason's presence, but it kicks in with authority and presence when the man in the hockey mask reveals himself to his intended victim. The military assault on Jason is classic movie overkill, with rifles, small arms and grenades exploding around the room. Until the film's fiery conclusion, no scene quite matches this one in sonic intensity, but there's plenty of loud gunfire, bone-cracking (not all of it by Jason's "carriers") and various roars, screams and wails to fill out the track. Ambiant noises from distinct environments appear in the surrounds, and Manfredini has taken the opportunity of composing for a different kind of film to write a more expansive score. If nothing else, the film sounds great.
4 B3 \' n7 ^' A: O+ ?) e, R: o
游客,查看本帖隐藏内容请回复 | 加入VIP贵宾组可免积分免回复下载 了解详情 | 还不是会员:点击获取邀请码 Invitation Code

618

主题

2086

帖子

1万

积分

VIP advanced

金币
1848 枚
体力
4752 点

公主勋章卓越贡献勋章

21cn 发表于 2020-10-22 22:50:13 | 显示全部楼层
十三号星期五这个系列终于有全版的蓝光版了 哈哈

67

主题

1708

帖子

6370

积分

Sponsor

金币
508 枚
体力
2353 点
lanpanshuma 发表于 2020-10-24 16:10:28 | 显示全部楼层
这么好的帖子不回对不起自己!
" L& h- I6 u  m" [' @Blu-ray movies Community: my favorite!1 _  l) j( Q2 ?5 z7 s+ B
该会员没有 ...

0

主题

366

帖子

1811

积分

Sponsor

金币
1 枚
体力
1028 点
sclzywxl 发表于 2020-10-25 08:07:32 | 显示全部楼层
谢谢楼主分享

5

主题

160

帖子

1114

积分

Sponsor

金币
228 枚
体力
586 点
QQ
nbcrc 发表于 2020-10-26 13:26:00 | 显示全部楼层
每天都来蓝光论坛看看,我爱蓝光电影。9 D5 Y1 E/ E6 p1 `7 B4 Q
Blu-ray Film Forum: I will always support you!
: f9 ~$ o# h' N
蓝光论坛里 ...

0

主题

587

帖子

2614

积分

Sponsor

金币
17 枚
体力
1455 点
QQ
七喜 发表于 2020-11-2 16:22:53 | 显示全部楼层
这么好的帖子不回对不起自己!
, `4 T% N  M1 _( YThank you for sharing such a good resource polite reply, very sorry for myself!& M8 p! @7 F4 ]

1

主题

338

帖子

1271

积分

Sponsor

金币
43 枚
体力
574 点
firendzhon 发表于 2020-11-17 15:07:28 | 显示全部楼层
十三号星期五9  谢谢分享
2020第一天 ...

本版积分规则

小黑屋|Archiver|蓝光电影资源网

GMT+8, 2020-12-2 14:56

快速回复 返回顶部 返回列表